This file was generated by Ched 2.7.0.0.
#TITLE ""
#ARTIST ""
#DESIGNER ""
#DIFFICULTY 0
#PLAYLEVEL
#SONGID ""
#WAVE ""
#WAVEOFFSET 0
#JACKET ""
#REQUEST "ticks_per_beat 480"
#00002: 4
#BPM01: 142
#00008: 01
#TIL00: ""
#VOLUME: ""
#HISPEED 00
#MEASUREHS 00
#0051a:14
#00514:0014
#00618:14
#00612:0014
#0071a:14
#00714:0014
#00818:14
#00812:0014
#0091a:1414
#00910:41
#01014:1414
#02118:24141400
#02214:14141400
#0231a:14141400
#02412:14141400
#02518:1414
#02514:00140000
#02510:41
#02614:1414
#02618:00140000
#0271a:1414
#02714:00140000
#02812:1414
#02818:00140000
#02918:14
#0291a:00343400
#03014:14
#03012:00343400
#0311a:14
#03118:00343400
#03212:14
#03214:00343400
#03414:14
#03412:00340000
#0351a:14
#03518:00340000
#03612:14
#03614:00340000
#03714:00140014
#0371a:2414
#0381a:14140000
#03812:00001414
#03918:1414
#03912:00140014
#04018:14140000
#04014:00001414
#0411a:14
#04114:00140000
#04118:0014
#04112:00000014
#04110:41
#0421a:14140000
#04214:00001414
#04318:14
#04312:00140000
#0431a:0014
#04314:00000014
#04418:14140000
#04412:00001414
#0531a:24140000
#05314:00001414
#05318:0000000000140000
#0531f:21
#0541a:14140000
#05412:00001414
#05418:0000000000140000
#05410:41
#05712:14
#0571a:00140000
#05714:00001414
#05718:0000000000140000
#0581a:14
#05812:00140000
#05818:00001414
#05814:0000000000140000
#05912:14001414
#0591a:00140000
#05918:0000000000140000
#0601a:14001414
#06012:00140000
#06014:0000000000140000
#06212:14140000
#06218:0014000000000000
#0621a:00001414
#06214:0000000000140000
#06714:14
#03318:14
#0331a:00340000
#03310:41
#05512:14140000
#05518:00001414
#05514:0000000000140000
#05612:14140000
#0561a:00001414
#05614:0000000000140000
#01118:1414
#01212:1414
#06412:14140000
#06418:0014000000000000
#0641a:00001414
#06414:0000000000140000
#06612:14140000
#06618:0014000000000000
#0661a:00001414
#06614:0000000000140000
#0451f:11
#00318:26262600
#00412:26262600
#01710:41
#06812:53
#02958:54
#03054:64
#0315a:64
#03252:54
#03454:64
#03452:00000014
#0355a:64
#03558:00000014
#03652:54
#03654:00000014
#06754:64
#03358:54
#0335a:00000014
#01758:0014
#01854:0014
#01958:0014
#02054:0014
#013380:14
#0133a0:0024
#014340:14
#014320:0024
#015380:14
#0153a0:0024
#016340:14
#016320:0024
#0173a0:14
#017380:0024
#018320:14
#018340:0024
#0193a0:14
#019380:0024
#020320:14
#020340:0024
#029380:14
#0293a0:00343424
#030340:14
#030320:00343424
#0313a0:14
#031380:00343424
#032320:14
#032340:00343424
#033380:14
#0333a0:00343424
#034340:14
#034320:00343424
#0353a0:14
#035380:00343424
#036320:14
#036340:00343424
#0453a0:14240000
#045340:00001424
#046380:14240000
#046320:00001424
#047380:14240000
#047340:00001424
#0483a0:14240000
#048320:00001424
#049380:14
#0493a0:00240000
#049340:0014
#049320:00000024
#050380:14
#0503a0:00240000
#050340:0014
#050320:00000024
#0513a0:14
#051380:00240000
#051320:0014
#051340:00000024
#0523a0:14
#052380:00240000
#052320:0014
#052340:00000024
#061320:14
#061340:00240000
#061380:0014
#0613a0:00000024
#063340:14
#063320:00240000
#0633a0:0014
#063380:00000024
#065320:14
#065340:00240000
#065380:0014
#0653a0:00000024
#067340:14
#068320:23
