This file was generated by Ched 2.7.0.0.
#TITLE ""
#ARTIST ""
#DESIGNER ""
#DIFFICULTY 0
#PLAYLEVEL
#SONGID ""
#WAVE ""
#WAVEOFFSET 0
#JACKET ""
#REQUEST "ticks_per_beat 480"
#00002: 4
#BPM01: 200
#00008: 01
#TIL00: ""
#VOLUME: ""
#HISPEED 00
#MEASUREHS 00
#01118:00140000
#01214:00140000
#0131a:00140000
#01414:00140000
#01518:00140000
#01914:00140000
#02018:00140000
#02112:00140000
#02818:00140000
#02914:00140000
#0301a:00140000
#03112:00140000
#0321a:00140000
#03314:00140000
#03418:00140000
#03718:00260016
#03818:00160000
#03912:00160016
#04012:00160000
#04118:00160000
#04112:00000016
#04110:41
#04218:00160000
#04512:00260016
#04612:00160000
#04718:00160016
#04818:00160000
#05018:00160000
#05012:00000016
#05312:00140000
#05418:00140000
#05514:00140000
#0561a:00140000
#05610:41
#05714:00140000
#05818:00140000
#0691a:00140000
#07014:00140000
#07118:00140000
#07212:00140000
#08118:00160000
#08112:00000016
#08110:41
#08218:00160000
#08212:00000016
#09118:00160000
#09112:00000016
#09218:00160000
#09212:00000016
#08518:00160016
#08618:00160000
#0611f:11
#0611a:00240000
#00018:0026000000000000
#00212:0026000000000000
#00418:0026000000000000
#01012:0026000000000000
#01010:0041
#0181a:0024000000000000
#06518:00240000
#08712:00260000
#08818:00260000
#08912:00260026
#09012:00260000
#09318:0026000000000000
#09412:0026000000000000
#09410:41
#10612:00000026
#10618:0026000000000000
#07912:0026
#0791f:21
#05118:00260000
#07718:00260000
#09518:0026000000000000
#10312:0026000000000000
#10418:0026000000000000
#10512:0026000000000000
#02510:0041000000000000
#004380:0016000000000000
#007380:0026
#016320:00140000
#017320:00240000
#0223a0:00140000
#0233a0:00240000
#024320:00140000
#025320:0034000000000000
#027320:00240000
#035340:00140000
#036320:00240000
#042320:00000016
#044320:00260000
#049320:00160026
#059340:00140000
#060320:00240000
#0613a0:00140000
#0623a0:00240000
#063340:00140000
#064340:00240000
#065380:00140000
#066380:00240000
#067320:00140000
#068320:00240000
#073380:00140000
#074380:00240000
#075340:00140000
#076340:00240000
#079320:0016
#080320:0036000000260000
#083380:00160026
#084320:00160026
#093380:0016000000002600
#094320:0016000000002600
#095380:0016000000000000
#095360:0000000000360000
#096380:0036000000000000
#096360:0000000000360000
#097380:0036000000000000
#100360:00000026
