This file was generated by Ched 2.7.0.0.
#TITLE ""
#ARTIST ""
#DESIGNER ""
#DIFFICULTY 0
#PLAYLEVEL
#SONGID ""
#WAVE ""
#WAVEOFFSET 0
#JACKET ""
#REQUEST "ticks_per_beat 480"
#00002: 4
#BPM01: 200
#00008: 01
#TIL00: ""
#VOLUME: ""
#HISPEED 00
#MEASUREHS 00
#10416:0014000000000000
#1041a:0014000000000000
#10414:0000000000002323
#10419:0000000000002323
#00715:0013000000130013
#00718:13001313
#0071b:00130000
#00712:0000001300000000
#01218:0000000013000013
#0121b:1313000000000000
#01215:0013000000130000
#01212:0000001300000000
#01318:0000000000000013
#01315:13
#01312:0013001300000000
#0131b:0013000000130000
#01415:1300000000000013
#01412:0013000000140000
#01417:0013000000140000
#01518:13
#0151b:0013000000000000
#01516:0013000000000000
#01514:0000000000000014
#01515:0000000000140000
#0151a:0000000000140000
#01618:1400001400260000
#01612:0026000000000014
#0161a:0000000000000014
#01614:0014
#01714:0000000000001313
#01719:1500000000001313
#01712:15002600002300000000000000000000
#01718:0026000000000000
#0171b:00000000002300000000000000000000
#01918:1313001300000000
#01915:0000000013000013
#0191b:0000000000130000
#01912:0013000000130000
#01812:0016001300001300
#01815:0013
#01818:0000000000130000
#0181b:0013000000001300
#02015:0000001300130000
#02018:0013000013000013
#0201b:00000013
#02012:0013000000000000
#02115:13000013
#0211a:0014000000140000
#02112:0013001400130000
#02118:0000001300000013
#0221b:1300000000000013
#02215:0013000000000000
#02318:0013000000001313
#02315:0013000000000000
#02312:00000000001300000000000013001300
#0231b:00000000001300000000000000000000
#0241b:0013000000000000
#02412:0000001300002424
#02415:0013000013000000
#02418:0000000000130000
#0241a:0000000000002424
#02612:0000002400000024000000240000002400000024000000000000000014000000
#02616:0000000000000014
#0261b:0013000000530000
#02613:24242424242424242424640000000000
#02614:0024000000240000002400000024000000240000000000000000000000000000
#02619:00535300
#02617:0000005300000000
#02812:0013000000000000
#0281b:0023000000000000
#02818:0000002323232300
#02912:0013000000001300
#02918:0000001300130000
#02915:0000000013000013
#0291b:0013000000000000
#02919:00000000000000000000005300000000
#0291a:00000053
#03018:1300000013130013
#0301b:0013000000000000
#03015:00000013
#03012:0013000013000000
#0311b:0013000000000013
#03115:1300000000130000
#03118:00000013
#03112:0013001313000016
#0331b:0013000013333300
#03312:1300000023242526
#03317:00000000001300000000000000000000
#03315:0013000000000000
#0381b:0000000000130000
#03817:0013000000000000
#03816:00000000000013000000000000140000
#03918:0013000013130000
#03912:1400001300000000
#03915:00130000
#0391b:0000130000000013
#03916:0000000000000013
#04015:0000001300000000
#04018:0013
#04017:0013000000000000
#0401a:0000000000140024
#04012:0000000000240000
#04016:00000024
#0451b:0013000013000000
#04518:1300000000130013
#04515:13000013
#04512:0013000016000013
#04612:0013001300130000
#04618:0000131300000000
#0461b:0013000000130000
#04616:00000000000000000000000000140000
#04712:0000130000130000
#0471a:14
#0471b:0000000000000013
#05016:0013000000000000
#0501b:0013000000001300
#05012:0000001300001300
#05015:0000000013000013
#05018:0000000000130013
#05912:0013000000000000
#05916:00000000000000000013000000000000
#05918:13
#0591b:0013000000000000
#07015:0013000000000000
#07012:0000000013130000
#0701b:0000000013130000
#07018:13
#07014:00000053000000000000000000000000
#07013:00530000
#07118:0013000013001300
#07112:00130000
#07115:0000001300000013
#0711b:0000130000130000
#07212:13000013
#07218:0000130000130013
#07215:0013000013130000
#0721b:0000001300000000
#07312:0013000000000000
#0731b:1313
#0791a:0000000014140000
#07913:0000000000001414
#07912:0000000014140000
#07919:0000000000001414
#0791f:21
#08112:1300000000130014
#08115:0013001300000000
#08116:0000000000000014
#08118:00131300
#0811b:0000000000130000
#08110:41
#08012:0014000000000000
#08016:0014001400140000
#0801a:00000000000000000000000000140000
#08216:00001400000000000000140000140000
#0821a:00001400000000000000000000140000
#08214:0000001400000000
#08218:0000001400000000
#08212:0000000000140000
#0831b:00130000
#08318:0000001300001600
#08315:0000000013000013
#08312:0000160000130000
#0841b:0000001300001313
#08415:0013000000000000
#08418:1600130000130000
#08412:1300000016001313
#08918:1300260000131300
#08915:0013000000000000
#08912:0000131300002600
#0891b:0000000000000013
#09016:0000000000000013
#09012:1300262600000000
#09018:0013000026260000
#0901b:0000000000000013
#09112:0000001313130000
#09117:0013000000000000
#09118:0000000000160000
#09212:0016001300001300
#09215:0013
#09218:0000000000130013
#0921b:1313000000001300
#09312:0013000000002325
#09318:0016001300130000
#09315:1313
#09512:0013000000240000
#09518:0000001313000023
#09515:0029002323000013
#09517:27
#0951a:0000000000240000
#00015:0000001313000000
#00018:00000013
#00012:0024000000001300
#0001a:0024000000000000
#00115:13
#0011a:0014000000002400
#00116:0000001400000000
#00112:0000000000140000
#00212:0000001300130000
#00218:0000000013000013
#0021a:2424000000000000
#00315:13
#0031a:0024002400002400
#00312:0024002400242400
#0051a:00000014
#00516:00000014
#00512:0014
#00616:14
#00612:14130013
#0061b:00130013
#00614:0013
#00619:0013
#00615:0000000000000013
#00818:0013000000130013
#00812:0000001300000000
#0081b:0013
#00815:00000013
#00915:13
#00912:0013000014002424
#00916:0000001400140000
#0091a:0000140000002424
#01012:0000000013130000
#01018:0000000000130000
#01015:0026000000000000
#01010:0041
#0111b:1313000000000000
#01115:0013000000000000
#01112:0000000013130000
#01118:0000000000130000
#0271a:0014000000000000
#02716:0014000000530000
#02717:0000001300000053
#02712:0000001300000053
#02719:00005353
#0271b:0000000000530000
#02714:00005353
#03218:0016000013001300
#03212:0013000000130000
#03215:0013
#0321b:0000000000000013
#03412:00130000
#0341b:00230000
#0341a:0000002400000000
#03419:0025
#03418:0000000000260000
#03415:0000000000000026
#03414:0033
#03413:0000003300000000
#03618:0000000013130000
#03619:0000000000001315
#0361a:00240000
#03615:0000000023230000
#03614:00000023
#03612:0000240000000025
#03716:0000000000000013
#0371b:0000000000000013
#03719:0015150000000000
#03712:0015150000000000
#0411b:00130000
#04112:0000130000130000
#04118:0000001300000000
#04115:00001313
#0411a:00000014
#04110:41
#04212:1300000014002424
#0421b:1300001300000000
#04215:0013000000000000
#04218:00131300
#0421a:0000000000002424
#04318:00002316
#0431b:0000002300000000
#04315:00240000000000000000230000002300
#04312:00000023
#04317:000000000000000000000000000000000000000000000000000000000000000000000000000000000000000000000000000000000000000000000000000000000000000000000000000000000000000000000000000000000000000000000000000000000000000000000000000000000000000000000024000000000000000000000000000000000000000000000000000000000000000000000000000000000000000000000000000000000000000000000000000000000000000000000000000000000000000000000000000000000000000000000000000000000000000000000000000000000000000000000000000000000000000000000000000000000000000000000000000000000000000000000000000000000000000000000000000000000000000000000000000000000000000000000000000000000000000000000000000000000000000000000000000000000000000000000000000000000000000000000000000000000000000000000000000000000000000000000000000000000000000000000000000000000000000000000000000000000000000000000000000000000000000000000000000000000000000000000000000000000000000000000000000000000000000000000000000000000000000000000000000000000000000000000000000000000000000000000000000000000000000000000000000000000000000000000000000000000000000000000000000000000000000000000000000000000000000000000000000000000000000000000000000000000000000000000000000000000000000000000000000000000000000000000000000000000000000000000000000000000000000000000000000000000000000000000000000000000000000000000000000000000000000000000000000000000000000000000000000000000000000000000000000000000000000000000000000000000000000000000000000000000000000000000000000000000000000000000000000000000000000000000000000000000000000000000000000000000000000000000000000000000000000000000000000000000000000000000000000000000000000000000000000000000000000000000000000000000000000000000000000000000000000000000000000000000000000000000000000000000000000000000000000000000000000000000000000000000000000000000000000000000000000000000000000000000000000000000000000000000000000000000000000000000000000000000000000000000000000000000000000000000000000000000000000000000000000000000000000000000000000000000000000000000000000000000000000000000000000000000000000000000000000000000000000000000000000000000000000000000000000000000000000000000000000000000000000000000000000000000000000000000000000000000000000000000000000000000000000000000000000000000000000000000000000000000000000000000000000000000000000000000000000000000000000000000000000000000000000000000000000000000000000000000000000000000000000000000000000000000000000000000000000000000000000000000000000000000000000000000000000000000000000000000000000000000000000000000000000000000000000000000000000000000000000000000000000000000000000000000000000000000000000000000000000000000000000000000000000000000000000000000000000000000000000000000000000000000000000000000000000000000000000000000000000000000000000000000000000000000000000000000000000000000000000000000000000000000000000000000000000000000000000000000000000000000000000000000000000000000000000000000000000000000000000000000000000000000000000000000000000000000000000000000000000000000000000000000000000000000000000000000000000000000000000000000000000000000000000000000000000000000000000000000000000000000000000000000000000000000000000000000000000000000000000000000000000000000000000000000000000000000000000000000000000000000000000000000000000000000000000000000000000000000000000000000000000000000000000000000000000000000000000000000000000000000000000000000000000000000000000000000000000000000000000000000000000000000000000000000000000000000000000000000000000000000000000000000000000000000000000000000000000000000000000000000000000000000000000000000000000000000000000000000000000000000000000000000000000000000000000000000000000000000000000000000000000000000000000000000000000000000000000000000000000000000000000000000000000000000000000000000000000000000000000000000000000000000000000000000000000000000000000000000000000000000000000000000000000000000000
#04412:0016001414000000
#04418:23
#0441b:0023000000000000
#04416:0024
#04815:0013000000130000
#04812:00000000130000000000000000130000
#04818:0013001300000000
#0481b:0013
#05112:00130000000000000000000000001300
#0511b:00130000000000001300000000001300
#05115:00000013
#05118:0000000000130000
#05214:0013000000000000
#05219:0013000000000000
#05212:0000002400240000
#05216:0024
#0521a:0000002400240000
#05312:0013000000001300
#05316:00000000000000130000000000000000
#0531b:0013000000000000
#05314:0000000000000033
#0541a:0014000000000000
#05412:0000001400000000
#05417:0000001300000000
#0541b:00000013
#05416:33000013
#05419:0000000000000033
#05512:0013000000000000
#05516:00000000001300000000000000000000
#0551b:0013
#05518:3300000000000033
#05519:00000033
#0551a:0000000000330000
#05612:13
#05614:0033000000000000
#05610:41
#0571b:00130013
#05715:0000000000000013
#05712:0000000000130000
#05718:0013
#05818:0013000000130000
#05815:0000130000000013
#0581b:0000001300000000
#05812:0013
#06012:0013000000000000
#0601b:0013000000000000
#0691b:22130000
#06912:0000000000130000
#06918:0000001300001300
#06915:0000000013000013
#0751b:0013000000000000
#07516:0013000000000000
#07519:0000002424000000
#07518:0000000000002424
#07417:0000000000000013
#07412:0000252525250013
#07615:00000000000000000013000000000000
#07612:0013000000000000
#0761b:0023000000000000
#07618:00000000000000000023000000000000
#0941b:0013000000002300
#09415:0000001300130000
#09418:0013
#09412:2729000000000000
#09419:0000000000000025
#09410:41
#09615:13
#09618:2300002400141400
#0961a:0024000000000014
#09612:0024000000000024
#09614:0000002400242400
#1011a:0024001400001400
#10112:0024000014000014
#10116:0000000000140000
#10118:23
#10216:1400000000001313
#1021a:0014000000000000
#1021b:0000000000001313
#10212:0000260000260000
#10215:0000002600000000
#10218:0026
#10312:0014000000001313
#10316:0014000000000000
#10317:0000000000001313
#0251b:0000001300000053
#02513:00002424242424242424242424242424
#02514:0000000000240000002400000024000000240000002400000024000000240000
#02512:0000000000000024000000240000002400000024000000240000002400000024
#02510:0041000000000000
#02519:00005353
#02517:0000000000530000
#03512:0000000000130000
#0351b:0000000000130000
#03515:0023000000000000
#03518:0023000000000000
#06115:0013000000000000
#06118:00130033
#0611f:11
#06113:0022
#0621b:00130000
#06213:2222
#06218:00000033
#06315:00130033
#06313:22
#0631b:0022
#06412:00130000
#0641b:2222
#06415:00000033
#06518:00130033
#0651b:22
#06513:0022
#0661b:00130000
#06613:2222
#06618:00000033
#06715:00130033
#06713:22
#0671b:0022
#06812:00130000
#0681b:2222
#06815:00000033
#08712:002c0000
#07712:00220000
#0771c:00220000
#07715:0022
#07717:0000000000220000
#0771a:0000000000000022
#08812:0024002400230000
#0881a:0024002400000000
#08818:0024
#0881b:0000000000230000
#08814:0024
#10015:0000000000000023
#10516:0000000000000024
#10512:0024000000000000
#1051a:0024000000000000
#10616:240000000000000000000000000000000000000000000000000000000000000000000000000000000000000000000000000000000000000000000000000000000000000000000000000000000000000000000000000000000000000000000000000000000000000000000000000000000000000000000000000000000000000000000000000000000000000000000000000000000000000000000000000000000000000000000000000000000000000000000000000000000000000000000000000000000000000000000000000000000000000000000000000000000000000000000000000000000000000000000000000000000000000000000000000000000000000000000000000000000000000000000000000000000000000000000000000000000000000000000000000000000000000000000000000000000000000000000000000000000000000000000000000000000000000000000000000000000000000000000000000000000000000000000000000000000000000000000000000000000000000000000000000000000000000000000000000000000000000000000000000000000000000000000000000000000000000000000000000000000000000000000000000000000000000000000000000000000000000000000000000000000000000000000000000000000000000000000000000000000000000000000000000000000000000000000000000000000000000000000000000000000000000000000000000000000000000000000000000000000000000000000000000000000000000000000000000000000000000000000000000000000000000000000000000000000000000000000000000000000000000000000000000000000000000000000000000000000000000000000000000000000000000000000000000000000000000000000000000000000000000000000000000000000000000000000000000000000000000000000000000000000000000000000000000000000000000000000000000000000000000000000000000000000000000000000000000000000000000000000000000000000000000000000000000000000000000000000000000000000000000000000000000000000000000000000000000000000000000000000024240000000000000000000000000000000000000000000000000000000000000000000000000000000000000000000000000000000000000000000000000000000000000000000000000000000000000000000000000000000000000000000000000000000000000000000000000000000000000000000000000000000000000000000000000000000000000000000000000000000000000000000000000000000000000000000000000000000000000000000000000000000000000000000000000000000000000000000000000000000000000000000000000000000000000000000000000000000000000000000000000000000000000000000000000000000000000000000000000000000000000000000000000000000000000000000000000000000000000000000000000000000000000000000000000000000000000000000000000000000000000000000000000000000000000000000000000000000000000000000000000000000000000000000000000000000000000000000000000000000000000000000000000000000000000000000000000000000000000000000000000000000000000000000000000000000000000000000000000000000000000000000000000000000000000000000000000000000000000000000000000000000000000000000000000000000000000000000000000000000000000000000000000000000000000000000000000000000000000000000000000000000000000000000000000000000000000000000000000000000000000000000000000000000000000000000000000000000000000000000000000000000000000000000000000000000000000000000000000000000000000000000000000000000000000000000000000000000000000000000000000000000000000000000000000000000000000000000000000000000000000000000000000000000000000000000000000000000000000000000000000000000000000000000000000000000000000000000000000000000000000000000000000000000000000000000000000000000000000000000000000000000000000000000000000000000000000000000000000000000000000000000000000000000000000000000000000000000000000000000000000000000000000000000000000000000000000000000000000000000000000000000000000000000000000000000000000000000000000000000000000000000000000000000000000000000000000000000000000000000000000000000000000000000000000000000000000000000000000000000000000000000000000000000000000000000000000000000000000000000000000000000000000000000000000000000000000000000000000000000000000000000000000000000000000000000000000000000000000000000000000000000000000000000000000000000000000000000000000000000000
#1061a:0024000000000000
#10612:0024000000000000
#0041a:2424000000000000
#00412:0024000000000000
#07812:0022000000000000
#0781c:0022000000000000
#07814:0000002200000000
#0781a:0000002200000000
#07818:0000000000220000
#07816:0000000000220000
#08518:0000230000002626
#08515:00230000
#08512:0000000026260000
#09716:0024000000000000
#0491b:23
#04917:00230000
#04912:00230000
#08615:00000000000000240000000000000000
#08617:000000000000000000000000000000000000000000000000000000000000000000000000000000000000000000000000000000000000000000000000000000000000000000000000000000000000000000000000000000000000000000000000000000000000000000000000000000000000000000000000000000000000000000000000000000000000000000000000000000000000000000000000000000000000000000000000000000000000000000000000000000000000000000000000000000000000000000000000000000000000000000000000000000000000000000000000000000000000000000000000000000000000000000000000000000000000000000000000000000000000000000000000000000000000000000000000000000000000000000000000000000000000000000000000000000000000000000000000000000000000000000000000000000000000000000000000000000000000000000000000000000000000000000000000000000000000000000000000000000000000000000000000000000000000000000000000000000000000000000000000000000000000000000000000000000000000000000000000000000000000000000000000000000000000000000000000000000000000000000000000000000000000000000000000000000000000000000000000000000000000000000000000000000000000000000000000000000000000000000000000000000000000000000000000000000000000000000000000000000000000000000000000000000000000000000000000000000000000000000000000000000000000000000000000000000000000000000000000000000000000000000000000000000000000000000000000000000000000000000000000000000000000000000000000000000000000000000000000000000000000000000000000000000000000000000000000000000000000000000000000000000000000000000000000000000000000000000000000000000000000000000000000000000000000000000000000000000000000000000000000000000000000000000000000000000000000000000000000000000000000000000000000000000000000000000000000000000000000000000000024000000000000000000000000000000000000000000000000000000000000000000000000000000000000000000000000000000000000000000000000000000000000000000000000000000000000000000000000000000000000000000000000000000000000000000000000000000000000000000000000000000000000000000000000000000000000000000000000000000000000000000000000000000000000000000000000000000000000000000000000000000000000000000000000000000000000000000000000000000000000000000000000000000000000000000000000000000000000000000000000000000000000000000000000000000000000000000000000000000000000000000000000000000000000000000000000000000000000000000000000000000000000000000000000000000000000000000000000000000000000000000000000000000000000000000000000000000000000000000000000000000000000000000000000000000000000000000000000000000000000000000000000000000000000000000000000000000000000000000000000000000000000000000000000000000000000000000000000000000000000000000000000000000000000000000000000000000000000000000000000000000000000000000000000000000000000000000000000000000000000000000000000000000000000000000000000000000000000000000000000000000000000000000000000000000000000000000000000000000000000000000000000000000000000000000000000000000000000000000000000000000000000000000000000000000000000000000000000000000000000000000000000000000000000000000000000000000000000000000000000000000000000000000000000000000000000000000000000000000000000000000000000000000000000000000000000000000000000000000000000000000000000000000000000000000000000000000000000000000000000000000000000000000000000000000000000000000000000000000000000000000000000000000000000000000000000000000000000000000000000000000000000000000000000000000000000000000000000000000000000000000000000000000000000000000000000000000000000000000000000000000000000000000000000000000000000000000000000000000000000000000000000000000000000000000000000000000000000000000000000000000000000000000000000000000000000000000000000000000000000000000000000000000000000000000000000000000000000000000000000000000000000000000000000000000000000000000000000000000000000000000000000000000000000000000000000000000000000000000000000000000000000000000000000000000000000000000000000000000000000
#0861a:24
#08612:24
#08752:001c0000
#10456:0014000000000000
#1045a:0014000000000000
#00052:0014000000000000
#0005a:0014000000000000
#00058:00000053
#00755:0000000000000053
#01055:0016000000000000
#01052:0000000000530000
#01452:0053000000140000
#01455:0000001400000000
#01457:0053000000140000
#0145a:0000001400000000
#0195b:0000000000530000
#01952:0063000000000000
#0215a:0014000000140000
#02152:0000001400000000
#02255:0053000000000000
#02358:0053000000000000
#02355:0063000000000000
#02352:00000000002300000000000000000000
#0235b:00000000002300000000000000000000
#02553:00005454545454545454545454545454
#02554:0000000000240000002400000024000000240000002400000024000000240000
#02552:0000000000000024000000240000002400000024000000240000002400000024
#0255b:0000000000000013
#02652:0000002400000024000000240000002400000024000000000000000014000000
#02656:0000000000000014
#02653:54545454545454545454000000000000
#02654:0024000000240000002400000024000000240000000000000000000000000000
#0265b:0000000000130000
#02852:0063000000000000
#0315b:0053000000000000
#03152:0000000000000016
#0335b:0063000063000000
#03357:00000000002300000000000000000000
#03352:0000000000000016
#03358:0000000000000016
#0385b:0000000000630000
#03857:0063000000000000
#03856:00000000000053000000000000240000
#04152:14
#0415a:14000014
#0445b:0063000000000000
#0445a:00000014
#04456:00005414
#04452:0054
#04752:1400000000630000
#0475a:14
#05055:0000000000000053
#05058:0000000000000063
#0505b:0053000000000000
#05952:0053000000000000
#05956:00000000000000000023000000000000
#06052:0053000000000016
#0605b:0063000000000000
#06058:0000000000000016
#07052:0000000000530000
#0705b:0000000000630000
#07258:0000630000000063
#0725b:0000002300000000
#07255:0000000000530000
#07252:00000023
#07352:0063000000000000
#0735b:2353
#08256:00001400000000000000540000240000
#0825a:00001400000000000000000000240000
#08254:0000001400000000
#08258:0000001400000000
#08252:0000000000540000
#0845b:0000000000000053
#08452:0000000036000063
#08858:00006414
#0885b:0000000000230000
#08854:00005414
#08852:0000000000230000
#09056:0000000000000063
#09352:0063000000000000
#09358:0046000000000000
#09552:0013000000140000
#0955a:0000000000140000
#09555:0019000000000000
#09652:0014000000000000
#0965a:0014000000000000
#09654:0000001400000000
#09658:0000001400000000
#10656:000000000000000000000000000000000000000000000000000000000000000000000000000000000000000000000000000000000000000000000000000000000000000000000000000000000000000000000000000000000000000000000000000000000000000000000000000000000000000000000000000000000000000000000000000000000000000000000000000000000000000000000000000000000000000000000000000000000000000000000000000000000000000000000000000000000000000000000000000000000000000000000000000000000000000000000000000000000000000000000000000000000000000000000000000000000000000000000000000000000000000000000000000000000000000000000000000000000000000000000000000000000000000000000000000000000000000000000000000000000000000000000000000000000000000000000000000000000000000000000000000000000000000000000000000000000000000000000000000000000000000000000000000000000000000000000000000000000000000000000000000000000000000000000000000000000000000000000000000000000000000000000000000000000000000000000000000000000000000000000000000000000000000000000000000000000000000000000000000000000000000000000000000000000000000000000000000000000000000000000000000000000000000000000000000000000000000000000000000000000000000000000000000000000000000000000000000000000000000000000000000000000000000000000000000000000000000000000000000000000000000000000000000000000000000000000000000000000000000000000000000000000000000000000000000000000000000000000000000000000000000000000000000000000000000000000000000000000000000000000000000000000000000000000000000000000000000000000000000000000000000000000000000000000000000000000000000000000000000000000000000000000000000000000000000000000000000000000000000000000000000000000000000000000000000000000000000000000000000000000024240000000000000000000000000000000000000000000000000000000000000000000000000000000000000000000000000000000000000000000000000000000000000000000000000000000000000000000000000000000000000000000000000000000000000000000000000000000000000000000000000000000000000000000000000000000000000000000000000000000000000000000000000000000000000000000000000000000000000000000000000000000000000000000000000000000000000000000000000000000000000000000000000000000000000000000000000000000000000000000000000000000000000000000000000000000000000000000000000000000000000000000000000000000000000000000000000000000000000000000000000000000000000000000000000000000000000000000000000000000000000000000000000000000000000000000000000000000000000000000000000000000000000000000000000000000000000000000000000000000000000000000000000000000000000000000000000000000000000000000000000000000000000000000000000000000000000000000000000000000000000000000000000000000000000000000000000000000000000000000000000000000000000000000000000000000000000000000000000000000000000000000000000000000000000000000000000000000000000000000000000000000000000000000000000000000000000000000000000000000000000000000000000000000000000000000000000000000000000000000000000000000000000000000000000000000000000000000000000000000000000000000000000000000000000000000000000000000000000000000000000000000000000000000000000000000000000000000000000000000000000000000000000000000000000000000000000000000000000000000000000000000000000000000000000000000000000000000000000000000000000000000000000000000000000000000000000000000000000000000000000000000000000000000000000000000000000000000000000000000000000000000000000000000000000000000000000000000000000000000000000000000000000000000000000000000000000000000000000000000000000000000000000000000000000000000000000000000000000000000000000000000000000000000000000000000000000000000000000000000000000000000000000000000000000000000000000000000000000000000000000000000000000000000000000000000000000000000000000000000000000000000000000000000000000000000000000000000000000000000000000000000000000000000000000000000000000000000000000000000000000000000000000000000000000000000000000000000000000000000000
#1065a:0054000000004400
#10652:0064000000003400
#00152:0000000000540000
#0015a:0014000000000000
#00156:0000001400000000
#00256:0014000000000000
#0025a:0014000000000000
#0035a:0014005400000000
#00352:0014000000006400
#00556:00000014
#0055a:00000014
#00656:14
#00652:14
#00858:0063000000000000
#0115b:0063000000000000
#01152:0000000000530000
#0125b:0063000000000000
#01255:0000000000630000
#0155b:0063000000000000
#01556:0063000000000000
#01557:0000001400000000
#01552:0000001400000000
#01555:0000000000140000
#0155a:0000000000140000
#01752:00005600002300001600000000000000
#01758:0056000016000000
#0175b:00000000002300000000000000000000
#01852:0016000000000000
#0185b:0053000000000000
#02058:0053000000000000
#0245b:0053000000000000
#0275a:0014000000000000
#02756:0014000000000000
#02752:0000000000000013
#02757:0000000000000013
#03258:0016000000006300
#03252:0000000000230000
#03255:0053
#0325b:0000000000000023
#03452:0000530000160000
#03458:0000000000160000
#03455:0000000000000016
#0365a:00140000
#03652:0000140000000015
#03659:0000000000000015
#03756:0000000000000053
#03759:00550000
#03752:00550000
#03758:0013
#03755:0013
#03955:00530000
#03952:1400002300000000
#03956:0000000000000053
#04057:0063000000000000
#04052:0000000000540000
#04056:00000024
#04252:0000000014000054
#0425a:0000000000000054
#04355:00240000000000000000000000000000
#04357:000000000000000000000000000000000000000000000000000000000000000000000000000000000000000000000000000000000000000000000000000000000000000000000000000000000000000000000000000000000000000000000000000000000000000000000000000000000000000000000024000000000000000000000000000000000000000000000000000000000000000000000000000000000000000000000000000000000000000000000000000000000000000000000000000000000000000000000000000000000000000000000000000000000000000000000000000000000000000000000000000000000000000000000000000000000000000000000000000000000000000000000000000000000000000000000000000000000000000000000000000000000000000000000000000000000000000000000000000000000000000000000000000000000000000000000000000000000000000000000000000000000000000000000000000000000000000000000000000000000000000000000000000000000000000000000000000000000000000000000000000000000000000000000000000000000000000000000000000000000000000000000000000000000000000000000000000000000000000000000000000000000000000000000000000000000000000000000000000000000000000000000000000000000000000000000000000000000000000000000000000000000000000000000000000000000000000000000000000000000000000000000000000000000000000000000000000000000000000000000000000000000000000000000000000000000000000000000000000000000000000000000000000000000000000000000000000000000000000000000000000000000000000000000000000000000000000000000000000000000000000000000000000000000000000000000000000000000000000000000000000000000000000000000000000000000000000000000000000000000000000000000000000000000000000000000000000000000000000000000000000000000000000000000000000000000000000000000000000000000000000000000000000000000000000000000000000000000000000000000000000000000000000000000000000000000000000000000000000000000000000000000000000000000000000000000000000000000000000000000000000000000000000000000000000000000000000000000000000000000000000000000000000000000000000000000000000000000000000000000000000000000000000000000000000000000000000000000000000000000000000000000000000000000000000000000000000000000000000000000000000000000000000000000000000000000000000000000000000000000000000000000000000000000000000000000000000000000000000000000000000000000000000000000000000000000000000000000000000000000000000000000000000000000000000000000000000000000000000000000000000000000000000000000000000000000000000000000000000000000000000000000000000000000000000000000000000000000000000000000000000000000000000000000000000000000000000000000000000000000000000000000000000000000000000000000000000000000000000000000000000000000000000000000000000000000000000000000000000000000000000000000000000000000000000000000000000000000000000000000000000000000000000000000000000000000000000000000000000000000000000000000000000000000000000000000000000000000000000000000000000000000000000000000000000000000000000000000000000000000000000000000000000000000000000000000000000000000000000000000000000000000000000000000000000000000000000000000000000000000000000000000000000000000000000000000000000000000000000000000000000000000000000000000000000000000000000000000000000000000000000000000000000000000000000000000000000000000000000000000000000000000000000000000000000000000000000000000000000000000000000000000000000000000000000000000000000000000000000000000000000000000000000000000000000000000000000000000000000000000000000000000000000000000000000000000000000000000000000000000000000000000000000000000000000000000000000000000000000000000000000000000000000000000000000000000000000000000000000000000000000000000000000000000000000000000000000000000000000000000000000000000000000000000000000000000000000000000000000000000000000000000000000000000000000000000000000000000000000000000000000000000000000000000000000000000000000000000000000000000000000000000000000000000000000000000000000000000000000000000000000000000000000000000000000000000000000000000000000000000000
#04558:53
#0455b:0023000000000000
#04555:63
#04552:0023000016000000
#04652:0000000000530000
#04656:00000000000000000000000000240000
#04855:0063000000630000
#04852:00000000230000000000000000230000
#04858:0000005300000000
#0485b:0023
#05152:00230000000000000000000000000000
#0515b:00230000000000000000000000000000
#05155:00130000
#05158:00130000
#05256:0000000000000014
#0525a:0000000000540000
#05352:0053000000005300
#05356:00000000000000230000000000000000
#0545a:0014000000000000
#05452:0000001400000000
#0545b:00000063
#05552:0053000000000000
#05556:00000000002300000000000000000000
#0555b:0063
#05652:53
#0575b:00130000
#07655:00000000000000000023000000000000
#07652:0063000000000034
#07658:00000000000000000023000000000000
#0765b:0063000000000000
#0765a:0000000000000044
#07556:0063000000000000
#07452:0000000000000063
#07858:0000000000520000
#07856:0000000000620000
#07952:14
#0795a:14
#08052:0014000000140000
#0805a:00000000000014000000000000240000
#08056:0054005400540000
#08152:0000000000000014
#08156:0000000000000014
#08352:14
#08356:14
#08358:00000046
#08558:00530000
#08958:00460000
#08952:00000036
#09157:0053000000000000
#09158:0000000000460000
#09152:0000000000530000
#09252:0036000000000000
#0925b:0063000000000000
#0945b:0053000000000000
#09452:0019000000000000
#10152:0014000000000000
#1015a:0014000000000000
#10356:0014000000000000
#10352:0014000000000000
#10552:0014000000000000
#1055a:0014000000000000
#0135b:0063000000000000
#01352:0000005300000000
#03555:0053000000000000
#03552:0000000000230000
#0355b:0000000000230000
#03558:0063000000000000
#0495b:53
#04957:00530000
#04952:00530000
#0045a:0054000000000000
#01652:0036000000000000
#01658:0000000000460000
#06158:00530000
#0625b:00230000
#06355:00630000
#06452:00230000
#06558:00530000
#0665b:00230000
#06755:00630000
#06852:00230000
#0865a:6400000000000044
#08652:5400000000000034
#08655:00000000000000240000000000000000
#08657:000000000000000000000000000000000000000000000000000000000000000000000000000000000000000000000000000000000000000000000000000000000000000000000000000000000000000000000000000000000000000000000000000000000000000000000000000000000000000000000000000000000000000000000000000000000000000000000000000000000000000000000000000000000000000000000000000000000000000000000000000000000000000000000000000000000000000000000000000000000000000000000000000000000000000000000000000000000000000000000000000000000000000000000000000000000000000000000000000000000000000000000000000000000000000000000000000000000000000000000000000000000000000000000000000000000000000000000000000000000000000000000000000000000000000000000000000000000000000000000000000000000000000000000000000000000000000000000000000000000000000000000000000000000000000000000000000000000000000000000000000000000000000000000000000000000000000000000000000000000000000000000000000000000000000000000000000000000000000000000000000000000000000000000000000000000000000000000000000000000000000000000000000000000000000000000000000000000000000000000000000000000000000000000000000000000000000000000000000000000000000000000000000000000000000000000000000000000000000000000000000000000000000000000000000000000000000000000000000000000000000000000000000000000000000000000000000000000000000000000000000000000000000000000000000000000000000000000000000000000000000000000000000000000000000000000000000000000000000000000000000000000000000000000000000000000000000000000000000000000000000000000000000000000000000000000000000000000000000000000000000000000000000000000000000000000000000000000000000000000000000000000000000000000000000000000000000000000000000000000024000000000000000000000000000000000000000000000000000000000000000000000000000000000000000000000000000000000000000000000000000000000000000000000000000000000000000000000000000000000000000000000000000000000000000000000000000000000000000000000000000000000000000000000000000000000000000000000000000000000000000000000000000000000000000000000000000000000000000000000000000000000000000000000000000000000000000000000000000000000000000000000000000000000000000000000000000000000000000000000000000000000000000000000000000000000000000000000000000000000000000000000000000000000000000000000000000000000000000000000000000000000000000000000000000000000000000000000000000000000000000000000000000000000000000000000000000000000000000000000000000000000000000000000000000000000000000000000000000000000000000000000000000000000000000000000000000000000000000000000000000000000000000000000000000000000000000000000000000000000000000000000000000000000000000000000000000000000000000000000000000000000000000000000000000000000000000000000000000000000000000000000000000000000000000000000000000000000000000000000000000000000000000000000000000000000000000000000000000000000000000000000000000000000000000000000000000000000000000000000000000000000000000000000000000000000000000000000000000000000000000000000000000000000000000000000000000000000000000000000000000000000000000000000000000000000000000000000000000000000000000000000000000000000000000000000000000000000000000000000000000000000000000000000000000000000000000000000000000000000000000000000000000000000000000000000000000000000000000000000000000000000000000000000000000000000000000000000000000000000000000000000000000000000000000000000000000000000000000000000000000000000000000000000000000000000000000000000000000000000000000000000000000000000000000000000000000000000000000000000000000000000000000000000000000000000000000000000000000000000000000000000000000000000000000000000000000000000000000000000000000000000000000000000000000000000000000000000000000000000000000000000000000000000000000000000000000000000000000000000000000000000000000000000000000000000000000000000000000000000000000000000000000000000000000000000000000000000000000000000000
#000380:00000013
#0013b0:23
#001320:0000000000140000
#002360:3424000000000000
#0033a0:0000001400000000
#003360:0000000000240000
#003320:00000014
#004360:24
#0043a0:0014000000000000
#005360:0024
#007350:0000000000000013
#008320:0023000000000000
#008381:0013000000000000
#0083b1:0000002300000000
#010321:0000000000130000
#011351:23
#0113b1:0013000000000000
#011381:0023
#011321:0000000000130000
#012351:23
#0123b1:0013000000000000
#012381:0000002300000000
#012351:0000000000130000
#012321:0000000000000023
#0133b1:0013000000000000
#013371:0000002300000000
#013320:0000001300000000
#013360:0000000000230000
#014320:0013000000000000
#014350:0000002400000000
#014371:0013000000000000
#0143a1:0000002400000000
#0153b1:0013000000000000
#015371:0000002400000000
#015360:0013000000000000
#015320:0000002400000000
#017320:00001600005300002600000000000000
#017381:0016000026000000
#0173b1:00000000005300000000000000000000
#0183b1:0013000000000000
#018381:0000002300000000
#019321:0013000000000000
#019351:0000002300000000
#0193b1:0000000000130000
#019381:0000000000000023
#020381:0013000000000000
#0203b1:0000002300000000
#022351:0013000000000000
#022321:0000002300000000
#022380:0000001323000000
#022351:0000000013230000
#022380:0000000000132300
#022321:0000000000001323
#023381:0013000023000000
#0233b1:00000000005300000000000000000000
#023350:0013000023000000
#023320:00000000005300000000000000000000
#0243b0:0013000000000000
#024380:0000002300000000
#025330:00001454545454545454545454545454
#025340:0000000000540000005400000054000000540000005400000054000000540000
#025320:0000000000000054000000540000005400000054000000540000005400000054
#026330:54545454545454545454240000000000
#026340:0054000000540000005400000054000000540000000000000000000000000000
#026320:0000005400000054000000540000005400000054000000000000000000000000
#028320:0013000000000033
#028350:0000003333333300
#029350:23
#028381:00000013
#0283b1:0000000000000033
#029381:23
#0313b1:0013000000000000
#031381:0000003323000000
#032351:00001323
#032321:0000000000530000
#032380:00000013
#0323b0:0000000000000053
#033380:23
#0333b0:0013000033333300
#033370:00000000005300000000000000000000
#033380:0000000000000026
#034320:0000130000260000
#034330:0000003300000000
#034340:0033
#035350:0013000000000000
#035320:0000000000530000
#036350:23
#035381:0013000000000000
#0353b1:0000000000530000
#036381:23
#037391:00150000
#037381:0023
#037320:00150000
#037350:0023
#037360:0000000000000013
#037320:00000000000000000000000000000053
#038320:0023000000000000
#038371:0013000000000000
#0383b1:00000053000023000000000000000000
#038360:0000001300000000
#038320:00000000000000530000230000000000
#0383b1:0000000000130000
#038361:00000000000000000000000000540000
#0393a1:24
#039351:0000130033230000
#039321:0000005300000000
#039361:0000000000000013
#039321:00000000000000000000000000000053
#040321:0023000000000000
#040370:0013000000000000
#0403b0:00000053000023000000000000000000
#040320:0000000000140034
#040360:00000054
#041320:24
#0403a1:0000000000000014
#0413a1:24
#042321:0000000000000014
#043351:00540000000000000000000000000000
#043321:00240000
#0423a0:0000000000000014
#043370:000000000000000000000000000000000000000000000000000000000000000000000000000000000000000000000000000000000000000000000000000000000000000000000000000000000000000000000000000000000000000000000000000000000000000000000000000000000000000000000054000000000000000000000000000000000000000000000000000000000000000000000000000000000000000000000000000000000000000000000000000000000000000000000000000000000000000000000000000000000000000000000000000000000000000000000000000000000000000000000000000000000000000000000000000000000000000000000000000000000000000000000000000000000000000000000000000000000000000000000000000000000000000000000000000000000000000000000000000000000000000000000000000000000000000000000000000000000000000000000000000000000000000000000000000000000000000000000000000000000000000000000000000000000000000000000000000000000000000000000000000000000000000000000000000000000000000000000000000000000000000000000000000000000000000000000000000000000000000000000000000000000000000000000000000000000000000000000000000000000000000000000000000000000000000000000000000000000000000000000000000000000000000000000000000000000000000000000000000000000000000000000000000000000000000000000000000000000000000000000000000000000000000000000000000000000000000000000000000000000000000000000000000000000000000000000000000000000000000000000000000000000000000000000000000000000000000000000000000000000000000000000000000000000000000000000000000000000000000000000000000000000000000000000000000000000000000000000000000000000000000000000000000000000000000000000000000000000000000000000000000000000000000000000000000000000000000000000000000000000000000000000000000000000000000000000000000000000000000000000000000000000000000000000000000000000000000000000000000000000000000000000000000000000000000000000000000000000000000000000000000000000000000000000000000000000000000000000000000000000000000000000000000000000000000000000000000000000000000000000000000000000000000000000000000000000000000000000000000000000000000000000000000000000000000000000000000000000000000000000000000000000000000000000000000000000000000000000000000000000000000000000000000000000000000000000000000000000000000000000000000000000000000000000000000000000000000000000000000000000000000000000000000000000000000000000000000000000000000000000000000000000000000000000000000000000000000000000000000000000000000000000000000000000000000000000000000000000000000000000000000000000000000000000000000000000000000000000000000000000000000000000000000000000000000000000000000000000000000000000000000000000000000000000000000000000000000000000000000000000000000000000000000000000000000000000000000000000000000000000000000000000000000000000000000000000000000000000000000000000000000000000000000000000000000000000000000000000000000000000000000000000000000000000000000000000000000000000000000000000000000000000000000000000000000000000000000000000000000000000000000000000000000000000000000000000000000000000000000000000000000000000000000000000000000000000000000000000000000000000000000000000000000000000000000000000000000000000000000000000000000000000000000000000000000000000000000000000000000000000000000000000000000000000000000000000000000000000000000000000000000000000000000000000000000000000000000000000000000000000000000000000000000000000000000000000000000000000000000000000000000000000000000000000000000000000000000000000000000000000000000000000000000000000000000000000000000000000000000000000000000000000000000000000000000000000000000000000000000000000000000000000000000000000000000000000000000000000000000000000000000000000000000000000000000000000000000000000000000000000000000000000000000000000000000000000000000000000000000000000000000000000000000000000000000000000000000000000000000000000000000000000000000000000000000000000000000000000000000000000000000000000000000000000000000000000000000000000000000000000000
#0433a0:00240000
#0443b0:0013000000000000
#044360:0000003434000000
#0443a0:00000024
#044321:0014
#044361:00000024
#045381:13230000
#0453b1:0053000000000000
#045350:13230000
#045320:0053000000000000
#046320:0000000000130000
#046360:00000000000000000000000000540000
#047320:24
#0473b0:0000132300000000
#047351:0000001323000000
#047380:0000000013230000
#047321:0000000000130000
#047361:0000000000000023
#048351:0013002300000000
#048321:00530000
#048380:0000001300230000
#0483b0:0053
#048351:0000000000130000
#048321:00000000000000000000000000530000
#049351:23
#0493b0:13000023
#049370:00330000
#049321:00130000
#049361:00000023
#0503b1:0013000000000000
#050371:0000002300000000
#050351:0000000000000013
#051321:00530000000000000000000000000000
#051351:00230000
#050380:0000000000000013
#0513b0:00530000000000000000000000000000
#051380:00230000
#0523a0:0000000000140000
#052360:0000000000000024
#053320:0013000000003300
#053360:00000000000000530000000000000000
#053340:0000000000000033
#054360:3323000000000000
#0543b0:00000013
#054390:0000000000000033
#055380:33
#055370:0023000000000000
#055321:0013000023000000
#055361:00000000005300000000000000000000
#0553b0:0013
#0553a0:0000000000330000
#055390:00000033
#055380:0000000000000033
#056370:23
#056321:13
#056341:0033000000000000
#056361:00230000
#0563b0:00130023
#056390:0000003300330000
#056370:0033
#056321:00000013
#056341:0000000000000033
#057361:33
#057341:0033000000000000
#057321:00230000
#059321:0013000000000000
#059361:00000000000000000053000000000000
#060321:0033000000000026
#0603b0:0013000000000000
#060380:0000000000000026
#061380:00130033
#0623b0:00330000
#062380:00000033
#063380:00230000
#063351:00130033
#064321:00330000
#064351:00000033
#065351:00230000
#065380:00130033
#0663b0:00330000
#066380:00000033
#067380:00230000
#067351:00130033
#068321:00330000
#068351:00000033
#069351:00230000
#070321:0000000000130000
#071351:23
#0703b0:0000000000130000
#071380:23
#072380:00132300
#0723b0:0000005300000000
#072350:0000000000130023
#072320:00000053
#072381:0000000000000013
#0733b1:53
#073381:0023000000000000
#073320:0013000000000000
#073360:0023
#0733b1:0013
#074371:0000000000230000
#074321:0000000000000013
#075361:0033000000000000
#076321:0033000000000024
#076351:00000000000000000053000000000000
#0763b0:0013000000000000
#076380:00000000000000000053000000000000
#0763a0:0000000000000024
#078380:0000000000120000
#0793a0:24
#078361:0000000000120000
#079321:24
#080361:0014000000000000
#0803a1:00000054000024000000000000000000
#080360:0000001400000000
#080320:00000000000000540000240000000000
#080361:0000000000140000
#0803a1:00000000000000000000000000540000
#081361:24
#082361:0000000000140000
#0823a1:00000000000000000000000000540000
#083361:24
#082320:0000000000140000
#082360:00000000000000000000000000540000
#083320:24
#0843b0:0000000000000013
#085380:0023000000000000
#084321:0000000000000013
#085351:0023000000000000
#085381:00130000
#0853b1:0023
#0863a1:1400000000000024
#086371:000000000000000000000000000000000000000000000000000000000000000000000000000000000000000000000000000000000000000000000000000000000000000000000000000000000000000000000000000000000000000000000000000000000000000000000000000000000000000000000000000000000000000000000000000000000000000000000000000000000000000000000000000000000000000000000000000000000000000000000000000000000000000000000000000000000000000000000000000000000000000000000000000000000000000000000000000000000000000000000000000000000000000000000000000000000000000000000000000000000000000000000000000000000000000000000000000000000000000000000000000000000000000000000000000000000000000000000000000000000000000000000000000000000000000000000000000000000000000000000000000000000000000000000000000000000000000000000000000000000000000000000000000000000000000000000000000000000000000000000000000000000000000000000000000000000000000000000000000000000000000000000000000000000000000000000000000000000000000000000000000000000000000000000000000000000000000000000000000000000000000000000000000000000000000000000000000000000000000000000000000000000000000000000000000000000000000000000000000000000000000000000000000000000000000000000000000000000000000000000000000000000000000000000000000000000000000000000000000000000000000000000000000000000000000000000000000000000000000000000000000000000000000000000000000000000000000000000000000000000000000000000000000000000000000000000000000000000000000000000000000000000000000000000000000000000000000000000000000000000000000000000000000000000000000000000000000000000000000000000000000000000000000000000000000000000000000000000000000000000000000000000000000000000000000000000000000000000000000000000054000000000000000000000000000000000000000000000000000000000000000000000000000000000000000000000000000000000000000000000000000000000000000000000000000000000000000000000000000000000000000000000000000000000000000000000000000000000000000000000000000000000000000000000000000000000000000000000000000000000000000000000000000000000000000000000000000000000000000000000000000000000000000000000000000000000000000000000000000000000000000000000000000000000000000000000000000000000000000000000000000000000000000000000000000000000000000000000000000000000000000000000000000000000000000000000000000000000000000000000000000000000000000000000000000000000000000000000000000000000000000000000000000000000000000000000000000000000000000000000000000000000000000000000000000000000000000000000000000000000000000000000000000000000000000000000000000000000000000000000000000000000000000000000000000000000000000000000000000000000000000000000000000000000000000000000000000000000000000000000000000000000000000000000000000000000000000000000000000000000000000000000000000000000000000000000000000000000000000000000000000000000000000000000000000000000000000000000000000000000000000000000000000000000000000000000000000000000000000000000000000000000000000000000000000000000000000000000000000000000000000000000000000000000000000000000000000000000000000000000000000000000000000000000000000000000000000000000000000000000000000000000000000000000000000000000000000000000000000000000000000000000000000000000000000000000000000000000000000000000000000000000000000000000000000000000000000000000000000000000000000000000000000000000000000000000000000000000000000000000000000000000000000000000000000000000000000000000000000000000000000000000000000000000000000000000000000000000000000000000000000000000000000000000000000000000000000000000000000000000000000000000000000000000000000000000000000000000000000000000000000000000000000000000000000000000000000000000000000000000000000000000000000000000000000000000000000000000000000000000000000000000000000000000000000000000000000000000000000000000000000000000000000000000000000000000000000000000000000000000000000000000000000000000000000000000000000000000000000000000000
#086320:1400000000000024
#086350:00000000000000540000000000000000
#088380:00001424
#0883b0:0000000000530000
#088341:00001424
#088321:0000000000530000
#090361:0000000000000013
#091321:0023000000000000
#091370:0013000000000000
#0913b0:0000002300000000
#091320:0000000000130000
#092360:23
#0923b0:0013000000000000
#092370:0000002300000000
#093320:0013000000000000
#093350:0000002300000000
#0943b0:0013000000000000
#094380:0000002300000000
#097360:0014000000000000
#100320:00000000002c0000
#1063a0:0014000000002400
#106360:00000000000000540000000000000000
#106321:0014000000002400
#106361:000000000000000000000000000000000000000000000000000000000000000000000000000000000000000000000000000000000000000000000000000000000000000000000000000000000000000000000000000000000000000000000000000000000000000000000000000000000000000000000000000000000000000000000000000000000000000000000000000000000000000000000000000000000000000000000000000000000000000000000000000000000000000000000000000000000000000000000000000000000000000000000000000000000000000000000000000000000000000000000000000000000000000000000000000000000000000000000000000000000000000000000000000000000000000000000000000000000000000000000000000000000000000000000000000000000000000000000000000000000000000000000000000000000000000000000000000000000000000000000000000000000000000000000000000000000000000000000000000000000000000000000000000000000000000000000000000000000000000000000000000000000000000000000000000000000000000000000000000000000000000000000000000000000000000000000000000000000000000000000000000000000000000000000000000000000000000000000000000000000000000000000000000000000000000000000000000000000000000000000000000000000000000000000000000000000000000000000000000000000000000000000000000000000000000000000000000000000000000000000000000000000000000000000000000000000000000000000000000000000000000000000000000000000000000000000000000000000000000000000000000000000000000000000000000000000000000000000000000000000000000000000000000000000000000000000000000000000000000000000000000000000000000000000000000000000000000000000000000000000000000000000000000000000000000000000000000000000000000000000000000000000000000000000000000000000000000000000000000000000000000000000000000000000000000000000000000000000000000000000054000000000000000000000000000000000000000000000000000000000000000000000000000000000000000000000000000000000000000000000000000000000000000000000000000000000000000000000000000000000000000000000000000000000000000000000000000000000000000000000000000000000000000000000000000000000000000000000000000000000000000000000000000000000000000000000000000000000000000000000000000000000000000000000000000000000000000000000000000000000000000000000000000000000000000000000000000000000000000000000000000000000000000000000000000000000000000000000000000000000000000000000000000000000000000000000000000000000000000000000000000000000000000000000000000000000000000000000000000000000000000000000000000000000000000000000000000000000000000000000000000000000000000000000000000000000000000000000000000000000000000000000000000000000000000000000000000000000000000000000000000000000000000000000000000000000000000000000000000000000000000000000000000000000000000000000000000000000000000000000000000000000000000000000000000000000000000000000000000000000000000000000000000000000000000000000000000000000000000000000000000000000000000000000000000000000000000000000000000000000000000000000000000000000000000000000000000000000000000000000000000000000000000000000000000000000000000000000000000000000000000000000000000000000000000000000000000000000000000000000000000000000000000000000000000000000000000000000000000000000000000000000000000000000000000000000000000000000000000000000000000000000000000000000000000000000000000000000000000000000000000000000000000000000000000000000000000000000000000000000000000000000000000000000000000000000000000000000000000000000000000000000000000000000000000000000000000000000000000000000000000000000000000000000000000000000000000000000000000000000000000000000000000000000000000000000000000000000000000000000000000000000000000000000000000000000000000000000000000000000000000000000000000000000000000000000000000000000000000000000000000000000000000000000000000000000000000000000000000000000000000000000000000000000000000000000000000000000000000000000000000000000000000000000000000000000000000000000000000000000000000000000000000000000000000000000000000000000000000000000000
#0259b0:000000000000000000000000000000000000000000000000000000000000000000000000000000000000000000000000000000000000000000000000000000000000000000000000000000000000000000000000000000000000000000000000000000000000000000000000000000000000000000000000000000000000000000000000000000000000000000000000000000000000000000000000000000000000000000000000000000000000000000000000000000000000000000000000000000000000000000000000000000000000000000000000000000000000000000000000000000000000000000000000000000000000000000000000000000000000000000000000000000000000000000000000000000000000000000000000000000000000000000000000000000000000000000000000000000000000000000000000000000000000000000000000000000000000000000000000000000000000000000000000000000000000000000000000000000000000000000000000000000000000000000000000000000000000000000000000000000000000000000000000000000000000000000000000000000000000000000000000000000000000000000000000000000000000000000000000000000000000000000000000000000000000000000000000000000000000000000000000000000000000000000000000000000000000000000000000000000000000000000000000000000000000000000000000000000000000000000000000000000000000000000000000000000000000000000000000000000000000000000000000000000000000000000000000000000000000000000000000000000000000000000000000000000000000000000000000000000000000000000000000000000000000000000000000000000000000000000000000000000000000000000000000000000000000000000000000000000000000000000000000130000000000000000000000000000000000000000000000000000000000000000000000000000000000000000000000000000000000000000000000000000000000000000000000000000000000000000000000000000000000000000000000000000000000000000000000000000000000000000000000000000000000000000000000000000000000000000000000000000000000000000000000000000000000000000000000000000000000000000000000000000000000000000000000000000000000000000000000000000000000000000000000000000000000000000000000000000000000000000000000000000000000000000000000000000000000000000000000000000000000000000000000000000000000000000000000000000000000000000000000000000000000000000000000000000000000000000000000000000000000000000000000000000000000000000000000000000000000000000000000000000000000000000000000000000000000000000000000000000000000000000000000000000000000000000000000000000000000000000000000000000000000000000000000000000000000000000000000000000000000000000000000000000000000000000000000000000000000000000000000000000000000000000000000000000000000000000000000000000000000000000000000000000000000000000000000000000000000000000000000000000000000000000000000000000000000000000000000000000000000000000000000000000000000000000000000000000000000000000000000000000000000000000000000000000000000000000000000000000000000000000000000000000000000000000000000000000000000000000000000000000000000000000000000000000000000000000000000000000000000000000000000000000000000000000000000000000000000000000000000000000000000000000000000000000000000000000000000000000000000000000000000000000000000000000000000000000000000000000000000000000000000000000000000000000000000000000000000000000000000000000000000000000000000000000000000000000000000000000000000000000000000000000000000000000000000000000000000000000000000000000000000000000000000000000000000000000000000000000000000000000000000000000000000000000000000000000000000000000000000000000000000000000000000000000000000000000000000000000535353230000000000000000000000000000000000000000000000000000000000000000000000000000000000000000000000000000000000000000000000000000000000000000000000000000000000000000000000000000000000000000000000000000000000000000000000000000000000000000000000000000000000000000000000000000000000000000000000000000000000000000000000000000000000000000000000000000000000000000000000000000000000000000000000000000000000000000000000000000000000000000000000000000000000000000000000000000000000000000000000
#025970:0000000000530000
#0269b0:000000000000000000000000000000000000000000000000000000000000000000000000000000000000000000000000000000000000000000000000000000000000000000000000000000000000000000000000000000000000000000000000000000000000000000000000000000000000000000000000000000000000000000000000000000000000000000000000000000000000000000000000000000000000000000000000000000000000000000000000000000000000000000000000000000000000000000000000000000000000000000000000000000000000000000000000000000000000000000000000130000000000000000000000000000000000000000000000000000000000000000000000000000000000000000000000000000000000000000000000000000000000000000000000000000000000000000000000000000000000000000000000000000000000000000000000000000000000000000000000000000000000000000000000000000000000000000000000000000000000000000000000000000000000000000000000000000000000000000000000000000000000000000000000000000000000000000000000000000000000000000000000000000000000000000000000000000000000000000000000000000000000000000000000000000000000000000000000000000000000000000000000000000000000000000000000000000000000000000000000000000000000000000000000000000000000000000000000000000000000000000000000000000000000000000000000000000000000000000000000000000000000000000000000000000000000000000000000000000000000000000000000000000000000000000000000000000000000000000000000000000000000000000000000000000000000000000000000000000000000000000000000000000000000000000000000000000000000000000000000000000000000000000000000000000000000000000000000000000000000000000000000000000000000000000000000000000000000000000000000000000000000000000000000000000000000000000000000000000000000000000000000000000000000000000000000000000000000000000000000000000000000000000000000000000000000000000000000000000000000000000000000000000000000000000000000000000000000000000000000000000000000000000000000000000000000000000000000000000000000000000000000000000000000000000000000000000000000000000000000000000000000000000000000000000000000000000000000000000000000000000000000000000000000000000000000000000000000000000000000000000000000000000000000000000000000000000000000000000000000000000000000000000000000000000000000000000000000000000000000000000000000000000000000000000000000000000000000000000000000000000000000000000000000000000000000000000000000000000000000000000000000000000000000000000000000000000000000000000000000000000000000000000000000000000000000000000000000000000535353230000000000000000000000000000000000000000000000000000000000000000000000000000000000000000000000000000000000000000000000000000000000000000000000000000000000000000000000000000000000000000000000000000000000000000000000000000000000000000000000000000000000000000000000000000000000000000000000000000000000000000000000000000000000000000000000000000000000000000000000000000000000000000000000000000000000000000000000000000000000000000000000000000000000000000000000000000000000000000000000000000000000000000000000000000000000000000000000000000000000000000000000000000000000000000000000000000000000000000000000000000000000000000000000000000000000000000000000000000000000000000000000000000000000000000000000000000000000000000000000000000000000000000000000000000000000000000000000000000000000000000000000000000000000000000000000000000000000000000000000000000000000000000000000000000000000000000000000000000000000000000000000000000000000000000000000000000000000000000000000000000000000000000000000000000000000000000000000000000000000000000000000000000000000000000000000000000000000000000000000000000000000000000000000000000000000000000000000000000000000000000000000000000000000000000000000000000000000000000000000000000000000000000000000000000000000000000000000000000000000000000000000000000000000000000000000000000000000000000000000000000000000000000000000000000000000000000000000000000000000000000000000000000000000000000000000000000000000000000000000
#026970:0000005300000000
#027970:000000000000000000000000000000000000000000000000000000000000000000000000000000000000000000000000000000000000000000000000000000000000000000000000000000000000000000000000000000000000000000000000000000000000000000000000000000000000000000000000000000000000000000000000000000000000000000000000000000000000000000000000000000000000000000000000000000000000000000000000000000000000000000000000000000000000000000000000000000000000000000000000000000000000000000000000000000000000000000000000000000000000000000000000000000000000000000000000000000000000000000000000000000000000000000000000000000000000000000000000000000000000000000000000000000000000000000000000000000000000000000000000000000000000000000000000000000000000000000000000000000000000000000000000000000000000000000000000000000000000000000000000000000000000000000000000000000000000000000000000000000000000000000000000000000000000000000000000000000000000000000000000000000000000000000000000000000000000000000000000000000000000000000000000000000000000000000000000000000000000000000000000000000000000000000000000000000000000000000000000000000000000000000000000000000000000000000000000000000000000000000000000000000000000000000000000000000000000000000000000000000000000000000000000000000000000000000000000000000000000000000000000000000000000000000000000000000000000000000000000000000000000000000000000000000000000000000000000000000000000000000000000000000000000000000000000000000000000000000000000130000000000000000000000000000000000000000000000000000000000000000000000000000000000000000000000000000000000000000000000000000000000000000000000000000000000000000000000000000000000000000000000000000000000000000000000000000000000000000000000000000000000000000000000000000000000000000000000000000000000000000000000000000000000000000000000000000000000000000000000000000000000000000000000000000000000000000000000000000000000000000000000000000000000000000000000000000000000000000000000000000000000000000000000000000000000000000000000000000000000000000000000000000000000000000000000000000000000000000000000000000000000000000000000000000000000000000000000000000000000000000000000000000000000000000000000000000000000000000000000000000000000000000000000000000000000000000000000000000000000000000000000000000000000000000000000000000000000000000000000000000000000000000000000000000000000000000000000000000000000000000000000000000000000000000000000000000000000000000000000000000000000000000000000000000000000000000000000000000000000000000000000000000000000000000000000000000000000000000000000000000000000000000000000000000000000000000000000000000000000000000000000000000000000000000000000000000000000000000000000000000000000000000000000000000000000000000000000000000000000000000000000000000000000000000000000000000000000000000000000000000000000000000000000000000000000000000000000000000000000000000000000000000000000000000000000000000000000000000000000000000000000000000000000000000000000000000000000000000000000000000000000000000000000000000000000000000000000000000000000000000000000000000000000000000000000000000000000000000000000000000000000000000000000000000000000000000000000000000000000000000000000000000000000000000000000000000000000000000000000000000000000000000000000000000000000000000000000000000000000000000000000000000000000000000000000000000000000000000000000000000000000000000000000000000000000000000000000000000535353230000000000000000000000000000000000000000000000000000000000000000000000000000000000000000000000000000000000000000000000000000000000000000000000000000000000000000000000000000000000000000000000000000000000000000000000000000000000000000000000000000000000000000000000000000000000000000000000000000000000000000000000000000000000000000000000000000000000000000000000000000000000000000000000000000000000000000000000000000000000000000000000000000000000000000000000000000000000000000000000
#0279b0:0000000000530000
#027921:000000000000000000000000000000000000000000000000000000000000000000000000000000000000000000000000000000000000000000000000000000000000000000000000000000000000000000000000000000000000000000000000000000000000000000000000000000000000000000000000000000000000000000000000000000000000000000000000000000000000000000000000000000000000000000000000000000000000000000000000000000000000000000000000000000000000000000000000000000000000000000000000000000000000000000000000000000000000000000000000000000000000000000000000000000000000000000000000000000000000000000000000000000000000000000000000000000000000000000000000000000000000000000000000000000000000000000000000000000000000000000000000000000000000000000000000000000000000000000000000000000000000000000000000000000000000000000000000000000000000000000000000000000000000000000000000000000000000000000000000000000000000000000000000000000000000000000000000000000000000000000000000000000000000000000000000000000000000000000000000000000000000000000000000000000000000000000000000000000000000000000000000000000000000000000000000000000000000000000000000000000000000000000000000000000000000000000000000000000000000000000000000000000000000000000000000000000000000000000000000000000000000000000000000000000000000000000000000000000000000000000000000000000000000000000000000000000000000000000000000000000000000000000000000000000000000000000000000000000000000000000000000000000000000000000000000000000000000000000000000130000000000000000000000000000000000000000000000000000000000000000000000000000000000000000000000000000000000000000000000000000000000000000000000000000000000000000000000000000000000000000000000000000000000000000000000000000000000000000000000000000000000000000000000000000000000000000000000000000000000000000000000000000000000000000000000000000000000000000000000000000000000000000000000000000000000000000000000000000000000000000000000000000000000000000000000000000000000000000000000000000000000000000000000000000000000000000000000000000000000000000000000000000000000000000000000000000000000000000000000000000000000000000000000000000000000000000000000000000000000000000000000000000000000000000000000000000000000000000000000000000000000000000000000000000000000000000000000000000000000000000000000000000000000000000000000000000000000000000000000000000000000000000000000000000000000000000000000000000000000000000000000000000000000000000000000000000000000000000000000000000000000000000000000000000000000000000000000000000000000000000000000000000000000000000000000000000000000000000000000000000000000000000000000000000000000000000000000000000000000000000000000000000000000000000000000000000000000000000000000000000000000000000000000000000000000000000000000000000000000000000000000000000000000000000000000000000000000000000000000000000000000000000000000000000000000000000000000000000000000000000000000000000000000000000000000000000000000000000000000000000000000000000000000000000000000000000000000000000000000000000000000000000000000000000000000000000000000000000000000000000000000000000000000000000000000000000000000000000000000000000000000000000000000000000000000000000000000000000000000000000000000000000000000000000000000000000000000000000000000000000000000000000000000000000000000000000000000000000000000000000000000000000000000000000000000000000000000000000000000000000000000000000000000000000000000000000000000000000535353230000000000000000000000000000000000000000000000000000000000000000000000000000000000000000000000000000000000000000000000000000000000000000000000000000000000000000000000000000000000000000000000000000000000000000000000000000000000000000000000000000000000000000000000000000000000000000000000000000000000000000000000000000000000000000000000000000000000000000000000000000000000000000000000000000000000000000000000000000000000000000000000000000000000000000000000000000000000000000000000
#027961:0000000000530000
#029981:0000000000130000
#0299a1:00000023
#070951:0013000000000000
#070931:00230000
