This file was generated by Ched 2.7.0.0.
#TITLE ""
#ARTIST ""
#DESIGNER ""
#DIFFICULTY 0
#PLAYLEVEL
#SONGID ""
#WAVE ""
#WAVEOFFSET 0
#JACKET ""
#REQUEST "ticks_per_beat 480"
#00002: 4
#BPM01: 200
#00008: 01
#TIL00: ""
#VOLUME: ""
#HISPEED 00
#MEASUREHS 00
#1031a:0014000000000000
#10312:0014000000000000
#10314:0000000000001313
#10319:0000000000001313
#1041a:0014000000000000
#10412:0014000000000000
#10419:0000000000001313
#10414:0000000000001313
#00818:00001313
#00815:0000000000130000
#00812:0013000000000013
#00918:1313
#00912:0013000000130000
#0091b:00130000
#00915:0000001300000000
#0091a:0000000000002424
#01018:0013
#01015:0000000000130000
#01012:0026000000000000
#01010:0041
#01118:13
#01112:0013000000000000
#0111b:0013
#01115:0000000000130000
#01218:13
#01212:0013000000000013
#0121b:0000001300130000
#01215:0013
#01318:1300000000000013
#01415:1300000000000013
#01418:0013000000000000
#01518:13
#01515:0013000000000000
#01618:1300001300000000
#01615:0013
#01612:0024000000000014
#0161a:0000000000240000
#0171a:14
#01718:00000013
#01715:0024000000000013
#0191b:1300000000130000
#01915:0013000000000000
#01918:0000001300000000
#01912:0013
#01812:0013000000001300
#0181b:0013001300000000
#01815:0013
#01818:0000000000130000
#02012:0013000000001300
#0201b:0000001300130000
#02015:0013
#02018:0000000000000013
#02112:1300001400000000
#0211a:0014000000140000
#02115:00000013
#02118:0000000000000013
#02215:13
#0221b:0013000000000013
#02212:00001313
#02218:0000000000130000
#02312:0013000000000013
#02318:0013000000001300
#0241b:0013000000001300
#02412:0000001300130000
#02418:0013
#02415:0000000000000013
#0261a:0000000000000014
#02712:0014000000000000
#02718:0000001300000053
#02719:00005353
#0271a:0000000000530000
#02815:0013000000000000
#02812:00000013
#02818:00000013
#02814:0000000000000033
#0281a:0000000000000033
#02918:0000001300130013
#02915:3313
#02912:00000013
#0291b:33
#03015:13000013
#0301b:0013000000000000
#03012:0013
#03018:0000000000130013
#03112:13
#0311b:0013000000000000
#03115:0000000000130013
#03118:00000013
#03312:0013
#03318:1313
#03315:0013000000000000
#03313:0000000000330000
#03314:00000033
#03319:0000000000330000
#0331a:00000033
#0341b:00130000
#03415:00130000
#03418:0000000000000013
#03412:0000000000000013
#0341a:0000003300000000
#03419:0033
#03414:0000003300000000
#03413:0033
#0351b:0013000000000000
#03515:0013000000000000
#03715:0013000000000000
#03718:00130000
#03716:0000000000000013
#0371b:0000000000000013
#03814:0013000000000000
#03819:0013000000000000
#03812:0000001300000000
#03817:0000001300000000
#03816:0000000000130000
#0381b:0000000000130000
#03912:0000130000000013
#03917:0000130000000013
#0401b:0013000000000000
#04016:0013000000000000
#04018:0000001300000000
#04015:0013
#0401a:0000000000240000
#04112:00130000
#04118:0000001300000000
#04114:0013
#0411a:0000000000130000
#04116:00000013
#04110:41
#04212:00000013
#0421b:13
#04215:0013000000000033
#04219:00130000
#04213:0000001300000000
#04217:0013
#04518:1300000000130000
#04512:1313
#04515:00000013
#0451b:0000000000000013
#04615:0013001300000000
#04618:00130000
#0461b:0000000000130000
#04616:0000000000130000
#04712:00130000
#04718:0000001300000000
#04715:0013
#0471b:0000000000130000
#04812:0013000000130000
#04817:0013000000130000
#04816:0000001300000000
#0481b:0000001300000000
#04917:00130000
#04912:00130000
#04916:13000000000000000000001300000000
#0491b:13000000000000000000001300000000
#05015:0000001300000013
#05018:0013
#05012:0000000000130000
#0501b:00000013
#0511b:0013
#05118:0000000000130000
#05115:00000013
#05112:0000000000000013
#05218:0013000024000000
#05214:0000002400000000
#0521a:0000000000240000
#05212:0000000000240000
#05418:0000001300000000
#05413:33
#05414:0000000000000033
#05715:00001313
#05718:0000000000130013
#0571a:33
#0571b:0033000000000000
#05812:0013000000000000
#05818:00131300
#05815:0000001300130000
#0581a:0000000000000014
#05912:14
#06918:00131300
#06915:1300001300000013
#06912:0000000000130000
#0691b:00000013
#07018:1300000000130000
#07012:0013000000000000
#0701b:00130000
#07015:0013
#07115:0013000000130013
#07118:00131300
#07112:0000001300000000
#0711b:00000013
#07218:13130000
#07212:0013000000000000
#07215:0000000000130000
#0731b:0013000000000000
#07317:0013
#07412:0000000000000013
#07516:0013000000000000
#0761b:0013000000000000
#07612:0013000000000000
#0791b:0013
#07915:0000000000130000
#07918:00000013
#07912:0000000000000013
#0791f:21
#08017:0014000000140000
#08012:0014000000140000
#0801a:0000001400000000
#08015:0000001400000000
#08112:1313000000000024
#08118:00130000
#08115:0000001300130000
#0811b:0013
#08117:0000000000000024
#08110:41
#0831b:00130000
#08315:0000001300000000
#08319:0013
#08313:0000000000130000
#08317:00000013
#08412:13
#08418:0013000000001300
#08414:00130000
#0841a:0000001300000000
#08416:0013
#08415:0000000000000013
#08913:13
#0891a:13240000
#08912:00240000
#08914:00000024
#08918:00000024
#09015:0000000000000013
#09012:00240000
#09018:0000002400000000
#09014:0024
#0901a:0000000000240000
#09215:0000001300000013
#09218:00001313
#09212:0000000000130000
#0931b:13000013
#09315:0013000000130000
#09318:0000000013000013
#09415:1300000013000013
#09418:0013000000130000
#09412:00000013
#09410:41
#09518:1300001300000000
#09512:0014000000000000
#09515:0000000013000013
#0951a:0000000000140000
#09618:1300002600000000
#09612:0026000000240000
#09616:00000024
#0961a:0000000000000024
#10512:0014000000000024
#1051a:0014000000000000
#0321b:0013
#03215:00000013
#06016:0014000000000000
#0611b:0013
#0611f:11
#0621b:1313
#06312:0013
#06412:1313
#0651b:0013
#06618:13
#0661b:0013
#06712:0013
#06815:13
#06812:0013
#08518:0013000000000000
#08515:00230000
#08512:0023
#0911b:0000001300000000
#09115:0013
#09118:0000000000130000
#0001a:0024000000000000
#00012:0024000000000000
#0041a:2424000000000000
#00412:2424000000000000
#08712:00240000
#0871a:00240000
#0011a:00000024
#00112:00000024
#0031a:0024002400000000
#00318:00000024
#00312:0024002400000000
#00314:0000000000240000
#02518:0024000000000000
#02514:0024000000000000
#02510:0041000000000000
#07812:0000000000240000
#0781a:0024000000000000
#07816:0000002400000000
#03612:00242400
#0361a:0000240000000024
#03618:0000000000240000
#03614:00000024
#04318:0000002300000023
#04315:0023
#0431b:0000000000230000
#04312:00000023
#04415:23
#04418:0023000000000000
#04412:0000002400000000
#07712:00240000
#0771a:00240000
#07714:0000000024240000
#07716:0000000000000024
#0861b:23
#08615:23
#08812:0024002424000000
#0881a:0024002424000000
#09715:0024000000000000
#0971a:0024000000000000
#09812:00000000000000000000000000000024
#09817:00000000000000000000000000000024
#10018:0000000000000024
#10114:24000000000000000000000000000024
#10118:00000000000000000000000000000024
#10112:0024000000000000
#1011a:0024000000000000
#10616:24000000000000240000000000000000
#1061a:0024000000000000
#08215:0024000000240000
#0821a:0024000000240000
#08217:0000002400000000
#08212:0000002400000000
#05314:0000000000000033
#05513:33000033
#05514:0000000000330000
#05512:0000000000000033
#05619:0033000000330033
#0561a:00333300
#05610:41
#0045a:0054000000000000
#00452:0064000000000000
#08752:00140000
#0875a:00140000
#08952:00140000
#0895a:00140000
#08954:00000014
#08958:00000014
#1035a:0014000000000000
#10352:0014000000000000
#1045a:0014000000000000
#10452:0014000000000000
#00052:0014000000000000
#0005a:0014000000000000
#00254:0014000000000000
#00258:0014000000000000
#00852:0063000000000000
#01052:0016000000000000
#01458:0053000000000000
#0145a:0000000000140000
#01652:0014000000000000
#0165a:0000000000140000
#0195b:0000000000530000
#0215a:0014000000140000
#02152:0000001400000000
#0225b:0053000000000000
#02352:0053000000000000
#02358:0053000000000000
#02554:0054000000000000
#02558:0054000000000000
#0265a:0000000000000014
#02752:0014000000000000
#02855:0053000000000000
#02852:00000053
#02858:00000063
#0315b:0053000000000000
#03155:0000000000000053
#03352:0053
#03358:0053
#03355:0013000000000000
#0345b:00630000
#03455:00630000
#03458:0000000000000063
#03452:0000000000000063
#0355b:0063000000000000
#03555:0063000000000000
#0365a:0000000000000014
#03758:00530000
#03856:0000000000630000
#0385b:0000000000630000
#03952:00530000
#03957:00530000
#0415a:14
#04252:00000053
#04458:0053000000000000
#04452:00000014
#0445a:00000014
#04558:53
#04552:53
#0465b:0000000000530000
#04656:0000000000530000
#0475b:0000000000530000
#04957:00530000
#04952:00630000
#0495b:00000000000000000000002300000000
#04956:00000000000000000000002300000000
#05055:0000000000000053
#05452:0013000000000000
#05458:0000001300000000
#0605a:0000000000000014
#06052:0000000000000014
#06056:0054000000000000
#07058:0000000000630000
#07258:00630000
#07255:0000000000530000
#0735b:0053000000000000
#07357:0053
#07452:0000000000000063
#07556:0063000000000000
#0765b:0063000000000000
#07652:0063000000000000
#07658:0000000000000014
#07654:0000000000000014
#07956:14
#07852:0000000000540000
#08057:0000000000140000
#08052:0000000000140000
#08555:00630000
#08552:0063
#08655:63
#0865b:63
#08852:0054
#0885a:0064
#08854:00000014
#08858:00000014
#09055:0000000000000063
#09355:0053000000000000
#09458:0063000000000000
#09552:0014000000000000
#0955a:0000000000140000
#09652:0016000000000000
#09658:0000001600000000
#09755:0054000000000000
#0975a:0054000000000000
#09852:00000000000000000000000000000024
#09857:00000000000000000000000000000024
#10154:00000000000000000000000000000024
#10158:00000000000000000000000000000024
#10152:0054000000000000
#1015a:0054000000000000
#10552:0014000000000000
#1055a:0014000000000000
#10656:00000000000000240000000000000000
#1065a:0054000000004400
#01755:0054000000000000
#0825a:0000000000540000
#08255:0000000000540000
#01555:0063000000000000
#01552:0000000000140000
#09152:0013000000000000
#09158:0000000000530000
#0925b:0013000000000000
#0013a0:00000014
#002380:3424000000000000
#001321:00000014
#002341:3424000000000000
#0043a1:0014000000000000
#007381:00000023
#004320:0014000000000000
#007350:00000023
#008320:0013000000000000
#008350:0000002300000000
#013350:0013000000230000
#013320:0000003300000000
#014380:0013000000000000
#0143a0:0000003400240000
#015350:0013000000000000
#015320:0000003400240000
#017350:0014000000000000
#017320:0024
#0193b0:0000000000130000
#019380:0000000000000023
#0223b0:0013000000000000
#022380:0000002300000000
#023320:0013000000000000
#023350:0023
#023381:0013000000000000
#0233b1:0023
#025381:0014000000000000
#0263a1:0000000000240000
#025340:0014000000000000
#026320:0000000000240000
#028350:0013000000000000
#028320:0000003333333300
#028340:0000000000000033
#029350:3323000000000000
#028381:00000013
#0283a1:0000000000000033
#0293b1:3323000000000000
#0313b1:0013000000000000
#031381:0000003323000000
#031351:0000000000000013
#032321:0023000000000000
#033321:0013
#033331:0000000000330000
#033341:00000033
#033351:0000000000000023
#033380:0013
#033390:0000000000330000
#0333a0:00000033
#0333b0:0000000000000023
#0343b0:00130000
#0343a0:0000003300000000
#034390:0033
#034380:0000000000230000
#034351:00130000
#034341:0000003300000000
#034331:0033
#034321:0000000000230000
#034381:0000000000000013
#0353b1:0033000000000000
#036381:23
#034320:0000000000000013
#035350:0033000000000000
#036320:23
#037380:00130000
#0373b0:0000000033230000
#038360:0000000000130000
#039320:23
#0383b1:0000000000130000
#039371:23
#039321:00130000
#039361:0000000033230000
#039370:00130000
#0393b0:0000000033230000
#0403a0:0000000000140034
#0413a0:24
#042320:00000013
#042350:0000000000000033
#043350:00230000
#044380:0013000000000000
#0443a0:0000003434002400
#044321:0000001434002400
#045381:13
#0453b1:00230000
#045320:13
#045350:00230000
#0463b0:0000000000130000
#047370:23
#046361:0000000000130000
#047321:23
#0473b1:0000000000130000
#047381:0000000000000023
#049321:00130000
#049361:00000000000000000000005300000000
#050321:0023000000000000
#049370:00130000
#0493b0:00000000000000000000005300000000
#050370:0023000000000000
#050350:0000000000000013
#051320:00230000
#0523a0:0000000000140024
#052321:0000000000140024
#053321:0013000000000000
#053351:00000033
#053341:0000000000000033
#054331:33
#054321:0023000000000000
#054351:00000013
#054341:0000000000000033
#055331:33000033
#055321:0033000000000033
#055351:0033
#055341:0000000000330000
#056321:23
#056380:13000033
#056390:0033000000330033
#0563a0:00333300
#0563b0:0000003300000000
#0573a0:33
#0573b0:0033230000000000
#0593a0:0014000000000000
#060360:0034000000000000
#0603a0:0000000000000024
#060321:0014000000000024
#061351:00130033
#062351:00330033
#063351:23
#063380:13330033
#064380:00330033
#065380:23
#065351:13330033
#066351:00330033
#067351:23
#067380:13330033
#068380:00330033
#069380:23
#070380:0000000000130000
#0713b0:23
#072380:00130000
#0723b0:0023
#072350:0000000000130000
#072320:0000000000000023
#0733b0:0013000000000000
#073370:0033
#0743b0:0023
#074320:0000000000000013
#075360:0033000000000000
#076320:0033000000000000
#076340:0000000000000024
#0763b1:0013000000000000
#076381:0000000000000024
#078321:0000000000140000
#079361:24
#082351:0000000000140000
#083321:24
#0823a0:0000000000140000
#083370:24
#085350:00130023
#085320:0033
#0863b0:13
#086380:0000000000000023
#086351:13
#086321:0000000000000023
#088321:0014
#088341:00000024
#0883a0:0014
#088380:00000024
#090350:0000000000000013
#091320:0023000000000000
#091380:0000000000130000
#0923b0:3323000000000000
#093350:0013000000000000
#093320:0000002300000000
#094380:0013000000000000
#0943b0:0000002300000000
#097350:0014000000000000
#098320:00000000000000000000000000000054
#100350:00000024
#0973a1:0014000000000000
#098371:00000000000000000000000000000054
#1003a1:00000024
#1013a1:0014000000000000
#101381:00000000000000000000000000000054
#1023a1:00000024
#101320:0014000000000000
#101340:00000000000000000000000000000054
#102320:00000024
#1063a0:0014000000002400
#106360:00000000000000540000000000000000
#027980:000000000000000000000000000000000000000000000000000000000000000000000000000000000000000000000000000000000000000000000000000000000000000000000000000000000000000000000000000000000000000000000000000000000000000000000000000000000000000000000000000000000000000000000000000000000000000000000000000000000000000000000000000000000000000000000000000000000000000000000000000000000000000000000000000000000000000000000000000000000000000000000000000000000000000000000000000000000000000000000000000000000000000000000000000000000000000000000000000000000000000000000000000000000000000000000000000000000000000000000000000000000000000000000000000000000000000000000000000000000000000000000000000000000000000000000000000000000000000000000000000000000000000000000000000000000000000000000000000000000000000000000000000000000000000000000000000000000000000000000000000000000000000000000000000000000000000000000000000000000000000000000000000000000000000000000000000000000000000000000000000000000000000000000000000000000000000000000000000000000000000000000000000000000000000000000000000000000000000000000000000000000000000000000000000000000000000000000000000000000000000000000000000000000000000000000000000000000000000000000000000000000000000000000000000000000000000000000000000000000000000000000000000000000000000000000000000000000000000000000000000000000000000000000000000000000000000000000000000000000000000000000000000000000000000000000000000000000000000000000000130000000000000000000000000000000000000000000000000000000000000000000000000000000000000000000000000000000000000000000000000000000000000000000000000000000000000000000000000000000000000000000000000000000000000000000000000000000000000000000000000000000000000000000000000000000000000000000000000000000000000000000000000000000000000000000000000000000000000000000000000000000000000000000000000000000000000000000000000000000000000000000000000000000000000000000000000000000000000000000000000000000000000000000000000000000000000000000000000000000000000000000000000000000000000000000000000000000000000000000000000000000000000000000000000000000000000000000000000000000000000000000000000000000000000000000000000000000000000000000000000000000000000000000000000000000000000000000000000000000000000000000000000000000000000000000000000000000000000000000000000000000000000000000000000000000000000000000000000000000000000000000000000000000000000000000000000000000000000000000000000000000000000000000000000000000000000000000000000000000000000000000000000000000000000000000000000000000000000000000000000000000000000000000000000000000000000000000000000000000000000000000000000000000000000000000000000000000000000000000000000000000000000000000000000000000000000000000000000000000000000000000000000000000000000000000000000000000000000000000000000000000000000000000000000000000000000000000000000000000000000000000000000000000000000000000000000000000000000000000000000000000000000000000000000000000000000000000000000000000000000000000000000000000000000000000000000000000000000000000000000000000000000000000000000000000000000000000000000000000000000000000000000000000000000000000000000000000000000000000000000000000000000000000000000000000000000000000000000000000000000000000000000000000000000000000000000000000000000000000000000000000000000000000000000000000000000000000000000000000000000000000000000000000000000000000000000000000000000000005353230000000000000000000000000000000000000000000000000000000000000000000000000000000000000000000000000000000000000000000000000000000000000000000000000000000000000000000000000000000000000000000000000000000000000000000000000000000000000000000000000000000000000000000000000000000000000000000000000000000000000000000000000000000000000000000000000000000000000000000000000000000000000000000000000000000000000000000000000000000000000000000000000000000000000000000000000000000000000000000000
#0279a0:0000000000530000
