This file was generated by Ched 2.7.0.0.
#TITLE ""
#ARTIST ""
#DESIGNER ""
#DIFFICULTY 0
#PLAYLEVEL
#SONGID ""
#WAVE ""
#WAVEOFFSET 0
#JACKET ""
#REQUEST "ticks_per_beat 480"
#00002: 4
#BPM01: 200
#00008: 01
#TIL00: ""
#VOLUME: ""
#HISPEED 00
#MEASUREHS 00
#00716:0000000000000013
#00715:1600131600000000
#00712:0013000000001300
#00718:0013
#0071b:0000000000000013
#01218:1300000000000013
#0121b:0013000013001300
#01215:0000001300130000
#01212:00131300
#01918:0013000000001300
#01919:0000001300000000
#01914:00001813
#01912:1613000000000013
#01916:0000000000130000
#0191b:1300130000130000
#01915:00130000
#02012:0000001200000000
#02014:0012
#02016:0012000000120000
#02018:0012000000001200
#0201a:0000000000000012
#0201c:00120000
#02317:00000013
#02312:00000000001400000000000013001800
#02318:0014000000000000
#0231a:00000000001400000000000000000000
#02314:0014000000000000
#0241b:00001300000000000000001300000000
#02415:0013000000000000
#02417:00000000000000130000000000000000
#02414:0016
#02419:00000000000000000013000000000000
#02416:0000000000160000
#02412:0000001500001c1c
#02618:0000000000000016
#02615:00000016
#02617:0013000000130000
#02612:0024000000240000
#02616:00242400
#0261a:0000002400000000
#0311a:0000001400140000
#0311b:1300000000000013
#03112:0013000000140019
#03116:0014000014000000
#03115:00000016
#05016:5413000000130000
#0501b:0013000000130000
#05012:0000001300000000
#05015:00000016
#05019:0013
#05014:0000000013000018
#0501c:62
#07012:0000000013130000
#0701b:0000000013130000
#07015:00001313160000000000000000000000
#00614:0000000013130000
#00617:0013
#0061b:13
#00616:0014000000000000
#00612:25130000
#00618:0000000000000013
#00817:0013000000000000
#00812:000000142c14002c
#0081b:00130000
#00816:00000014
#01115:0013
#01118:13
#0111b:0013000000001300
#01117:00000000001300000000000000000000
#01112:0000130000130000
#01116:00000000000000000000000000130000
#01315:13
#01312:0013000000000000
#01317:0000000013000000000000000053000000000000130000000000000000000000
#0131b:0000000000530000000000001300000000000000005300000000000000000000
#0131a:0000000000000014
#01313:0000002400000000
#01319:00000000000000000053000000000000000000000000000000530000000000000000000000000000005300000000000000000000000000000000000000000000
#03416:0000140000000014
#0341b:00130000
#03414:0014
#03419:0015
#0341a:0000001400000000
#03418:0000000000160000
#03415:0000001400000000
#03413:0000000000140000
#0531b:0013000013130000
#05315:16160000000000000000000000000000
#05317:00000013
#05314:0000000000240000002400000024000000240000002400000000000013000000
#05319:0000000000000013
#05313:00002424242424242424242400000000
#05312:0000000000000024000000240000002400000024000000240000000000000000
#0551b:1313000000001300
#05517:00000000001300000000000000000000
#05512:0013
#05514:0000000000130013
#05516:00000013
#05518:0000000000000013
#05515:0013000000000000
#00312:00002400000013000000000000000013
#00315:00000000000000001300000000130000
#0031b:0000000000131300
#00318:00000000000000000000001300001300
#00317:0000001300000000
#00319:0013
#0031a:0024000000000000
#00415:1319000000252500
#00412:00130000000013000000000000001300
#0041b:00000013
#00418:0013
#00512:0013000000131300
#0051b:00131300
#00516:2525000000000014
#00515:0000002525000000
#00519:00000025
#0091a:14
#00916:0014000014000000
#00912:00002c14002c2c2c
#01012:0026000013130000
#01016:00000000000000000000000000130000
#0101b:00000013
#01018:0026000013000000
#01010:0041
#01416:1400000000000013
#01412:0014000013000000
#01415:0000001900190000
#0141b:0000000000000013
#01514:13
#01519:1300000000000025
#01517:0013000000000000
#01512:0013001900190000
#0151b:00001313
#01516:0000000000000013
#01614:13
#01612:0013002527290019
#01617:2700001300000000
#01619:0013
#0161b:0000000000130023
#01615:0029000000000000
#01712:1613001300000000
#01714:00000000000000001300000000001813
#01716:00000000000000000000130018130000
#01715:0029000000000000
#01718:26
#01812:18131c00000013000000000000000000
#01815:0016
#01818:0000000000131600
#0211c:12
#0211b:0000000000001313
#02115:0000000000000013
#02114:0023000000230000
#02119:0000002300000000
#02112:00000077000000000000007700000000
#02117:00000000000000770000000000000000
#02215:16000000000000130000130000001600
#02218:00001300000013001600001300000000
#02212:0013000000001600
#0221b:00000000000000000000000000130000
#02715:16160000
#02712:0016000000240000
#02716:0000001324002413
#0271a:0000002400000024
#02812:0013000000000000
#02815:0029000000000000
#02912:0000001313000000
#02915:0000000000130000
#02918:00000000000000000000001300000000
#0291b:00000013
#02916:0000001414000000
#0301b:0000001300130000
#03012:0000131300001300
#03018:0013
#03015:0000000000000013
#03215:0019000000000014
#03212:0013000014000000
#0321b:0000001300130000
#03216:0000001300140000
#03218:00000013
#03217:0013
#03312:1400000013141516
#03316:0014
#03318:00000014
#03317:0000000000140000
#03319:0000000000000014
#0331b:0023000000000000
#03512:15
#03519:1515000000000000
#03517:0000006700000000
#03516:0067
#03515:0000000000670000
#03514:00000067
#03513:0000000000000067
#0361b:00000000000000000000001300000000
#03615:00000000000000000016160000001900
#03612:672c1319
#03619:15
#03714:0013000000000000
#03712:0000130023001316
#03715:0000000000130000
#03718:00002613
#03719:0013000000000000
#0371b:00130000
#03818:0016000000160000
#03815:16161600
#03812:0000001600000016
#03814:00000016
#03918:1313130013001316
#03915:00130013000013000000130000000000
#03912:00001313
#0391b:0000000000130000
#04015:16160000
#04012:00001600000000001600000000160000
#04018:0000001600160000
#04116:0000001400000000
#04113:0000000000140000
#04112:16
#04119:0000000000000014
#04110:41
#04318:00260000160000000000000000000000
#04312:3636003636363636000000001300000000000000000000000000000023000000
#0431b:00002313
#04317:0000002300000000
#04316:0000000000282300
#04218:0000000000002616
#04216:0014000000000000
#04219:0000001400000000
#04213:0000000000140000
#04212:0000000000000000000000000000000000000000000000001600000026363636
#04412:2800002424000013
#0441b:00001300000000000000000000000013
#04416:0023000000000000
#04515:16160000000000000000000000001300
#04512:0000000013000000193939391339393929000000000000001300000000000000
#0451b:00000013000000001300000000000000
#04518:00000000000000000000000013000013
#04615:13
#0461b:1300130000130000
#04617:0013000000000013
#04612:0013001300000013
#04614:0018
#04616:0000000000130000
#04714:13
#04716:0013000000130000
#04712:0000230000000013
#04717:00130013
#04715:0000002300000000
#04718:0023
#0471b:0000000000230000
#04815:00130000160000001600000000000000
#04818:1316000000160000
#04812:0013001600130000
#0481b:0000001300000013
#04816:00000000000000000000000000000013
#04919:13
#04914:00130000000000006200000000000000
#04917:0013000000000000
#04912:00000013000062000000000000000000
#04916:0000000000620000
#04918:00000062
#0491a:0000000000000062
#05114:0012
#05116:0000000000120000
#05118:00000012
#0511a:0000000000000012
#05113:1a
#05112:001c000000000000
#05212:000012000000000000002c0000000013
#0521c:0012000000000000
#0521b:0000000000000013
#05216:0000002400000000
#05214:0028
#0541b:1300130000000013
#05416:1300000000530000000000001300000000000000000000000000000000000000
#05412:0000000013000000000000000053000000000000130000001300000000000000
#05418:0000000013130000
#05415:0000000000000013
#05414:00000000000000000053000000000000000000000000000000530000000000000000000000000000000000000000000000000000000000000000000000000000
#05612:13000000130000001300130000180016
#0561b:13131313
#05615:0013001300000000
#05619:0013000000000000
#05618:00000000000000130000130000000000
#0561a:0000000000000014
#05610:41
#05718:1600000000000016
#05712:00140013000000000000000000000000
#05716:0018000015000000
#05715:0000190000150000
#0571a:0000000000140000
#05719:00000015
#05714:00000015
#05713:0000000000000015
#05812:0013131415160000
#05816:0014001500000014
#05815:00150000
#05817:0015
#05818:0000000000150000
#05913:00001414141414141414141414141414
#05914:0000000000140000001400000014000000140000001400000014000000140000
#05912:0000000000000014000000140000001400000014000000140000001400000014
#0591c:0000001200001200
#0591a:0000000012000012
#05918:0000000000120000
#06918:0000001300000000
#0691b:0000000000130000
#06912:0000000000000013
#06914:22
#0711b:00131300
#07115:0016000000160013
#07118:0000001300000000
#07112:00000013
#07212:1300130014140000
#07215:0016000000000000
#0721b:00130000
#07312:0014000000000000
#0731a:0014000000001200
#07319:0000001200000000
#07317:0012
#07315:0000000000120000
#07318:0000000000000012
#07416:12
#07414:0012000000000000
#07412:0000131415160013
#0741b:0000230000000013
#0741a:0000002400000000
#07419:0025
#07418:0000000000260000
#07512:0000001616000000
#07518:00001300000000130000000016001600
#07515:00000000000000000000000000130000
#0761a:0024001400000000
#07612:00002400000000170016001500142c00
#07619:0015
#07618:0000000000160000
#07617:00000017
#02516:0000001324002413
#02512:002c000000240000
#0251a:0000002400000024
#02510:0041000000000000
#06018:1200000000240000002400000024000000240000002400000024000000000000
#06016:0012000012000000
#06014:0000120000120000
#06012:0000001200001226
#06019:00002424242424242424242424240000
#0601a:0000000000000024000000240000002400000024000000240000002400000000
#0611a:0012
#06118:0012000000000000
#06116:00120000
#06115:0000000000120012
#06117:00000012
#0611f:11
#0621a:1212
#06217:0012000000000000
#06215:00120000
#06213:0000000000120000
#0631a:12
#06314:0022
#06316:0052000000000000
#06318:00520000
#0631b:0052
#06319:0000000000520052
#06317:00000052
#0651a:0012
#06512:0012000000001200
#06514:2200120000120000
#06516:0012
#06517:52
#0661a:1212
#06614:1200001200120000
#06616:0012000012000000
#06612:00000012
#0671a:1200520000520000
#06714:0022
#0671c:0052000000005200
#06718:0052
#10216:1400001400140000
#10212:00142c002c002c2c
#0811a:0000000000000014
#08112:000013001800000000131c0000002800
#08115:00000000000000131900000000000000
#08118:0000001600000000
#0811b:13
#08110:41
#08216:1428140014280000
#08218:00000000000000000000000000130016
#08215:0000000000000013
#08212:0000002800001600
#10612:161c000000002600
#10618:00000026
#1051b:0013
#10512:00000000000000001300000016161616
#10518:00000000000000130000000000000000
#10515:1626001300000000
#10415:00000000000000000000000016161616
#1041a:0000001414000000
#10412:0000001414000000
#10418:1626000000000000
#10318:00002600000000000000000016161616
#1031a:0014
#10312:0026000014000000
#1011a:00000014
#10116:0000000000140000
#10112:002600142c00002c
#10118:0016000000000000
#0961a:0000000000000014
#09616:00140000000000000000180000000000
#09618:0000002600001600
#09612:2c2c002600242628
#0951a:00000000000000000000000000000014
#09516:00000000000000000014000000000000
#09512:2c001c0000002c142c002c0000002c00
#09412:2c001600000014001700190000000016
#09416:00000000000000000000000000160000
#0941b:0013000000000000
#09414:0000000000000026
#09418:00000026
#09410:41
#09318:00001600000000000000000000000016
#09314:00000000000000000000000000160000
#09315:0000000000190000
#09317:0017
#0931a:0000001400000000
#09312:1c13000000002600
#09316:0000000000000026
#09216:0000000000540000000000000000000000000000000000000000000014001400
#09212:00005400000000000000140000140000
#0921a:00000054000000000000000014000000
#09215:0000001414000000
#09217:14
#09218:00000000000000000000005400000000000000000000000000000000000000000000000000000000000000000000000000000000000000000000000000000000
#09214:00000000000000000054000000000000000000000000000000000000000000000000000000000000000000000000000000000000000000000000000000000000
#09117:0000000000000014
#09115:0000001414000000
#09116:1400000000540000000000000000000000000000005400000000000000000000
#09112:00005400000000000000005400000000
#09114:00000000000000000054000000000000000000000000000000000000000000000000000000000000000000540000000000000000000000000000000000000000
#09118:00000000000000000000005400000000000000000000000000000000000000000000000000000000005400000000000000000000000000000000000000000000
#0911a:00000054000000000000540000000000
#09017:0000001300000014
#09012:0000232527290014
#0901b:1300000000130000
#09019:0013
#09015:00130000
#09018:0013000000000000
#09014:0013000000000000
#09016:13
#08918:16000000000000000000001600000000
#08916:00160000000000000000160000000000
#08914:00001600000000000016000000000000
#08912:000000162c000000160000002c000000
#08616:0000000000000014
#08618:00000013
#08619:0000000000130000
#0861a:0013
#0861b:0000001300000000
#08612:2c
#0871a:00140000000000000000000000000000
#08712:00660000
#08714:0000000000000000000000000000000000000000000000000000000000000000006600000000000000000000000000000000000000000000000000000000000000000000000000000000000000000000000000000000000000000000000000000000000000000000000000000000000000000000000000000000000000000000
#08716:00000000000000000000000000000000006600000000000000000000000000000000000000000000000000000000000000000000000000000000000000000000
#08718:0000000000000000000000000000000000000000000000000000000000000000000000660000000000000000000000000000000000000000000000000000000000000000000000000000000000000000000000000000000000000000000000000000000000000000000000000000000000000000000000000000000000000000
#0851b:00000000000000000013001300130013
#08516:0000000000180018
#0851a:14
#08512:14002626
#08518:00230000
#08515:00230000
#08414:0000000000000014
#0841b:13000013
#08412:13001313
#08415:00000000000016000000001300000000
#08418:0013000000130014
#08417:0013
#08416:00130000
#08318:00000000000000000000000000000013
#08315:00161600000000000000000000001300
#0831b:00000013000000000000000013000000
#08312:13000000000000001c3c3c3c003c3c3c2c000000000000001300000000000000
#08316:0000001400000000
#08018:000000000000000000000000000000000000000000000000001400000000000000000000000000000000000000000000000000000000000000000000000000000000000000000000000000000000140000000000000000000000000000000000
#08012:000000000000130000000000000000000000006300000000000000000000130000000000000000000000000000000000
#08014:000000000000000000000000005300000000000000000000000000000000000000000000006300000000000000000000001400000000000000000000005300000000000000000000000000000000000000000000000000000000000000000000
#0801b:000000000000006300000000000000000000130000000000000000000000006300000000000000000000000000000000
#08017:000000000000230000000000000000000000005300000000000000000000230000000000000000000000000000000000
#08016:000000000000005300000000000000000000230000000000000000000000005300000000000000000000000000000000
#08019:000000000000000000000000006300000000000000000000000000000000000000000000005300000000000000000000000000000000000000000000006300000000000000000000000000000000000000000000000000000000000000000000
#07912:0000000014241424
#0791a:0000000024142414
#0791f:21
#07712:00220000
#0771c:00220000
#07714:0000000022000022
#0771a:0000000022000022
#07715:0000000000220000
#07719:0000000000220000
#07812:00002200000000000000000000230000
#0781c:0022000000000000
#07814:0000002200000000
#0781a:0000002200000000
#07818:0000000000220000
#07816:0000000000220000
#0781b:00000000000000000000000000230000
#00012:002c000000000000
#00112:00000024
#0011a:00000024
#00215:26
#00212:002c000000000000
#06414:2222
#06417:0052000000000000
#06419:00520000
#0641b:0000005200520000
#06814:2222
#0681a:5200005200520000
#06818:0052000052000000
#0681c:00000052
#08819:000000000000000000000000000000000000000000000000000000000000000000000000006300000000000000000000000000000000000000000000000000000000000000000000250000000000000000000000000000000000000000000000
#08818:0000000000260000
#08812:000000000000006300000000000000000000240000000000250000000000000000000000000000000000000000000000
#0881a:0024000000000000
#08816:0023000000000000
#08817:0000002300000000
#0881b:000000000000000000000000000000000000006300000000000000000000000000000000000000000000000000000000
#08814:000000000000000000000000006300000000000000000000000000000000000000000000000000000000000000000000000000000000000000000000000000000000000000000000000000000000000000000000000000000000000000000000
#09712:0026000000000000
#09718:0026000000000000
#00756:0000000000000053
#02658:0000000000000016
#02652:0000000000140000
#04456:00000014
#0445a:00000014
#0445b:0053000000000000
#04452:0054
#00857:0063000000000000
#0085b:00230000
#0125b:0063000000000000
#01255:0000000000630000
#01952:0063000000000000
#01955:00230000
#0195b:0000000000530000
#01958:00000023
#02058:0052000000000000
#0205c:00220000
#0245b:0053000000000000
#02452:0000000000003c4c
#0505b:0053000000000000
#05055:00000016
#05054:0000000000000018
#0555b:0063000000000000
#05557:00000000002300000000000000000000
#07858:0000000000520000
#07856:0000000000620000
#07852:00000000000000000000000000230000
#0785b:00000000000000000000000000230000
#07954:14
#07958:14
#00052:001c000000000000
#00152:00000014
#0015a:00000014
#00255:16
#00252:001c000000000000
#0035a:0014000000000000
#00352:0014000000000000
#00455:0059000000000000
#00552:00000053
#00556:0000000000000024
#00559:00000045
#0065b:63
#00656:0024000000000000
#00657:0053
#00652:35
#00952:0000000000004c3c
#01052:0016000000530000
#01058:0016000000000000
#01056:00000000000000000000000000230000
#0115b:0063000000000000
#01157:00000000002300000000000000000000
#01152:0000000000530000
#01156:00000000000000000000000000230000
#01455:0000004900490000
#01452:0034000000000000
#01552:0000003900390000
#01655:0049000000000000
#01652:0000000000390000
#01852:004c000000000000
#01858:00000016
#02252:0053000000000000
#02352:00000000002400000000000000000000
#02358:0064000014000000
#0235a:00000000002400000000000000000000
#02354:0054000014000000
#02552:001c000000000000
#0255a:0000000000000014
#02752:0016000000000000
#0275a:0000000000000014
#02852:0053000000000000
#02855:0059000000000000
#03152:0053000000000039
#03255:0049000000000024
#03252:0054
#03256:0000000000240000
#03258:00000053
#03257:0053
#0325b:0000000000230000
#03253:00000034
#0335a:44
#0335b:0063000000000000
#03352:0000000033343536
#03652:001c0019
#03655:0000000000000019
#03659:25
#03858:0016000000560000
#03852:0000001600000000
#03854:00000026
#03958:0000000000000016
#04052:00001600000000001600000000260000
#04058:0000001600560000
#04358:00260000000000000000000000000000
#04352:0000005300000000
#0435b:00000063
#04252:0000000000000066
#04552:0000592319000000
#0455b:0013
#04652:0053000000000000
#04657:0000000000000023
#0465b:0000630000630000
#04852:0000001600630000
#04858:0016000000160000
#05252:00000000001c0000
#05153:1a
#05152:001c000000000000
#05353:00005454545454545454545400000000
#05354:0000000000240000002400000024000000240000002400000000000000000000
#05352:0000000000000024000000240000002400000024000000240000000000000000
#05755:00590000
#0575b:0043
#0575a:0000000000440000
#05759:00000045
#05758:0000000000000046
#05852:0000333435360000
#06059:00006464646464646464646464641400
#06058:0000000000240000002400000024000000240000002400000024000000000000
#0605a:0000000000000024000000240000002400000024000000240000002400000000
#06052:0000000000000016
#05953:00005454545454545454545454545454
#05954:0000000000240000002400000024000000240000002400000024000000240000
#05952:0000000000000024000000240000002400000024000000240000002400000024
#0725b:00530000
#07252:0000000000540000
#07256:0000000000000014
#0725a:0000000000000014
#07352:0014000000000000
#0735a:0014000000000000
#07452:0000000000000053
#07558:0053000000000016
#07552:0016
#01755:0059000000000000
#02154:0053000000530000
#02159:0000005300000000
#03752:0000000000000016
#03758:0046
#0615a:0042
#06156:00520000
#0625a:4242
#06253:0000000000520000
#0635a:42
#0655a:0042
#0665a:4242
#06652:00000052
#0675a:42
#07652:000000000000001c
#08852:00005535
#08859:00000045
#08858:0000000000260000
#08056:000000000000006300000000000000000000330000000000000000000000006300000000000000000000000000000000
#08057:000000000000430000000000000000000000005300000000000000000000430000000000000000000000000000000000
#08058:000000000000000000000000000000000000000000000000002400000000000000000000000000000000000000000000000000000000000000000000000000000000000000000000000000000000240000000000000000000000000000000000
#08054:000000000000000000000000000000000000000000000000000000000000000000000000000000000000000000000000002400000000000000000000000000000000000000000000000000000000000000000000000000000000000000000000
#10658:00000046
#10652:005c000000003600
#10555:0016000000000000
#10458:0016000000000000
#10358:0016000000000000
#10352:0016000000000000
#10252:0000000000004c3c
#09658:0000001600000000
#09652:001c001600000000
#09552:001c0000001c0000
#08652:5c
#08656:0000000000000054
#08558:00530000
#08555:00330000
#0855a:24
#08552:24
#08352:005c1c00
#08356:0000002400000000
#10152:0016000000000000
#09752:0066000000000000
#09758:0016000000000000
#08952:004c003c
#09452:0036000000000000
#0945b:0053000000000000
#09156:24
#09052:0000000000000054
#0905b:0000000000430000
#09059:0043
#09057:0000004300000000
#09055:00430000
#0875a:00240000000000000000000000000000
#08454:0000000000000054
#08458:0053000000000064
#08452:53
#0815b:53
#08152:0000000000000038
#09358:0046000000000000
#09352:0063000000000000
#02952:0013000000000000
#02955:0013000000000000
#04158:46
#04152:36
#04757:00000023
#0475b:0000000000530000
#08252:0000003800000000
#08256:0048000000480000
#0645b:0000000000520000
#0705b:0000000000230000
#07052:0000000000230000
#10052:0000001c
#0345b:00430000
#03459:0045
#0345a:0000004400000000
#03458:0000000000460000
#0685c:00000052
#004350:0019000000000000
#0043b0:0000002300000000
#005320:00000013
#005360:0000000000000054
#006320:25
#0063b1:13230000
#006361:0054000000000000
#006371:0013
#0063b1:00000023
#006320:0000000000001323
#0073b0:0013230000000000
#007320:0000000013230000
#0073b1:0000000000132300
#007361:0000000000000013
#008321:0023000000000000
#008370:0013000000000000
#0083b0:00530000
#008360:0000002300000000
#010320:0000000000130000
#010360:00000000000000000000000000530000
#011320:23
#0113b0:0013000023000000
#011370:00000000005300000000000000000000
#011320:0000000000130000
#011360:00000000000000000000000000530000
#012320:23
#0123b0:0013000000000000
#012380:0000002300000000
#012350:0000000000130000
#012320:0000000000000023
#013330:0000000000000000000000001400000000540000340000000054000034000000
#013320:0000000000000000000000000054000034000000005400003400000000540000
#014320:24
#017350:0019000000000000
#0173b0:0000000000230000
#018380:0000001300000000
#0183b0:00000000000000532300000000000000
#018320:0000000000130000
#018350:00000000000000000000005323000000
#019320:0013002300000000
#019350:00530000
#0193b0:0000000000130023
#019380:00000053
#020380:0012002200000000
#0203c0:00520000
#021340:0013000000000000
#021320:00000027000000000000000000000000
#021390:0000001300000000
#021370:00000000000000270000000000000000
#021340:0000000000130000
#021320:00000000000000000000002700000000
#022320:0013000000000000
#022350:0000002300000000
#023380:0014000024000000
#023320:00000000005400000000000000000000
#023341:0014000024000000
#0233a1:00000000005400000000000000000000
#0243b1:0013000000000000
#024371:0000002300000000
#028321:000000000000000000000000000000000000000000000000000000000000000000000000000000000000000000000000000000000000000000000000000000000000000000000000000000000000000000000000000000000000000000000000000000000000000000000000000000000000000000000000000000000000000000000000000000000000000000000000000000000000000000000000000000000000000000000000000000000000000000000000000000000000000000000000000000000000000000000000000000000000000000000000000000000000000000000000000000000000000000000000130000000000000000000000000000000000000000000000000000000000000000000000000000000000000000000000000000000000000000000000000000000000000000000000000000000000000000000000000000000000000000000000000000000000000000000000000000000000000000000000000000000000000000000000000000000000000000000000000000000000000000000000000000000000000000000000000000000000000000000000000000000000000000000000000000000000000000000000000000000000000000000000000000000000000000000000000000000000000000000000000000000000000000000000000000000000000000000000000000000000000000000000000000000000000000000000000000000000000000000000000000000000000000000000000000000000000000000000000000000000000000000000000000000000000000000000000000000000000000000000000000000000000000000000000000000000000000000000000000000000000000000000000000000000000000000000000000000000000000000000000000000000000000000000000000000000000000000000000000000000000000000000000000000000000000000000000000000000000000000000000000000000000000000000000000000000000000000000000000000000000000000000000000000000000000000000000000000000000000000000000000000000000000000000000000000000000000000000000000000000000000000000000000000000000000000000000000000000000000000000000000000000000000000000000000000000000000000000000000000000000000000000000000000000000000000000000000000000000000000000590000000000000000000000000000000000000000000000000000000000000000000000000000000000000000000000000000000000000000000000390000000000000000000000000000000000000000000000000000000000000000000000000000000000000000000000000000000000000000000000595300000000000000000000000000000000000000000000000000000000000000000000000000000000000000000000000000000000000000000000000000000000000000000000000000000000000000000000000000000000000000000000000000000000000000000000000000000000000000000053590000000000000000000000000000000000000000000000000000000000000000000000000000000000000000000000000000000000000000000000390000000000000000000000000000000000000000000000000000000000000000000000000000000000000000000000000000000000000000000000590000000000000000000000000000000000000000000000000000000000000000000000000000000000000000000000000000000000000000000000000000000000000000000000000000000000000000000000000000000000000000000000000000000000000000000000000000000000000000000000000000000000000000000000000000000000000000000000000000000000000000000000000000000000000000000000000000000000000000000000000000000000000000000000000000000000000000000000000000000000000000000000000000000000000000000000000000000000000000000000000000000000000000000000000000000000000000000000000000000000000000000000000000000000000000000000000000000000000000000000000000000000000000000000000000000000000000000000000000000000000000000000000000000000000000000000000000000000000000000000000000000000000000000000000000000000000000000000000000000000000000000000000000000000000000000000000000000000000000000000000000000000000000000000000000000000000000000000000000000000000000000000000000000000000000000000000000000000000000000000000000000000000000000000000000000000000000000000000000000000000000000000000000000000000000000000000000000000000000000000000000000000000000000000000000000000000000000000000000000000000000000000000000000000000000000000000000000000000000000000590000000000000000000000000000000000000000000000000000000000000000000000000000000000000000000000000000000000000000000000
#028381:000000000000000000000000000000000000000000000000000000000000000000000000000000000000000000000000000000000000000000000000000000000000000000000000000000000000000000000000000000000000000000000000000000000000000000000000000000000000000000000000000000000000000000000000000000000000000000000000000000000000000000000000000000000000000000000000000000000000000000000000000000000000000000000000000000000000000000000000000000000000000000000000000000000000000000000000000000000000000000000000000000000000000000000000000000000000000000000000000000000000000000000000000000000000000000000000000000000000000000000000000000000000000000000000000000000000000000000000000000000000000000000000000000000000000000000000000000000000000000000000000000000000000000000000000000000000000000000000000000000000000000000000000000000000000000000000000000000000000000000000000000000000000000000000000000000000000000000000000000000000000000000000000000000000000000000000000000000000000000000000530000000000000000000000000000000000000000000000000000000000000000000000000000000000000000000000000000000000000000000000000000000000000000000000000000000000000000000000000000000000000000000000000000000000000000000000000000000000000000000000000000000000000000000000000000000000000000000000000000000000000000000000000000000000000000000000000000000000000000000000000000000000000000000000000000000000000000000000000000000000000000000000000000000000000000000000000000000000000000000000000000000000000000000000000000000000000000000000000000000000000000000000000000000000000000000000000000000000000000000000000000000000000000000000000000000000000000000000000000000000000000000000000000000000000000000000000000000000000000000000000000000000000000000000000000000000000000000000000000000000000000000000000000000000000000000000000000000000000000000053000000000000000000000000000000000000000000000000000000000000000000000000000000000000000000000000000000000000000000000000000000000000000000000000000000000000000000000000000000000000000000000000000000000000000000000000000000000000000000000000000000000000000000000000000000000000000000000000000000000000000000000000000000000000000000000000000000000000000000000000000000000000000000000000000000000000000000000000000000000000000000000000000000000000000000000000000000000000000000000000000000000000000000000000000000000000000000000000000000000000000000000000000000000000000000000000000000000000000000000000000000000000000000000000000000000000000000000000000000000000000000000000000000000000000000000000000000000000000000000000005300000000000000000000000000000000000000000000000000000000000000000000000000000000000000000000000000000000000000000000000000000000000000000000000000000000000000000000000000000000000000000000000000000000000000000000000000000000000000000000000000000000000000000000000000000000000000000000000000000000000000000000000000000000000000000000000000000000000000000000000000000000000000000000000000000000000000000000000000000000000000000000000000000000000000000000000000000000000000000000000000000000000000000000000000000000000000000000000000000000000000000000000000000000000000000000000000000000000000000000000000000000000000000000000000000000000000000000000000000000000000000000000000000000000000000000000000000000000000000000000000000000000000000000000000000000000000000000000000000000000000000000000000000000000000000000000000000000000000000000000000000000000000000000000000000000000000000000000000000000000000000000000000000000000000000000000000000000000000000000000000000000000000000000000000000000000000000000000000000000000000000000000000000000000000000000000000000000000000000000000000000000000000000000000000000000000000000000000000000000000000000000000000000000000000000000000000000000000000000053000000000000000000000000000000000000000000000000000000000000000000000000000000000000000000000000000000000000000000000000
#029321:390000000000000000000000000000000000000000000000000000000000000000000000000000000000000000000000000000000000000000000000595300000000000000000000000000000000000000000000000000000000000000000000000000000000000000000000000000000000000000000000000000000000000000000000000000000000000000000000000000000000000000000000000000000000000000000000000000000000000000000000000000000000000000000000000000000000000000000000000000000000000000000000000000000000000000000000000000000000000000000000230000000000000000000000000000000000000000000000000000000000000000000000000000000000000000000000000000000000000000000000000000000000000000000000000000000000000000000000000000000000000000000000000000000000000000000000000000000000000000000000000000000000000000000000000000000000000000000000000000000000000000000000000000000000000000000000000000000000000000000000000000000000000000000000000000000000000000000000000000000000000000000000000000000000000000000000000000000000000000000000000000000000000000000000000000000000000000000000000000000000000000000000000000000000000000000000000000000000000000000000000000000000000000000000000000000000000000000000000000000000000000000000000000000000000000000000000000000000000000000000000000000000000000000000000000000000000000000000000000000000000000000000000000000000000000000000000000000000000000000000000000000000000000000000000000000000000000000000000000000000000000000000000000000000000000000000000000000000000000000000000000000000000000000000000000000000000000000000000000000000000000000000000000000000000000000000000000000000000000000000000000000000000000000000000000000000000000000000000000000000000000000000000000000000000000000000000000000000000000000000000000000000000000000000000000000000000000000000000000000000000000000000000000000000000000000000000000000000000000000000000000000000000000000000000000000000000000000000000000000000000000000000000000000000000000000000000000000000000000000000000000000000000000000000000000000000000000000000000000000000000000000000000000000000000000000000000000000000000000000000000000000000000000000000000000000000000000000000000000000000000000000000000000000000000000000000000000000000000000000000000000000000000000000000000000000000000000000000000000000000000000000000000000000000000000000000000000000000000000000000000000000000000000000000000000000000000000000000000000000000000000000000000000000000000000000000000000000000000000000000000000000000000000000000000000000000000000000000000000000000000000000000000000000000000000000000000000000000000000000000000000000000000000000000000000000000000000000000000000000000000000000000000000000000000000000000000000000000000000000000000000000000000000000000000000000000000000000000000000000000000000000000000000000000000000000000000000000000000000000000000000000000000000000000000000000000000000000000000000000000000000000000000000000000000000000000000000000000000000000000000000000000000000000000000000000000000000000000000000000000000000000000000000000000000000000000000000000000000000000000000000000000000000000000000000000000000000000000000000000000000000000000000000000000000000000000000000000000000000000000000000000000000000000000000000000000000000000000000000000000000000000000000000000000000000000000000000000000000000000000000000000000000000000000000000000000000000000000000000000000000000000000000000000000000000000000000000000000000000000000000000000000000000000000000000000000000000000000000000000000000000000000000000000000000000000000000000000000000000000000000000000000000000000000000000000000000000000000000000000000000000000000000000000000000000000000000000000000000000000000000000000000000000000000000000000000000000000000000000000000000000000000000000000000000000000000000000000000000000000000000000000000000000000000000000000000000000000000000000000000000000000000000000000000000000000000000000000000000000000000
#028350:000000000000000000000000000000000000000000000000000000000000000000000000000000000000000000000000000000000000000000000000000000000000000000000000000000000000000000000000000000000000000000000000000000000000000000000000000000000000000000000000000000000000000000000000000000000000000000000000000000000000000000000000000000000000000000000000000000000000000000000000000000000000000000000000000000000000000000000000000000000000000000000000000000000000000000000000000000000000000000000000190000000000000000000000000000000000000000000000000000000000000000000000000000000000000000000000000000000000000000000000000000000000000000000000000000000000000000000000000000000000000000000000000000000000000000000000000000000000000000000000000000000000000000000000000000000000000000000000000000000000000000000000000000000000000000000000000000000000000000000000000000000000000000000000000000000000000000000000000000000000000000000000000000000000000000000000000000000000000000000000000000000000000000000000000000000000000000000000000000000000000000000000000000000000000000000000000000000000000000000000000000000000000000000000000000000000000000000000000000000000000000000000000000000000000000000000000000000000000000000000000000000000000000000000000000000000000000000000000000000000000000000000000000000000000000000000000000000000000000000000590000000000000000000000000000000000000000000000000000000000000000000000000000000000000000000000000000000000000000000000390000000000000000000000000000000000000000000000000000000000000000000000000000000000000000000000000000000000000000000000595300000000000000000000000000000000000000000000000000000000000000000000000000000000000000000000000000000000000000000000000000000000000000000000000000000000000000000000000000000000000000000000000000000000000000000000000000000000000000000000000000000000000000000000000000000000000000000000000000000000000000000000000000000000000000000000000000000000000000000000000000000000000000000000000000000000000000000000000000000000000000000000000000000000000000000000000000000000000000000000000000000000000000000000000000000000000000000000000000000000000000000000000000000000000000000000000000000000000000000000000000000000000000000000000000000000000000000000000000000000000000000000000000000000000000000000000000000000000000000000000000000000000000000000000000000000000000000000000000000000000000000000000000000000000000000000000000000000000000000000000000000000000000000000000000000000000000000000000000000000000000000000000000000000000000000000000000000000000000000000000000000000000000000000000000000000000000000000000000000000000000000000000000000000000000000000000000000000000000000000000000000000000000000000000000000000000000000000000000000000000000000000000000000000000000000000000000000000000000000053590000000000000000000000000000000000000000000000000000000000000000000000000000000000000000000000000000000000000000000000390000000000000000000000000000000000000000000000000000000000000000000000000000000000000000000000000000000000000000000000590000000000000000000000000000000000000000000000000000000000000000000000000000000000000000000000000000000000000000000000000000000000000000000000000000000000000000000000000000000000000000000000000000000000000000000000000000000000000000000000590000000000000000000000000000000000000000000000000000000000000000000000000000000000000000000000000000000000000000000000390000000000000000000000000000000000000000000000000000000000000000000000000000000000000000000000000000000000000000000000595300000000000000000000000000000000000000000000000000000000000000000000000000000000000000000000000000000000000000000000000000000000000000000000000000000000000000000000000000000000000000000000000000000000000000000000000000000000000000000000000000000000000000000000000000000000000000000000000000000000000000000000000000000000000000000000000000000000000000000000
#0283b0:000000000000000000000000000000000000000000000000000000000000000000000000000000000000000000000000000000000000000000000000000000000000000000000000000000000000000000000000000000000000000000000000000000000000000000000000000000000000000000000000000000000000000000000000000000000000000000000000000000000000000000000000000000000000000000000000000000000000000000000000000000000000000000000000000000000000000000000000000000000000000000000000000000000000000000000000000000000000000000000000000000000000000000000000000000000000000000000000000000000000000000000000000000000000000000000000000000000000000000000000000000000000000000000000000000000000000000000000000000000000000000000000000000000000000000000000000000000000000000000000000000000000000000000000000000000000000000000000000000000000000000000000000000000000000000000000000000000000000000000000000000000000000000000000000000000000000000000000000000000000000000000000000000000000000000000000000000000000000000000000530000000000000000000000000000000000000000000000000000000000000000000000000000000000000000000000000000000000000000000000000000000000000000000000000000000000000000000000000000000000000000000000000000000000000000000000000000000000000000000000000000000000000000000000000000000000000000000000000000000000000000000000000000000000000000000000000000000000000000000053000000000000000000000000000000000000000000000000000000000000000000000000000000000000000000000000000000000000000000000000000000000000000000000000000000000000000000000000000000000000000000000000000000000000000000000000000000000000000000000000000000000000000000000000000000000000000000000000000000000000000000000000000000000000000000000000000000000000000000000000000000000000000000000000000000000000000000000000000000000000000000000000000000000000000000000000000000000000000000000000000000000000000000000000000000000000000000000000000000000000000000000000000000000000000000000000000000000000000000000000000000000000000000000000000000000000000000000000000000000000000000000000000000000000000000000000000000000000000000000000000000000000000000000000000000000000000000000000000000000000000000000000000000000000000000000000000000000000000000000000000000000000000000000000000000000000000000000000000000000000000000000000000000000000000000000000000000000000000000000000000000000000000000000000000000000000000000000000000000000000000000000000000000000000000000000000000000000000000000000000000000000000000000000000000000000000000000000000000000000000000000000000000000000000000000000000000000000000000000000000000000000000000000000000000000000000000000000000000000000000000000000000000000000000000000000000000000000000000000000000000000000000000000000000000000000000000000000000000000000000000000000000000000000000000000000000000000000000000000000000000000000000000000000000000000000000000000000000000000000000000000000000000000000000000000000000000000000000000000000000000000000000000000000000000000000000000000000000000000000000000000000000000000000000000000000000000000000000000000000000005300000000000000000000000000000000000000000000000000000000000000000000000000000000000000000000000000000000000000000000000000000000000000000000000000000000000000000000000000000000000000000000000000000000000000000000000000000000000000000053000000000000000000000000000000000000000000000000000000000000000000000000000000000000000000000000000000000000000000000000000000000000000000000000000000000000000000000000000000000000000000000000000000000000000000000000000000000000000000000000000000000000000000000000000000000000000000000000000000000000000000000000000000000000000000000000000000000000000000000000000000000000000000000000000000000000000000000000000000000000000000000000000000000000000000000000000000000000000000000000000000000000000000000000000000000000000000000000000000000000000000000000000000000000000000000000000000000000000000000000
#029350:0023000000000000
#029320:0000000000001323
#029381:0000000000000013
#030381:23
#030350:1323000000000000
#0303b1:0013230000000000
#030351:0000000013230000
#030381:0000000000001323
#031321:0013000000000000
#031361:0000002300000000
#032371:0013
#0323b1:0000000000530000
#032381:00000053
#032351:0000000000000054
#0333a1:24
#032320:0014
#032360:0000000000540000
#032330:00000024
#0333b1:0013000000000000
#033321:0000002300000000
#033360:0014002400000000
#035320:0015000000000000
#036390:35
#036320:002c0000
#038380:0000000000160026
#038340:00000056
#040380:0000000000160000
#040320:00000000000000000000000000560000
#041380:26
#0413b0:0000132300000000
#041380:0000000013230000
#041350:0000000000001323
#042320:1323000000000000
#042350:0000132300000000
#042380:0000000013230000
#042320:0000000000000000000000000000000000000000000000000000000016363636
#043320:3636003636363636260000000000000000000000000000000000000000000000
#043380:00360000000000000000000000000000
#043320:0000001300000000
#043360:0023
#0433b0:00000013
#043370:0000000000000023
#0443b0:0013000000000000
#044360:0000003434002400
#044321:0014
#0443a1:00000024
#045321:0000000000000000193939393339393929000000000000000000000000000000
#046321:0013000000000000
#046361:00230000
#0463b0:00130000
#046370:0000002300000000
#0463b0:0000000000130000
#046370:0000000000000053
#0473b0:0023000000000000
#0473b0:0000000000130023
#047370:00000053
#048320:0000000000130000
#048360:0000000000000023
#0493a0:00140000
#049360:00000000005400000000000000000000
#050360:24
#0503b0:0013000000000000
#050370:0000002300000000
#053330:00001454545454545454545424000000
#053340:0000000000540000005400000054000000540000005400000000000000000000
#053320:0000000000000054000000540000005400000054000000540000000000000000
#0553b0:0013000023000000
#055370:00000000005300000000000000000000
#057350:00190000
#0573b0:0023
#058320:0000000000000013
#059320:23
#0593b1:1323000000000000
#059330:00001454545454545454545454545454
#059340:0000000000540000005400000054000000540000005400000054000000540000
#059320:0000000000000054000000540000005400000054000000540000005400000054
#060330:24
#060390:00001454545454545454545454542400
#060380:0000000000540000005400000054000000540000005400000054000000000000
#0603a0:0000000000000054000000540000005400000054000000540000005400000000
#061360:00120000
#061330:0022
#062330:0000001200320000
#063370:22
#066320:00000012
#067360:22
#0683c0:00000012
#069380:00230000
#069321:0000132300000000
#069351:0000000013230000
#069381:0000000000001323
#0703b1:1323000000000000
#0703b1:0000000000130000
#071381:23
#070320:0000000000130000
#071350:23
#071320:00130000
#071350:0000003323000000
#0713b0:00000013
#071380:0000000000000033
#072380:23
#0723b0:00130000
#072360:0000005400000024
#072321:0000000000140000
#0723a1:0000000000000024
#074321:0000000000000013
#075351:0023000000000000
#075380:0013000000000000
#0753b0:0000002300000000
#078380:0000000000120000
#0783b0:00000000000000000000000000530000
#079380:24
#078361:0000000000120000
#078321:00000000000000000000000000530000
#079341:24
#080361:000000000000001300000000000000000000230000000000000000000000000000000000000000000000000000000000
#080381:000000000000000000000000000000000000000000000000005400000000000000000000000000000000000000000000000000000000000000000000000000000000000000000000000000000000000000000000000000000000000000000000
#080371:000000000000000000000000000000000000001300000000000000000000230000000000000000000000000000000000
#080341:000000000000000000000000000000000000000000000000000000000000000000000000000000000000000000000000005400000000000000000000000000000000000000000000000000000000000000000000000000000000000000000000
#080361:000000000000000000000000000000000000000000000000000000000000001300000000000000000000000000000000
#080381:00000000000000000000000000540000
#081321:25
#0813b0:13
#081370:0023000000000000
#083320:00000000000000001c3c3c3c003c3c3c2c000000000000000000000000000000
#083360:0000005400000000
#084320:13
#084350:0023000000000000
#084381:0013000000000000
#0843b1:00230000
#084341:0000000000000014
#0853a1:54
#085341:0024000000000000
#084380:0000000000000014
#085320:54
#085380:0024000000000000
#085380:00130000
#0853b0:0023
#086320:1c00000000000024
#086361:0000000000000014
#0873a1:00540000000000000000000000000000
#087321:00260000
#088321:00001525
#088381:0000000000560000
#090321:0000000000000014
#091361:54
#091321:0024000000000000
#0913a1:00000014000000000000240000000000
#091321:00000000000000000000001400000000
#092321:0024000000000000
#0923a1:00000014000000000000240000000000
#093321:0013000000000000
#093371:0000002300000000
#0943b1:0013000000000000
#094361:0000002300000000
#097321:0016000000000000
#100321:0000002c
#106321:001c000000000000
#106361:0000000000240000
#035970:0000001700000000
#036920:27
#049920:0000001200000000
#0509c0:22
#063980:00120000
#0639b0:0022
#0649b0:0000001200520000
#065970:22
#0679a0:00120000
#067980:0022
#0679c0:00000012
#0689a0:22
#091920:0014000000000000
#0919a0:00000024000000000000000000000000
#0919a0:0000000000140000
#091920:00000000000000000000002400000000
#092920:0014000000000000
#0929a0:00000024000000000000000000000000
