This file was generated by Ched 2.7.0.0.
#TITLE ""
#ARTIST ""
#DESIGNER ""
#DIFFICULTY 0
#PLAYLEVEL
#SONGID ""
#WAVE ""
#WAVEOFFSET 0
#JACKET ""
#REQUEST "ticks_per_beat 480"
#00002: 4
#BPM01: 200
#00008: 01
#TIL00: ""
#VOLUME: ""
#HISPEED 00
#MEASUREHS 00
#01912:00140014
#01918:0014
#0691a:00140014
#06914:0014
#07014:14
#01018:00000014
#01012:0026000000000000
#01010:0041
#01112:00140000
#01118:00000014
#01214:00140000
#0121a:00000014
#01312:00140000
#01318:00000014
#01814:0014
#0181a:00240014
#0201a:00140014
#02014:0014
#02218:00140014
#02214:0014
#02418:00140014
#02414:0014
#0271a:00140014
#02714:0014
#02812:00140014
#02818:0014
#02918:00140000
#02914:0014
#0291a:00000014
#03014:00140000
#03018:0014
#03012:00000014
#03214:00140014
#03218:0014
#03318:14
#03314:00140000
#03418:00140014
#03414:0014
#03718:0014
#03714:00000014
#03712:00240000
#03812:00140000
#03818:14
#03914:0014
#03918:00000014
#0391a:00140000
#0401a:00140000
#04014:14
#04112:00140014
#04118:0014
#04110:41
#0421a:1414
#04214:00140000
#04212:00000014
#0431a:0014
#04314:00000014
#04418:14
#04412:00140000
#05712:00140014
#05718:0014
#0581a:00140014
#05814:0014
#07112:00140014
#07118:0014
#07218:14
#07318:00140000
#07414:0000000000000014
#08312:00140014
#08318:0014
#0841a:1414
#08414:00140000
#08412:00000014
#08518:00140014
#08514:0014
#08614:14
#0911a:00140014
#09114:0014
#09212:00140014
#09218:0014
#1011a:00000000000000000000000000000014
#10118:0024000000000000
#03514:14
#03518:00140000
#04514:0014
#04518:00000014
#0451a:00240000
#0461a:00140000
#04614:14
#04718:0014
#04714:00000014
#04712:00140000
#04812:00140000
#04818:14
#0491a:00140014
#04914:0014
#05012:1414
#05018:00140000
#0501a:00000014
#05914:00140000
#08014:0014003400340000
#08118:00140000
#0811a:00000014
#08114:0014
#08110:41
#08218:00140000
#0821a:00000014
#08212:14
#08214:0014
#0611f:11
#06118:00240000
#00019:0024000000000000
#00013:0024000000000000
#00213:0024000000000000
#00219:0024000000000000
#00418:0024000000000000
#08718:00260000
#09714:0024000000000000
#0031a:0024000000000000
#00312:0000000000240000
#01612:00260000
#01618:00000026
#01712:00260000
#02112:00240000
#02512:00240000
#02510:0041000000000000
#05214:0000002400000000
#05218:0000000000240000
#07818:0024000000240000
#07814:0000002400000000
#08912:00260000
#08918:00000026
#09012:00260000
#09618:0024000000000000
#09812:0000000000000024
#10518:0000000000000024
#10512:0026000000000000
#10614:0024000000000000
#10618:00000026
#0651a:00240000
#09314:0024000000000000
#09418:0024000000000000
#09410:41
#09514:0024000000000000
#10312:0026000000000000
#10418:0026000000000000
#0791f:21
#07512:0034000000000000
#05610:41
#00458:0054000000000000
#03354:00540000
#03852:00640000
#0405a:00540000
#04252:00000014
#04454:00000014
#04452:00540000
#07358:00640000
#07454:0000000000000054
#08654:54
#08758:00160000
#08952:00160000
#08958:00000016
#09052:00160000
#09754:0064000000000000
#09852:0000000000000024
#1015a:00000000000000000000000000000024
#10158:0054000000000000
#07652:0000000000000014
#03558:00540000
#0365a:00140000
#0465a:00540000
#04852:00640000
#0505a:00000014
#05954:00640000
#06052:0000000000000014
#08054:0064000000000000
#09252:00000054
#09354:0014000000000000
#09458:0014000000000000
#09554:0014000000000000
#09658:0014000000000000
#10352:0016000000000000
#10458:0016000000000000
#10552:0016000000000000
#10658:00000016
#01052:0016000000000000
#02552:00540000
#004380:0014000000000000
#0073a0:0024
#014340:00140024
#015380:00140024
#017320:00160026
#021320:00140024
#023320:00140024
#025320:00140000
#026340:00000024
#0313a0:00140024
#033340:00140000
#033320:00000024
#035380:00140000
#0363a0:00240000
#038320:00140000
#038340:00003424
#0403a0:00140000
#040380:00003424
#044320:00140000
#044340:00000024
#0463a0:00140000
#046380:00003424
#048320:00140000
#048340:00003424
#053320:00140000
#053340:00000034
#054320:00340000
#054340:00000024
#0553a0:00140000
#055380:00000034
#0563a0:00340000
#056380:00000024
#059340:00140000
#060320:0034000000000024
#061380:00140000
#0613a0:00000034
#062380:00340000
#0623a0:00000024
#063340:00140000
#063320:00000034
#064340:00340000
#064320:00000024
#0653a0:00140000
#065380:00000034
#0663a0:00340000
#066380:00000024
#067320:00140000
#067340:00000034
#068320:00340000
#068340:00000024
#070380:00140024
#072340:00140024
#073380:00140000
#0743a0:00240000
#074340:0000000000000014
#075320:0034000000000000
#076320:0034000000000024
#079340:00001434
#080340:0034003400340000
#081320:24
#086340:14
#086320:00000024
#092320:00000014
#093340:0024000000000000
#097340:0014000000000000
#098320:0000000000000054
#100340:00000024
#101380:0014000000000000
#1013a0:00000000000000000000000000000054
#102380:00000024
