This file was generated by Ched 2.7.0.0.
#TITLE ""
#ARTIST ""
#DESIGNER ""
#DIFFICULTY 0
#PLAYLEVEL
#SONGID ""
#WAVE ""
#WAVEOFFSET 0
#JACKET ""
#REQUEST "ticks_per_beat 480"
#00002: 4
#BPM01: 100
#00008: 01
#TIL00: ""
#VOLUME: ""
#HISPEED 00
#MEASUREHS 00
#00014:14
#0061a:14
#00712:14
#00718:0014
#00514:0014
#0051a:24
#00510:41
#00812:14
#01318:14
#01314:0014
#01310:41
#0141a:14
#01514:14
#01518:0014
#01612:14
#0211a:14
#0171a:14
#01718:0014
#01912:14
#01914:0014
#0191f:11
#02212:14
#02318:14
#02414:14
#02512:0016
#02518:26
#0251f:21
#02510:0041
#02712:16
#02718:0016
#02918:16
#02912:0016
#03112:2616
#03218:2616
#03312:14
#03318:0014
#0351a:14
#03514:0014
#0391a:14
#03912:0014
#0401a:14
#04012:0014
#04118:1414
#04214:1414
#04414:1414
#04418:00140024
#03712:26
#03718:0026
#03812:26
#01810:0041
#00910:41
#03610:41
#0215a:54
#0175a:54
#01758:0024
#01952:64
#01954:0024
#02252:64
#02358:54
#02454:64
#0013a0:14
#0023a0:24
#003320:14
#004320:24
#0093a0:14
#010380:24
#011320:14
#012340:24
#0173a0:14
#017380:0034
#0183a0:24
#019320:14
#019340:0034
#020320:24
#0213a0:14
#021380:0024
#022320:14
#022340:0024
#023380:14
#0233a0:0024
#024340:14
#024320:0024
#026380:16362600
#028320:1626
#028330:00360000
#030380:1626
#030360:00360000
#034320:1424
#0363a0:1424
#038320:1626
#043380:1424
