This file was generated by Ched 2.7.0.0.
#TITLE ""
#ARTIST ""
#DESIGNER ""
#DIFFICULTY 0
#PLAYLEVEL
#SONGID ""
#WAVE ""
#WAVEOFFSET 0
#JACKET ""
#REQUEST "ticks_per_beat 480"
#00002: 4
#BPM01: 100
#00008: 01
#TIL00: ""
#VOLUME: ""
#HISPEED 00
#MEASUREHS 00
#00012:16161616
#00014:0012001200120000
#00518:13
#00515:0013001300130013
#00512:0014
#00517:000000000000000000000014000000000000000000000000
#0051b:00230023
#00510:41
#00612:13231300
#0061b:0013001300000000
#00618:13131300
#00615:0013001300000000
#00718:0013001400000000
#00713:001400
#00715:13
#0071b:00230000
#00814:0014000000000000
#00818:0000001400000000
#00812:2323
#00816:00230000
#00817:2323
#0081b:00230000
#01615:0013000000000000
#01618:000000000013000000000000000000000000000000000000
#01616:0000001400000000
#01619:0000000000130000
#01614:0000000000130000
#01612:00231323
#0161b:00001323
#02412:00005413
#02417:0034000000001300
#02414:0000000000000013
#02419:003400000000000000000000000000000000000000130000
#0241a:24
#02418:003400000000000000000000
#02416:000000003434343434000000640000000000000000000000
#02516:23140014
#02514:0000001400140000
#02518:0014000000000014
#0251b:23
#02517:0023
#02512:0023
#0251f:21
#02510:0041
#02618:0014000000130000
#02614:0000001400000000
#02613:0000000000130000
#0261b:2323
#02612:00230000
#02616:2323
#02617:00230000
#02917:1313
#02919:0013001300130013
#0291b:00130013
#02915:000000000013000000000000000000000013000000000000
#02912:2323
#03314:0013001300000000
#0331a:00140014
#03317:130000000000000000000013000000130000000000000000
#03316:00130000
#03318:0000000000000013
#03312:23
#0361a:2400000000140000
#03616:00000014
#03619:00240000
#03610:41
#03918:260000000000000026000000330000001300000000000000000000000000000000000000000000000000000000130000000000000000000000000000230000000000000000000000000000000000000000000000130000000000000000000000
#03915:000000331300000000000000130000130000000000130000
#03912:160016000000000000130000000000000000000000000000
#0391b:0000001300000000
#04016:00001424
#0401a:0000002400000024
#04118:000000000000000000130000000000000013000000130000
#04112:14000023
#04115:0000130013130000
#0411b:00230000
#04318:000000000000000000130000230000000013000000000000
#04315:000000000000000000000000000000000013000000000000
#00118:13
#0011b:00130000
#00116:00130000
#00115:0013
#00112:00000013
#00117:00000013
#00114:22
#0091b:00130053
#00918:1313
#00912:0013
#00915:00130053
#00910:41
#00914:00000000000000000000000000000000005300000000000000000000000000000000000000000000000000000000000000530000000000000000000000000000
#0091a:00000000000000000000000000000000000000000000000000000000000000000000000000000000000000000000000000530000000000000000000000000000
#0021b:1313
#00218:0013001300000013
#00215:00130013
#00315:13
#00312:00130000
#00317:00130000
#00318:0013
#0031b:00000013
#00316:00000013
#00412:1313
#00415:0013001300000000
#00418:00130000
#01012:00130053
#01015:1313
#0101b:0013
#01018:00130053
#01019:00000000000000000000000000000000005300000000000000000000000000000000000000000000000000000000000000530000000000000000000000000000
#01013:00000000000000000000000000000000000000000000000000000000000000000000000000000000000000000000000000530000000000000000000000000000
#01116:13
#01113:00130000
#0111b:13
#01115:0013
#01112:00000013
#0111a:0013
#01118:00000000000000000000000000000000530000000000000000000000000000000000000000000000000000000000000000530000000000000000000000000000
#01119:00000000000000000000000000000000005300000000000000000000000000000000000000000000000000000000000000000000000000000000000000000000
#01117:00000053
#0121b:13
#01219:00130000
#0121a:0013
#01218:00000013
#01216:13
#01215:0013
#01213:00000000000000000000000000000000530000000000000000000000000000000000000000000000000000000000000000530000000000000000000000000000
#01214:00000000000000000000000000000000005300000000000000000000000000000000000000000000000000000000000000000000000000000000000000000000
#01212:00000053
#0151b:0013000000002313
#01518:1300000000130000
#01515:0013000013000000
#01512:0000230000130000
#01716:1212000000000000
#01713:0000000012120000
#01718:00120000
#0171b:00000012
#01714:00220000
#01715:00000022
#01816:1212000000000000
#01818:00120000
#01814:00220000
#01810:0041
#01918:1212000000000000
#0191b:0000000012120000
#01916:00120000
#01913:00000012
#0191f:11
#0191a:00220000
#01919:00000022
#02018:1212000000000000
#02016:00120000
#0201a:00220000
#02214:0012000000000000
#02218:1200001200000000
#02216:00120000
#0211a:0000220012120000
#0211c:1212000000000000
#02116:00120000
#02114:00000012
#02118:00000022
#02312:00142624
#02315:001424
#02318:260000000014002400000000
#0231a:00240014
#02317:002400000014
#02314:002400000000000000000014
#02714:0014000000000014
#02716:00142314
#02718:0000001400140000
#02712:23
#02717:23
#0271b:0023
#02814:0014000000000000
#02818:0000001400000000
#0281a:0000000000130000
#02815:0000000000130000
#02812:2323
#0281b:00230000
#02817:2323
#02816:00230000
#0301b:0013001300000000
#03017:13131300
#03015:0013001300000000
#03012:23232300
#03119:000000130000000013000000000000000000000000000000
#03116:13240000
#03114:0000001300000000
#0311b:23
#03112:0000000023230000
#03216:13240000
#0321b:00130000
#03218:0014000000000000
#03214:0000001400000000
#03212:0000000024240000
#0321a:24
#03419:0013001300000000
#03412:00140014
#03416:130000000000000000000013000000130000000000000000
#03417:00130000
#03415:0000000000000013
#0341b:23
#03518:0013000000000000
#03516:0000001400000014
#0351a:00140000
#03512:00001314
#03515:0000000000130000
#0351b:23
#0381b:0013
#03815:0000000000130000
#03818:00000014
#03812:0000250014000014
#03819:25
#03817:002424000000
#03814:002400000024000000000000
#0381a:00240000
#04215:1300001300130000
#04218:0013000013000013
#04212:00130023
#0421b:00230013
#04414:1313
#04416:0014001400140000
#04419:00130022
#0441a:2323
#04413:00230000
#04415:0000000000000022
#0441b:006300000000000000000000000000000000000000000000000000000000000000000000000000000000000000000000006300000000000000000000000000000000000000000000000000000000000000000000000000000000000000000000
#04412:000000000000000000000000000000000000000000000000006300000000000000000000000000000000000000000000000000000000000000000000000000000000000000000000000000000000000000000000000000000000000000000000
#01315:1300000013130000
#01318:1313
#0131b:00130013
#01312:00230023
#01310:41
#01418:0000000013130000
#01415:1313
#01412:00130013
#0141b:00230023
#03712:00240024
#0371a:00240024
#00154:12
#00158:53
#0015b:00230000
#00155:0063
#00152:00000023
#00052:66666666
#00054:0022002200220000
#00655:00000013
#00652:0053
#0065b:0053005300001300
#00658:53535300
#00757:00000013
#00752:00000013
#00857:00000013
#00852:00000013
#03958:000066002300460000000000000000000000000000530000
#03955:000000002300000000000000000000130000000000530000
#03952:006600360000000000000000
#0095b:00230000
#00958:5353
#00952:0053
#02358:16
#02352:0016
#03756:0014000000140000
#03752:14
#0375a:0014
#0025b:0013
#00355:63
#00352:00230000
#00358:0053
#0035b:00000023
#00452:0053
#00455:00000013
#01052:00230000
#01055:6363
#0105b:0063
#0115b:63
#0115a:0063
#0155b:0053000000000053
#01558:53130000
#01555:00006313
#01552:0000000000530000
#01853:00000012
#0185b:00000012
#01858:00520000
#0175b:00000052
#01758:00520000
#01956:00620000
#01953:00000062
#02056:00620000
#0205b:00000012
#02053:00000012
#02258:52
#0225b:00000012
#02256:00620000
#02253:00000012
#02156:00620000
#02154:00000062
#02655:00000044
#0265a:00000044
#0265b:0053
#02656:0053
#02658:0000000000230000
#02653:0000000000230000
#0285a:0000000000230000
#02855:0000000000230000
#02852:00006334
#02857:00006334
#0305b:0053005300001300
#03057:53535300
#03056:00000013
#03052:0053
#03157:00000013
#03152:00000013
#03256:13000014
#03252:00000014
#0325b:00130000
#0335a:00140014
#03452:00140014
#0355a:00140000
#03552:00000014
#03859:15
#03852:0000150000000014
#0385b:0013
#03855:0000000000130000
#03858:00000014
#04052:0013000000000000
#0405b:0013000000000000
#0415a:14
#04152:14
#04353:00000015
#04358:000000000000000000000000000000000023150000000000
#04355:000000000000000000000000000000000023000000000000
#0245a:54
#01358:5353
#0135b:00230023
#01455:6363
#01452:00230023
#0255b:13
#02556:13
#01256:63
#01255:0063
#000320:16363636
#000340:0052005200520000
#001340:22
#001381:1323
#0013b1:00530000
#001350:0013
#001320:00000053
#002350:23
#003350:1323
#003320:00530000
#003381:0013
#0033b1:00000053
#004381:23
#004321:0013
#004351:00000023
#006381:13333300
#0063b1:0033003300002300
#006320:0013
#006350:00000023
#007370:00001323
#007321:00001323
#008371:00001323
#008320:00001323
#009380:1333
#0093b0:00530023
#009321:0013
#009351:00000023
#010351:1333
#010321:00530023
#0103b0:0013
#010380:00000023
#0113b0:13
#011380:00230000
#0113a0:0013
#011370:00000023
#012360:13
#012330:00230000
#012350:0013
#012320:00000023
#013380:1333
#0133b0:00330033
#014380:23
#014351:1333
#014321:00330033
#015351:23
#015380:13230000
#0153b0:0033000000000000
#015350:00001323
#015320:0000000000330000
#0153b0:0000000000000013
#016380:0023000000000000
#017380:12320000
#0173b0:00003232
#018380:32320000
#0183b0:00003222
#018331:00001222
#019361:12320000
#019331:00003232
#020361:32320000
#020331:00003222
#0203b0:00001222
#021360:12320000
#021340:00003232
#022320:22
#022381:12
#0223b1:00220000
#022360:00120000
#022330:00003222
#0223b1:00001222
#0243a1:14
#024391:003400000000000000000000000000000000000000000000
#024381:003400000000000000000000
#024371:0034000000000000
#024361:000000003434343434343434240000000000000000000000
#024320:1424
#0263b0:0013
#026380:0000000000530000
#0263a0:00000024
#026361:0013
#026331:0000000000530000
#026351:00000024
#028321:00001324
#028351:0000000000530000
#028370:00001324
#0283a0:0000000000530000
#030370:13333300
#0303b0:0033003300002300
#030321:0013
#030361:00000023
#031371:00001323
#031320:0000000000132300
#032360:00001424
#032321:0000000000142400
#033321:0000000013230000
#033351:0000000000001323
#0343b1:0000000013230000
#034381:0000000000001323
#035321:13230000
#035351:0033000000000000
#0353b1:00001323
#035381:0000000000330000
#0363a1:140054000000005400540000000000000000000000000000000000000000000000000000000000000000000000000000000000000000000000000000000000000000000000000000000000000000000000000000000000000000000000000000
#036381:000000560000560000005600260000000000000000000000000000000000000000000000000000000000000000000000000000000000000000000000000000000000000000000000000000000000000000000000000000000000000000000000
#036320:000000000000000000000000160056540000545600565400240000000000000000000000000000000000000000000000000000000000000000000000000000000000000000000000000000000000000000000000000000000000000000000000
#036391:000000000000000000000000000000000000000000000000140000000000000000000000000054000000005400540000000000000000000000000000000000000000000000000000000000000000000000000000000000000000000000000000
#036371:000000000000000000000000000000000000000000000000000000000000000000000000000000560000560000005600260000000000000000000000000000000000000000000000000000000000000000000000000000000000000000000000
#036330:000000000000000000000000000000000000000000000000000000000000000000000000160056540000545600565400240000000000000000000000000000000000000000000000000000000000000000000000000000000000000000000000
#036320:0000000000000014
#037320:24
#037361:1424000000000000
#0373a1:0000001424000000
#037360:0000000014240000
#037320:0000000000000014
#038320:24
#039380:000016335300260000000000000000000000000000000000
#039321:001600260000000000000000
#039351:000000335300000000000000000000000000000000000000
#039381:0000000000130033
#0403b1:0023000000000000
#039350:0000000000000013
#040320:0023000000000000
#0403a0:0000001400240000
#040321:0000000000140024
#0403a0:0000000000000014
#0413a0:24
#043350:130000000000000000000000000000000033000000000000
#043330:00000025
#043381:000000000000000000000000130000000033250000000000
#009950:00130000
#009940:00000000000000000000000000000000002300000000000000000000000000000000000000000000000000000000000000000000000000000000000000000000
#009950:00000013
#009940:00000000000000000000000000000000000000000000000000000000000000000000000000000000000000000000000000230000000000000000000000000000
#0099b1:00000013
#0099a1:00000000000000000000000000000000000000000000000000000000000000000000000000000000000000000000000000230000000000000000000000000000
#010981:00130000
#010991:00000000000000000000000000000000002300000000000000000000000000000000000000000000000000000000000000000000000000000000000000000000
#010921:00000013
#010931:00000000000000000000000000000000000000000000000000000000000000000000000000000000000000000000000000230000000000000000000000000000
#010980:00000013
#010990:00000000000000000000000000000000000000000000000000000000000000000000000000000000000000000000000000230000000000000000000000000000
#011980:00130000
#011990:00000000000000000000000000000000002300000000000000000000000000000000000000000000000000000000000000000000000000000000000000000000
#011970:00000013
#011980:00000000000000000000000000000000000000000000000000000000000000000000000000000000000000000000000000230000000000000000000000000000
#012930:00130000
#012940:00000000000000000000000000000000002300000000000000000000000000000000000000000000000000000000000000000000000000000000000000000000
#012920:00000013
#012930:00000000000000000000000000000000000000000000000000000000000000000000000000000000000000000000000000230000000000000000000000000000
#0449a0:13
#0449b0:002300000000000000000000000000000000000000000000000000000000000000000000000000000000000000000000000000000000000000000000000000000000000000000000000000000000000000000000000000000000000000000000
#044930:00130000
#044920:000000000000000000000000000000000000000000000000002300000000000000000000000000000000000000000000000000000000000000000000000000000000000000000000000000000000000000000000000000000000000000000000
#0449a0:0013
#0449b0:000000000000000000000000000000000000000000000000000000000000000000000000000000000000000000000000002300000000000000000000000000000000000000000000000000000000000000000000000000000000000000000000
