This file was generated by Ched 2.7.0.0.
#TITLE ""
#ARTIST ""
#DESIGNER ""
#DIFFICULTY 0
#PLAYLEVEL
#SONGID ""
#WAVE ""
#WAVEOFFSET 0
#JACKET ""
#REQUEST "ticks_per_beat 480"
#00002: 4
#BPM01: 100
#00008: 01
#TIL00: ""
#VOLUME: ""
#HISPEED 00
#MEASUREHS 00
#00012:16161600
#00014:0012001200120000
#0051b:13
#00518:0013001300002300
#00512:0013
#00515:0000230000130013
#00510:41
#0061b:13
#00618:0013001300000000
#00612:0013
#00615:00230000
#00718:0013000000000000
#00714:0000001300000000
#0071a:13
#00716:00230000
#00818:0014000000000000
#00814:0000001400000000
#00812:0024
#00816:00240000
#0081a:24
#01318:13000053
#01312:00230000
#01310:41
#01319:00000000000000000000000000000000000000000000000000000000000000000000000000000000000000000000000000530000000000000000000000000000
#01415:13000053
#0141b:00230000
#01414:00000000000000000000000000000000000000000000000000000000000000000000000000000000000000000000000000530000000000000000000000000000
#02412:00000014
#0241a:00000014
#02515:0013001300000000
#0251b:23130000
#02512:0000000000130013
#02518:00002313
#0251f:21
#02510:0041
#02615:0013001300000000
#0261b:23002363
#02618:00230000
#0261a:00000000000000000000000000000000000000000000000000000000000000000000000000000000000000000000000000630000000000000000000000000000
#02718:0013001300000000
#02712:23130000
#0271b:0000000000130013
#02715:00002313
#02818:0013001300000000
#02812:23002363
#02815:00230000
#02813:00000000000000000000000000000000000000000000000000000000000000000000000000000000000000000000000000630000000000000000000000000000
#02918:0013001300001300
#02915:0000130000130013
#0291b:23
#02912:0023
#03018:0013000000000000
#03015:0000001300000000
#03012:00230000
#0301b:2323
#03115:0013001300000000
#03118:00230000
#03112:2323
#03217:0014001400000000
#0321a:2424
#03214:00240000
#03312:13
#03315:0013000013000000
#0331b:0000001300000000
#03318:00230000
#0341b:13
#03418:0013000013000000
#03412:0000001300000000
#03415:00230000
#03512:13
#03515:0013001300002300
#0351b:0013
#03518:0000230000130013
#0361a:0000000000140000
#03616:00000014
#03612:0000000000000014
#03618:00260000
#03610:41
#0371a:0000001400000000
#03712:0000000000000014
#03818:26000016
#03816:00260000
#03814:0026
#03812:00000026
#03915:0013000000000000
#03918:1613000000000000
#03912:26002363
#0391b:00000053
#0391a:00000000000000000000000000000000000000000000000000000000000000000000000000000000000000000000000000530000000000000000000000000000
#03913:00000000000000000000000000000000000000000000000000000000000000000000000000000000000000000000000000630000000000000000000000000000
#04018:00001313
#04013:23630000
#04015:00002323
#0401a:00530000
#04019:00000000000000000000000000000000005300000000000000000000000000000000000000000000000000000000000000000000000000000000000000000000
#04014:00000000000000000000000000000000006300000000000000000000000000000000000000000000000000000000000000000000000000000000000000000000
#04119:15
#04115:0000001300005300
#04112:25
#0411b:00230000
#04114:00000000000000000000000000000000000000000000000000000000000000000000000000000000000000000000000000530000000000000000000000000000
#04218:1300001300005300
#04212:00230000
#04219:00000000000000000000000000000000000000000000000000000000000000000000000000000000000000000000000000530000000000000000000000000000
#04315:1300001300002300
#04418:13
#04419:00530000000000000000000000000000130000000000000000000000000000000000000000000000000000000000000022000000000000000000000000000000
#0441a:00000000000000000000000000000000005300000000000000000000000000001300000000000000000000000000000000000000000000000000000000000000
#04415:2300000000000022
#04414:00630000000000000000000000000000230000000000000000000000000000000000000000000000000000000000000000000000000000000000000000000000
#04413:00000000000000000000000000000000006300000000000000000000000000002300000000000000000000000000000000000000000000000000000000000000
#0441b:00000000000000000000000000000000000000000000000000000000000000000053000000000000000000000000000000000000000000000000000000000000
#04412:00000000000000000000000000000000000000000000000000000000000000000063000000000000000000000000000000000000000000000000000000000000
#00118:13000053
#0011b:00130000
#00215:13000053
#00212:00130000
#00318:13000053
#0031b:00130000
#00412:13
#00413:0013
#00415:00130000
#00917:00130053
#0091a:1313
#0091a:1313
#00910:41
#00918:00000000000000000000000000000000000000000000000000000000000000000000000000000000000000000000000000530000000000000000000000000000
#01015:00130053
#01012:1313
#01012:1313
#01014:00000000000000000000000000000000000000000000000000000000000000000000000000000000000000000000000000530000000000000000000000000000
#01713:00130013
#01813:00130000
#01810:0041
#01818:00000054
#01818:00000054
#0181a:00000000000000000000000000000000000000000000000000000000000000000000000000000000000000000000000000540000000000000000000000000000
#0181a:00000000000000000000000000000000000000000000000000000000000000000000000000000000000000000000000000540000000000000000000000000000
#02112:00131300
#02118:00000054
#0211a:00000000000000000000000000000000000000000000000000000000000000000000000000000000000000000000000000540000000000000000000000000000
#0191a:00130013
#0191f:11
#0201a:00130000
#02014:00000054
#02014:00000054
#02012:00000000000000000000000000000000000000000000000000000000000000000000000000000000000000000000000000540000000000000000000000000000
#02012:00000000000000000000000000000000000000000000000000000000000000000000000000000000000000000000000000540000000000000000000000000000
#0221b:00131300
#02214:00000054
#02212:00000000000000000000000000000000000000000000000000000000000000000000000000000000000000000000000000540000000000000000000000000000
#01518:1313
#01512:00230000
#0151b:00000053
#0151a:00000000000000000000000000000000000000000000000000000000000000000000000000000000000000000000000000530000000000000000000000000000
#01615:1313
#0161b:00230000
#01612:00000053
#01613:00000000000000000000000000000000000000000000000000000000000000000000000000000000000000000000000000530000000000000000000000000000
#02318:26
#02312:0024
#01119:00000000000000000000000000000000540000000000000000000000000000000000000000000000000000000000000000530000000000000000000000000000
#0111b:00000000000000000000000000000000005300000000000000000000000000000000000000000000000000000000000000000000000000000000000000000000
#01117:00000054
#01214:00000000000000000000000000000000540000000000000000000000000000000000000000000000000000000000000000530000000000000000000000000000
#01216:00000000000000000000000000000000005300000000000000000000000000000000000000000000000000000000000000000000000000000000000000000000
#01212:00000054
#00052:66666616
#00054:0022002200220000
#00655:00000013
#00652:0053
#00752:00000013
#00852:00000014
#02455:14
#02459:14
#02352:0054
#02358:16
#03058:00000013
#0305b:0053
#03152:00000013
#0325a:00000014
#03355:0063
#03352:00000013
#03752:0000000000160000
#03758:0016000000000000
#03858:16000016
#03856:00160000
#03854:0016
#03852:00000016
#03952:56360000
#03955:0023000000000000
#03958:5623460000000000
#04159:15
#04152:15
#04355:00000013
#00158:53
#0015b:00230000
#00255:63
#00252:00230000
#00358:53
#0035b:00230000
#00452:53
#00455:00530014
#00453:0053
#00957:00230000
#0095a:6363
#0095a:6363
#01055:00230000
#01052:5353
#01052:5353
#01558:0063
#01655:0053
#03458:0053
#0345b:00000013
#000320:16363626
#000340:0052005200520000
#001380:13003323
#0013b0:00530000
#002350:13003323
#002320:00530000
#003380:13003323
#0033b0:00530000
#004320:13
#004350:00330024
#004330:0033
#006320:0013
#006350:00000023
#007320:00001323
#008320:00001424
#0093a0:1333
#009370:00530023
#010320:1333
#010350:00530023
#011390:14240000
#011370:00001424
#012340:14240000
#012320:00001424
#013380:00001323
#014350:00001323
#015380:0013
#0153b0:00000023
#016350:0013
#016320:00000023
#017380:13
#018380:00000024
#019350:13
#020340:00000024
#021380:13000024
#022350:13
#022340:00000024
#023320:0014
#024350:24
#023391:0014
#024391:24
#0263b1:00001323
#028321:00001323
#0303b1:0013
#030381:00000023
#031321:00001323
#0323a1:00001424
#033351:0013
#033321:00000023
#034381:0013
#0343b1:00000023
#036321:160000000000000000000000000000000000000000000000000000000056580000585600000056540000545600000000260000000000000000000000000000000000000000000000000000000000000000000000000000000000000000000000
#036380:000000000000000000000000000000000000000000000000160000000056000000005600000056000000005600000000260000000000000000000000000000000000000000000000000000000000000000000000000000000000000000000000
#0363a0:0000000000000000000054540000000000000000000000000000000000000000
#036360:0000000000000000000000000058580000000000000000000000000000000000
#037380:1626000000000000
#037320:0000000016260000
#039320:16260000
#039350:0053000000000000
#039381:1653260000000000
#039321:00001323
#0393b0:00001323
#040330:13230000
#0403a1:13230000
#041351:00001323
#042381:00001323
#043351:00001323
#009970:00000013
#009980:00000000000000000000000000000000000000000000000000000000000000000000000000000000000000000000000000230000000000000000000000000000
#010950:00000013
#010940:00000000000000000000000000000000000000000000000000000000000000000000000000000000000000000000000000230000000000000000000000000000
#011990:00140000
#0119b0:00000000000000000000000000000000002300000000000000000000000000000000000000000000000000000000000000000000000000000000000000000000
#011970:00000014
#011990:00000000000000000000000000000000000000000000000000000000000000000000000000000000000000000000000000230000000000000000000000000000
#012940:00140000
#012960:00000000000000000000000000000000002300000000000000000000000000000000000000000000000000000000000000000000000000000000000000000000
#012920:00000014
#012940:00000000000000000000000000000000000000000000000000000000000000000000000000000000000000000000000000230000000000000000000000000000
#013980:00000013
#013990:00000000000000000000000000000000000000000000000000000000000000000000000000000000000000000000000000230000000000000000000000000000
#014950:00000013
#014940:00000000000000000000000000000000000000000000000000000000000000000000000000000000000000000000000000230000000000000000000000000000
#0159b0:00000013
#0159a0:00000000000000000000000000000000000000000000000000000000000000000000000000000000000000000000000000230000000000000000000000000000
#016920:00000013
#016930:00000000000000000000000000000000000000000000000000000000000000000000000000000000000000000000000000230000000000000000000000000000
#018980:00000014
#0189a0:00000000000000000000000000000000000000000000000000000000000000000000000000000000000000000000000000240000000000000000000000000000
#018981:00000014
#0189a1:00000000000000000000000000000000000000000000000000000000000000000000000000000000000000000000000000240000000000000000000000000000
#020941:00000014
#020921:00000000000000000000000000000000000000000000000000000000000000000000000000000000000000000000000000240000000000000000000000000000
#020940:00000014
#020920:00000000000000000000000000000000000000000000000000000000000000000000000000000000000000000000000000240000000000000000000000000000
#021980:00000014
#0219a0:00000000000000000000000000000000000000000000000000000000000000000000000000000000000000000000000000240000000000000000000000000000
#022940:00000014
#022920:00000000000000000000000000000000000000000000000000000000000000000000000000000000000000000000000000240000000000000000000000000000
#0269b0:00000013
#0269a0:00000000000000000000000000000000000000000000000000000000000000000000000000000000000000000000000000230000000000000000000000000000
#028920:00000013
#028930:00000000000000000000000000000000000000000000000000000000000000000000000000000000000000000000000000230000000000000000000000000000
#039920:00000013
#039930:00000000000000000000000000000000000000000000000000000000000000000000000000000000000000000000000000230000000000000000000000000000
#0399b1:00000013
#0399a1:00000000000000000000000000000000000000000000000000000000000000000000000000000000000000000000000000230000000000000000000000000000
#0409a1:00130000
#040991:00000000000000000000000000000000002300000000000000000000000000000000000000000000000000000000000000000000000000000000000000000000
#040930:00130000
#040940:00000000000000000000000000000000002300000000000000000000000000000000000000000000000000000000000000000000000000000000000000000000
#041950:00000013
#041940:00000000000000000000000000000000000000000000000000000000000000000000000000000000000000000000000000230000000000000000000000000000
#042980:00000013
#042990:00000000000000000000000000000000000000000000000000000000000000000000000000000000000000000000000000230000000000000000000000000000
#044950:13
#044940:00230000000000000000000000000000000000000000000000000000000000000000000000000000000000000000000000000000000000000000000000000000
#044981:13
#044991:00230000000000000000000000000000000000000000000000000000000000000000000000000000000000000000000000000000000000000000000000000000
#044991:00130000
#0449a1:00000000000000000000000000000000002300000000000000000000000000000000000000000000000000000000000000000000000000000000000000000000
#044940:00130000
#044930:00000000000000000000000000000000002300000000000000000000000000000000000000000000000000000000000000000000000000000000000000000000
#0449a0:0013
#0449b0:00000000000000000000000000000000000000000000000000000000000000000023000000000000000000000000000000000000000000000000000000000000
#044931:0013
#044921:00000000000000000000000000000000000000000000000000000000000000000023000000000000000000000000000000000000000000000000000000000000
