This file was generated by Ched 2.7.0.0.
#TITLE ""
#ARTIST ""
#DESIGNER ""
#DIFFICULTY 0
#PLAYLEVEL
#SONGID ""
#WAVE ""
#WAVEOFFSET 0
#JACKET ""
#REQUEST "ticks_per_beat 480"
#00002: 4
#BPM01: 128
#00008: 01
#TIL00: ""
#VOLUME: ""
#HISPEED 00
#MEASUREHS 00
#01014:14
#01118:14
#01212:14
#0131a:14
#0141a:14
#01512:14
#01510:41
#01612:14
#02413:14
#02712:0016
#02718:26
#02710:41
#02912:16
#02918:0016
#03118:16
#03112:0016
#03518:2616
#0351f:11
#03612:1616
#03718:1616
#03812:1616
#04118:16
#04312:2414
#0431f:21
#04518:1414
#04714:1414
#0491a:1414
#0091a:24
#02312:26
#05112:26
#04410:41
#00710:41
#02110:41
#03310:41
#02352:66
#02453:24
#0013a0:14
#0023a0:24
#003320:14
#004320:24
#005380:14
#006380:24
#007340:14
#008340:24
#0173a0:14
#018380:24
#019320:14
#020340:24
#021380:14
#0213a0:0034
#0223a0:34
#022380:0024
#023320:16
#024330:34
#025320:26
#028380:1626
#030320:1626
#032380:1626
#033320:16
#033330:0036
#034320:3626
#039380:1626
#040320:1626
#044320:1424
#046380:1424
#048340:1424
#0503a0:1424
