This file was generated by Ched 2.7.0.0.
#TITLE ""
#ARTIST ""
#DESIGNER ""
#DIFFICULTY 0
#PLAYLEVEL
#SONGID ""
#WAVE ""
#WAVEOFFSET 0
#JACKET ""
#REQUEST "ticks_per_beat 480"
#00002: 4
#BPM01: 128
#00008: 01
#TIL00: ""
#VOLUME: ""
#HISPEED 00
#MEASUREHS 00
#0351f:11
#03512:140034
#03514:00140000
#03516:0000000014000014
#0351a:24242424
#00112:16
#00116:00000013
#0011b:00000013
#00118:26
#00312:16000013
#00317:00000013
#00318:26
#00512:16000013
#0051b:00000013
#00518:26
#00712:16
#00718:26
#00710:41
#00818:12
#00816:12
#00912:0000000000000013
#0091a:0000000000000014
#0101a:14000013
#01015:1300000000130000
#01012:0013000000000000
#0101b:0000000000000013
#01017:00130000
#01013:0000001300000000
#01018:0013
#01014:0013
#01019:0000000000130000
#01016:0000000000000013
#0111b:0000000000000013
#01112:0000000000000014
#01212:1400000000000013
#01218:1300000000130000
#0121b:0013000000000000
#01216:00130000
#0121a:0000001300000000
#01215:0013
#01219:0013
#01214:0000000000130000
#01213:00000013
#01217:0000000000000013
#01316:0000001300000000
#0131b:0000001300000000
#01317:0000000000000013
#01312:0000000000000013
#0141b:13
#01416:13
#01414:0000000000000013
#01419:0000000000000013
#0151a:14
#01517:0000141400000000
#01512:0000001400000000
#01515:0000000000130014
#0151b:0000000000000013
#01518:00000013
#01510:41
#01617:0013000000000000
#01616:00000000001300000000000000000000
#01612:00001400000000000000001500000000
#01614:0014
#01619:00000000000000000000001500000000
#01618:0014
#0171b:00130000
#01718:2613
#01715:00000013
#01713:0014
#01712:26
#0191b:13
#0191a:00130000
#01919:0013
#01918:00000013
#01914:00120000
#02016:00000013000000001300000000000000
#0201b:00000013000000001300000000000000
#02017:13000053
#02012:13000013
#0201a:00000000000000000053000000000000
#02019:0000000000530000
#02018:00000000000000000000005300000000
#0211b:13
#02119:00130000
#02114:00000013
#02116:0023
#02110:41
#02217:13
#02218:00000013000000000000000000000000
#02214:00130013
#02219:0000001300000013
#02212:0023
#02312:00130000
#02314:1424
#02318:14002413
#02315:0000000000000013
#0231b:00130000
#02416:0014
#02412:14
#0241a:24
#02617:12
#02512:16
#0271a:0000001414001400
#02715:0000001424000000
#02712:2c
#02710:41
#02812:0000001300000000
#02814:0013
#02816:0000000000130000
#02818:00000013
#0281a:0000000000000013
#02819:0014
#02912:2400001414001400
#02917:1424
#0291a:00000014000000000000000000000000
#03017:0000000000130000
#03015:00000013
#03013:0000000014000013
#0301b:0000001300000000
#0301a:00000000000000530000000000000000
#03019:0053
#0311a:2400001414001400
#03115:1424
#03112:00000014000000000000000000000000
#03212:0000001300000000
#03214:0013
#03216:0000000000130000
#03218:00000013
#0321a:0000000000000013
#03219:0014
#03312:1400001300001200
#03317:2400002300002200
#03310:41
#03415:12000026
#0341a:12
#0361a:14000000000000000000003400000000
#03618:00140000
#03616:0000000014000014
#03612:24242424
#03715:14
#03713:00140000
#03712:00000000000000001300003300000000
#0371b:0000000000000013
#0371a:24
#03718:00240024
#03716:0024
#03817:14
#03819:00140000
#0381b:00000000000000001300003300000000
#03812:2400000000000013
#03814:00240024
#03816:0024
#03915:00140000
#03919:0000000000140000
#03917:0000001400000024
#03913:14
#0391a:00000014
#03912:0000002400000014
#03918:24
#04014:0014000000001600
#0401a:00140000
#04012:0000001400000016
#04018:0016
#04016:0000000000160000
#0411a:0012
#04118:26
#04114:0022
#04316:00000000001300000000000000130000
#0431b:0000231300002313
#04317:00000000000000000013000000000000
#04312:2600000023130000
#0431f:21
#04318:26
#04413:14
#04419:1400001300000013
#04417:00130013
#04416:0013
#04414:0000000000130000
#04412:00230023
#0441b:0023
#04410:41
#04512:16230023
#04518:16
#04517:00000000001300000000000000130000
#04514:0000001300000013
#04516:00000000000000000013000000000000
#04519:0000000000130000
#0451b:0023
#04619:1413
#04613:14
#04616:0000130000000023
#04612:0000001300001300
#0461b:0000230000130013
#04614:0023
#04617:00000023
#04712:26000000001300000000000000130000
#0471b:00000000000000000013000000000000
#04715:0000000024140000
#04717:0000241400002414
#04718:26
#04819:1400000000130000
#04813:14
#04817:00140014
#04814:0000001300000013
#04815:0014
#04812:00240024
#0481a:0024
#04918:16
#04912:1600001400000014
#04919:00000000001300000000000000130000
#04914:00000000000000000013000000000000
#0491a:0000000000140000
#04915:00240024
#04917:0024
#05019:14
#05013:14
#0501b:0000001300000000
#05012:0000240000130014
#05016:0000140000002424
#05014:0014
#0501a:00000014
#05018:0024
#0181c:22
#0181a:00220000
#01818:0022
#01816:00000022
#05112:26
#05118:26
#00952:36
#00958:46
#01157:0013000000000000
#01152:0013000000000000
#01352:0000000000130053
#0135b:0013006300000000
#01356:0000006300000000
#01357:0000000000000053
#01459:0013000000000000
#01454:0013000000000000
#0145b:23
#01456:23
#01752:16
#01758:16
#01753:0014
#01852:0013
#01953:0014
#01954:00220000
#02354:6414
#02358:5414
#02352:00230000
#0235b:00230000
#02558:46
#02552:66
#02852:0014000000000000
#02857:0014000000000000
#02859:0014
#0305a:0014000000000000
#03055:0014000000000000
#03053:0014
#03252:0014000000000000
#03257:0014000000000000
#03259:0014
#03552:00000014
#03556:0064
#0365a:00000014
#03656:0054
#03752:00002315
#03859:00000015
#0385b:0023
#04258:0016
#04252:00000016
#02057:63000013
#02056:00000023000000000000000000000000
#0205b:00000023000000000000000000000000
#02052:63000013
#00158:66
#00152:66
#00156:00000023
#0015b:00000023
#00358:66
#00352:56000023
#00357:00000023
#00558:66
#00552:66000023
#0055b:00000023
#00758:66
#00752:66
#02156:0013
#0215b:13
#02252:0013
#02257:13
#0245a:64
#02456:0024
#02452:14
#02752:1c
#0275a:0014
#03357:6400006300006200
#03352:6400006300006200
#03455:22000016
#0345a:22
#04154:0062
#0415a:0062
#04358:16
#04352:16
#04758:16
#04752:16
#05152:16
#05158:16
#00858:22
#00856:22
#0105b:0000000000000063
#01056:0000000000000063
#01252:0000000000000053
#01257:0000000000000053
#0155a:14
#01557:0000006400000000
#01555:0000000000000054
#0155b:0000000000000013
#01656:00000000002300000000000000000000
#01652:00006400000000000000002500000000
#01654:0064
#01659:00000000000000000000002500000000
#01658:0064
#02657:22
#02957:64
#0295a:00000024000000000000000000000000
#02952:0014
#03155:54
#03152:00000024000000000000000000000000
#0315a:0014
#03957:0000001400000000
#03953:14
#03952:0000000000000014
#04453:14
#04459:14
#04552:16
#04558:16
#04659:14
#04653:14
#04859:14
#04853:14
#04958:16
#04952:16
#05059:14
#05053:14
#001320:16
#001360:00000053
#002320:0026
#001381:16
#0013b1:00000053
#002381:0026
#003321:16000053
#004321:0026
#003380:16
#003370:00000053
#004380:0026
#005320:16000053
#006320:0026
#005381:16
#0053b1:00000053
#006381:0026
#007321:16
#008361:52
#009321:26
#007380:16
#008380:52
#009380:26
#010360:0000000000001333
#011320:0023000000000000
#0103b1:0000000000000013
#011371:0023000000000000
#012371:0000000000001333
#0133b1:0023000000000000
#012320:0000000000000013
#013360:0033003300000000
#013320:0000000000230000
#0133b1:0000001300000000
#013371:0000000000330033
#0143b1:53
#014391:0023000000000000
#013320:0000000000000013
#014360:53
#014340:0023000000000000
#015320:14240000
#015370:0000001400000000
#0153a0:0000000000240000
#015350:0000000000000014
#016320:00003400000000000000005500000000
#016360:00000000005300000000000000000000
#016340:0054
#017320:26
#016381:0014
#016391:00000000000000000000005500000000
#017381:26
#018321:1323
#019341:12520000
#019331:0024
#020371:1300002300000000
#0203b1:00000053000000000000000000000000
#020320:1300002300000000
#020360:00000053000000000000000000000000
#021360:13230000
#021390:00001323
#022340:13000023000000000000000000000000
#022370:00001323
#023340:1424
#023320:00530000
#023381:1424
#0233b1:00530000
#0243a1:14
#024361:0054
#025381:26
#025320:16
#026370:52
#027320:2c
#027350:0000000014000034
#027340:00000000000000000000000000000000000000000000000000000000000000000000000000000000000000000000000000000000000000000034000000000000
#027330:0000000000000000000000000000000000000000000000000000000000340000
#027320:00000000000000000000000000000000000000000000000000000000000000000000000000000000000000000000000000000000000000000000003400000000
#028320:0024000000000000
#0273a1:0000000000000014
#027391:00000000000000000000000000000000000000000000000000000000000000000000000000000000000000000000000000000000000000000034000000000000
#027381:0000000000000000000000000000000000000000000000000000000000340000
#027371:00000000000000000000000000000000000000000000000000000000000000000000000000000000000000000000000000000000000000000000003400000000
#028371:0024000000000000
#029371:1400002400000000
#0293a1:00000054000000000000000000000000
#029371:0000000014000034
#029381:00000000000000000000000000000000000000000000000000000000000000000000000000000000000000000000000000000000000000000034000000000000
#029391:0000000000000000000000000000000000000000000000000000000000340000
#0293a1:00000000000000000000000000000000000000000000000000000000000000000000000000000000000000000000000000000000000000000000003400000000
#0303a1:0024000000000000
#029320:0000000000000014
#029330:00000000000000000000000000000000000000000000000000000000000000000000000000000000000000000000000000000000000000000034000000000000
#029340:0000000000000000000000000000000000000000000000000000000000340000
#029350:00000000000000000000000000000000000000000000000000000000000000000000000000000000000000000000000000000000000000000000003400000000
#030350:0024000000000000
#031350:1400002400000000
#031320:00000054000000000000000000000000
#031350:0000000014000034
#031340:00000000000000000000000000000000000000000000000000000000000000000000000000000000000000000000000000000000000000000034000000000000
#031330:0000000000000000000000000000000000000000000000000000000000340000
#031320:00000000000000000000000000000000000000000000000000000000000000000000000000000000000000000000000000000000000000000000003400000000
#032320:0024000000000000
#0313a1:0000000000000014
#031391:00000000000000000000000000000000000000000000000000000000000000000000000000000000000000000000000000000000000000000034000000000000
#031381:0000000000000000000000000000000000000000000000000000000000340000
#031371:00000000000000000000000000000000000000000000000000000000000000000000000000000000000000000000000000000000000000000000003400000000
#032371:0024000000000000
#033321:14
#033351:00240000
#033370:14
#0333a0:00240000
#033320:0000001300000000
#033350:0000000000230000
#033371:0000001300000000
#0333a1:0000000000230000
#033321:00000012
#034351:52
#034321:0022
#033370:00000012
#0343a0:52
#034370:0022
#035360:0014
#035320:000000000000000034240000
#036360:0014
#0363a0:00000000000000000000003424000000
#037320:00000000000000001300003325000000
#0383b0:00000000000000001300003300000000
#038390:00000025
#039380:14
#0393a0:00240000
#039320:0000001400000000
#039350:00000024
#039370:0000000000000014
#040390:0024000000000000
#041380:16
#0413a0:0032
#042380:00562600
#041341:0012
#042321:00560026
#0209b0:0013
#020970:000000000000000000000000000000000000000000000000000000000000000000000000000000000000000000000000000000000000000000000000000000000000000000000000000000000000000000000000000000000000000000000000000000000000000000000000000000000000000000000000000000000000000000000000000000000000000000000000000000000000000000000000000000000000000000000000000000000000000000000000000000000000000000000000000000000000000000000000000000000000000000000000000000000000000000000000000000000000000000000000000000000000000000000000000000000000000000000000000000000000000000000000000000000000000000000000000000000000000000000000000000000000000000000000000000000000000000000000000000000000000000000000000000000000000000000000000000000000000000000000000000000000000000000000000000000000000000000000000000000000000000000000000000000000000000000000000000000000000000000000000000000000000000000000000000000000000000000000000000000000000000000000000000000000000000000000000000000000000000000000000000000000000000000000000000000000000000000000000000000000000000000000000000000000000000000000000000000000000000000000000000000000000000000000000000000000000000000000000000000000000000000000000000000000000000000000000000000000000000000000000000000000000000000000000000000000000000000000000000000000000000000000000000000000000000000000000000000000000000000000000000000000000000000000000000000000000000000000000000000000000000000000000000000000000000000000000000000000000000000000000000000000000000000000000000000000000000000000000000000000000000000000000000000000000000000000000000000000000000000000000000000000000000000000000000000000000000000000000000000000000000000000000000000000000000000000000000000000000000000000000000000000000000000000000000000000000000000000000000000000000000000000000000000000000000000000000000000000000000000000000000000000000000000000000000000000000000000000000000000000000000000000000000000000000000000000000000000000000000000000000000000000000000000000000000000000000000000000000000000000000000000000000000000000000000000000000000000000000000000000000000000000000000000000000000000000000000000000000000000000000000000000000000000000000000000000000000000000000000000000000000000000000000000000000000000000000000000000000000000000000000000000000000000000000000000000000000000000000000000000000000000000000000000000000000000000000000000000000000000000000000000000000000000000000000000000000000000000000000000000000000000000000000000000000000000000000000000000000000000000000000000000000000000000000000000000000000000000000000000000000000000000000000000000000000000000000000000000000000000000000000000000000000000000000000000000000000000000000000000000000000000000000000000000000000000000000000000000000000000000000000000000000000000000000000000000000000000000000000000000000000000000000000000000000000000000000000000000000000000000000000000000000000000000000000000000000000000000000000000053230000000000000000000000000000000000000000000000000000000000000000000000000000000000000000000000000000000000000000000000000000000000000000000000000000000000000000000000000000000000000000000000000000000000000000000000000000000000000000000000000000000000000000000000000000000000000000000000000000000000000000000000000000000000000000000000000000000000000000000000000000000000000000000000000000000000000000000000000000000000000000000000000000000000000000000000000000000000000000000000000000000000000000000000000000000000000000000000000000000000000000000000000000000000000000000000000000000000000000000000000000000000000000000000000000000000000000000000000000000000000000000000000000000000000000000000000000000000000000000000000000000000000000000000000000000000000000000000000000000000000000000000000000000000000000000000000000000000000000000000000000000000000000000000000000000000000000000000000000000000000000000000000000000000000000000000000000000000000000000000
#0309b0:0000001300000000
#030990:0023
