This file was generated by Ched 2.7.0.0.
#TITLE ""
#ARTIST ""
#DESIGNER ""
#DIFFICULTY 0
#PLAYLEVEL
#SONGID ""
#WAVE ""
#WAVEOFFSET 0
#JACKET ""
#REQUEST "ticks_per_beat 480"
#00002: 4
#BPM01: 128
#00008: 01
#TIL00: ""
#VOLUME: ""
#HISPEED 00
#MEASUREHS 00
#0011a:14
#00312:14
#0051a:14
#00814:0014
#00818:0014
#01012:16
#01013:0014
#01218:16
#01219:0014
#01412:16
#01518:14
#0151a:0014
#01510:41
#01618:14
#0161a:0014
#01712:0014
#01818:14
#01912:16
#0191a:0014
#02014:14
#0211a:14
#02118:0014
#02110:41
#02216:14
#02214:0014
#00712:14
#0071a:14
#00710:41
#02718:0000000000000016
#02713:00160000
#02712:26
#02710:41
#02912:0000000000000016
#02917:00160000
#02918:26
#03118:0000000000000016
#03113:00160000
#03112:26
#03413:00000014
#03418:0036000000000000
#03514:00140014
#0351a:2414
#0351f:11
#03618:1414
#03612:00140014
#0371a:14
#03714:00140000
#03718:0014
#03712:00000014
#0381a:14
#03814:00140000
#03818:0014
#03812:00000014
#03918:0000001400000000
#0391a:2400000000000014
#04018:0000001400000000
#04318:00140000
#04314:0014
#0431a:00000014
#04312:24
#0431f:21
#04414:14
#04418:00140000
#04410:41
#04514:00140000
#04518:0014
#04512:00000014
#0451a:24
#04618:14
#04614:00140000
#0471a:00140000
#04712:0014
#04718:00000014
#04714:24
#04812:14
#0481a:00140000
#04912:00140000
#0491a:0014
#04914:00000014
#04918:24
#0501a:14
#05012:00140000
#05018:0000000024003434
#04214:0014
#04218:00000024
#02419:24
#03318:0000003600003600
#03310:41
#0015a:64
#00352:54
#0055a:54
#00952:16
#00958:16
#00854:0024
#00858:0024
#01052:56
#01053:0024
#01258:66
#01259:0024
#01558:54
#0155a:0024
#01758:16
#01658:24
#0165a:0024
#01858:54
#01952:16
#02054:64
#00752:64
#0075a:54
#02352:0014
#02558:16
#02459:64
#02752:6616
#02753:00260000
#02852:0016
#03058:0016
#03252:0016
#02957:00260000
#02958:5616
#03153:00260000
#03152:6616
#03459:0014
#03453:00000014
#04158:16
#0395a:6400000000000064
#03958:0000006400000000
#04058:0000006400000000
#04254:0014
#04258:00000014
#05156:18
#05058:0024
#0013a0:14
#002380:0024
#003320:14
#004340:0024
#0053a0:14
#006380:0024
#007320:14
#008340:0054
#009320:26
#0073a1:14
#008381:0054
#009381:26
#010321:16
#010331:0034
#011321:26
#012381:16
#012391:0034
#013381:26
#015381:14
#0153a1:0054
#016381:34
#0163a1:0054
#017381:26
#018381:14
#0183a1:0024
#020341:14
#020321:0024
#023321:1424
#024391:14
#025381:26
#027321:1626
#027331:00560000
#028321:0016000026000000
#029381:1626
#029371:00560000
#030381:0016000026000000
#031321:1626
#031331:00560000
#032321:0016000026000000
#033381:1600003600003600
#034381:0036000000000000
#034391:0024
#0393a1:1400000000000034
#039381:0000003400000000
#040381:0000003400000000
#041381:26
#044321:00001424
#0463a1:00001424
#048341:00001424
#050381:0000000014003434
#051361:28
