This file was generated by Ched 2.7.0.0.
#TITLE ""
#ARTIST ""
#DESIGNER ""
#DIFFICULTY 0
#PLAYLEVEL
#SONGID ""
#WAVE ""
#WAVEOFFSET 0
#JACKET ""
#REQUEST "ticks_per_beat 480"
#00002: 4
#BPM01: 146
#00008: 01
#TIL00: "72'2:1, 71'1919:10000"
#VOLUME: ""
#HISPEED 00
#MEASUREHS 00
#00718:14
#00710:41
#00818:14
#0121a:14
#01312:14
#01412:14
#02318:2616
#02310:41
#04514:14
#04518:0014
#0631a:14
#06414:14
#06612:14
#06518:14
#06918:0014
#06914:14
#00914:14
#01014:14
#0111a:14
#02412:1616
#02518:1616
#02612:1616
#02718:16
#02712:0016
#02818:16
#02812:0016
#02918:16
#02912:0016
#03112:2616
#03110:41
#03218:1616
#03312:1616
#03418:1616
#03512:16
#03518:0016
#03612:16
#03618:0016
#03712:16
#03718:0016
#04014:14
#03918:14
#03910:41
#04212:14
#0411a:14
#05718:16
#05712:0016
#05612:1616
#05610:41
#05518:2616
#0551f:21
#06112:16
#06118:0016
#06018:1616
#05912:2616
#0471f:11
#00218:00340000
#00119:0034
#00514:00340000
#00413:0034
#01510:41
#0003a0:00000014
#001390:0034
#002380:00340000
#003380:24
#003320:00000014
#004330:0034
#005340:00340000
#006340:24
#015380:14
#016380:24
#017340:14
#018340:24
#0193a0:14
#0203a0:24
#021320:14
#022320:24
#030380:1626
#038320:1626
#0433a0:14
#0443a0:24
#046320:1424
#0473a0:14
#048380:34
#0493a0:34
#050380:24
#051320:14
#051330:0034
#052340:34
#052330:0034
#053320:34
#053330:0034
#054340:24
#058380:1626
#062320:1626
#0673a0:14
#0683a0:24
#070320:14
#071320:24
#0729d0:112100000000000000000000000000000000000000000000000000000000000000000000000000000000000000000000000000000000000000000000000000000000000000000000000000000000000000000000000000000000000000000000000000000000000000000000000000000000000000000000000000000000000000000000000000000000000000000000000000000000000000000000000000000000000000000000000000000000000000000000000000000000000000000000000000000000000000000000000000000000000000000000000000000000000000000000000000000000000000000000000000000000000000000000000000000000000000000000000000000000000000000000000000000000000000000000000000000000000000000000000000000000000000000000000000000000000000000000000000000000000000000000000000000000000000000000000000000000000000000000000000000000000000000000000000000000000000000000000000000000000000000000000000000000000000000000000000000000000000000000000000000000000000000000000000000000000000000000000000000000000000000000000000000000000000000000000000000000000000000000000000000000000000000000000000000000000000000000000000000000000000000000000000000000000000000000000000000000000000000000000000000000000000000000000000000000000000000000000000000000000000000000000000000000000000000000000000000000000000000000000000000000000000000000000000000000000000000000000000000000000000000000000000000000000000000000000000000000000000000000000000000000000000000000000000000000000000000000000000000000000000000000000000000000000000000000000000000000000000000000000000000000000000000000000000000000000000000000000000000000000000000000000000000000000000000000000000000000000000000000000000000000000000000000000000000000000000000000000000000000000000000000000000000000000000000000000000000000000000000000000000000000000000000000000000000000000000000000000000000000000000000000000000000000000000000000000000000000000000000000000000000000000000000000000000000000000000000000000000000000000000000000000000000000000000000000000000000000000000000000000000000000000000000000000000000000000000000000000000000000000000000000000000000000000000000000000000000000000000000000000000000000000000000000000000000000000000000000000000000000000000000000000000000000000000000000000000000000000000000000000000000000000000000000000000000000000000000000000000000000000000000000000000000000000000000000000000000000000000000000000000000000000000000000000000000000000000000000000000000000000000000000000000000000000000000000000000000000000000000000000000000000000000000000000000000000000000000000000000000000000000000000000000000000000000000000000000000000000000000000000000000000000000000000000000000000000000000000000000000000000000000000000000000000000000000000000000000000000000000000000000000000000000000000000000000000000000000000000000000000000000000000000000000000000000000000000000000000000000000000000000000000000000000000000000000000000000000000000000000000000000000000000000000000000000000000000000000000000000000000000000000000000000000000000000000000000000000000000000000000000000000000000000000000000000000000000000000000000000000000000000000000000000000000000000000000000000000000000000000000000000000000000000000000000000000000000000000000000000000000000000000000000000000000000000000000000000000000000000000000000000000000000000000000000000000000000000000000000000000000000000000000000000000000000000000000000000000000000000000000000000000000000000000000000000000000000000000000000000000000000000000000000000000000000000000000000000000000000000000000000000000000000000000000000000000000000000000000000000000000000000000000000000000000000000000000000000000000000000000000000000000000000000000000000000000000000000000000000000000000000000000000000000000000000000000000000000000000000000000000000000000000000000000000000000000000000000000000000000000000000000000000000000000000000000000000000000000000000000000000000000000000000000000000000000000000000000000000000000000000
