This file was generated by Ched 2.7.0.0.
#TITLE ""
#ARTIST ""
#DESIGNER ""
#DIFFICULTY 0
#PLAYLEVEL
#SONGID ""
#WAVE ""
#WAVEOFFSET 0
#JACKET ""
#REQUEST "ticks_per_beat 480"
#00002: 4
#BPM01: 146
#00008: 01
#TIL00: "71'1919:10000, 72'2:1"
#VOLUME: ""
#HISPEED 00
#MEASUREHS 00
#00712:0000001300000000
#00715:0000000013000013
#00718:0000000000130000
#0071b:00000013
#00719:24
#00713:24
#00710:41
#00818:13130000
#00812:0013000000000000
#00815:0000001300001300
#00918:13001313
#0091b:0000001300000013
#00915:0000000000130000
#00912:13
#0101b:0013
#01015:0000000000130013
#01018:00000013
#01016:13
#01112:0013
#01115:0000000000130000
#01118:00000013
#0111b:1300000000000013
#01215:1300001300001300
#01218:0013000013000000
#01212:00130000
#0121b:0000000000000013
#01318:0000130013000013
#01312:0000001300130000
#01315:13000013
#01416:0000000014000014
#0141b:1300000000130000
#01419:00000013
#01417:00130000
#01412:13
#01519:13
#0151b:0013001300000000
#01516:0000141400140014
#01514:00000013
#01510:41
#01614:13
#01612:0013001300000000
#01616:0000141400140000
#0161b:00000013
#01619:0000000000000013
#01716:1400141400140000
#0171b:1300001300000000
#01712:00000013
#01714:0000000000000013
#01718:0013000000000000
#01816:14000000000000000015001500000000
#0181b:0000132300000000
#01812:1300001300000000
#01815:000000000000000000000000000000000000000000000000000000000000000000000000000000000000000000000000000000000000000000000000000000000000000000000000000000000000000000000000000000000000000000000000000000000000000000000000000000000000000000000000000000000000000000000000000000000000000000000000000000000000000000000000000000000000000000000000000000000000000000000000000000000000000000000000000000000000000000000000000000000000000000000000000000000000000000000000000000000000000000000000130000000000000000000000000000000000000000000000000000000000000000000000000000000000000000000000000000000000000000000000000000000000000000000000000000000000000000000000000000000000000000000000000000000000000000000000000000000000000000000000000000000000000000000000000000000000000000000000000000000000000000000000000000000000000000000000000000000000000000000000000000000000000000000000000000000000000000000000000000000000000000000000000000000000000000000000000000000000000000000000000000000000000000000000000000000000000000000000000000000000000000000000000000000000000000000000000000000000000000000000000000000000000000000000000000000000000000000000000000000000000000000000000000000000000000000000000000000000000000000000000000000000000000000000000000000000000000000000000000000000000000000000000000000000000000000000000000000000000000000000000000000000000000000000000000000000000000000000000000000000000000000000000000000000000000000000000000000000000000000000000000000000000000000000000000000000000000000000000000000000000000000000000000000000000000000000000000000000000000000000000000000000000000000000000000000000000000000000000000000000000000000000000000000000000000000000000000000000000000000000000000000000000000000000000000000000000000000000000000000000000000000000000000000000000000000000000000000000000000000000000000000000000000000000000000000000000000000000000000000000000000000000000000000000000000000000000000000000000000000000130000000000000000000000000000000000000000000000000000000000000000000000000000000000000000000000000000000000000000000000001400000000000000000000000000000000000000000000000000000000000000000000000000000000000000000000000000000000000000000000001500000000000000000000000000000000000000000000000000000000000000000000000000000000000000000000000000000000000000000000001400000000000000000000000000000000000000000000000000000000000000000000000000000000000000000000000000000000000000000000130000000000000000000000000000000000000000000000000000000000000000000000000000000000000000000000000000000000000000000000001400000000000000000000000000000000000000000000000000000000000000000000000000000000000000000000000000000000000000000000001500000000000000000000000000000000000000000000000000000000000000000000000000000000000000000000000000000000000000000000001400000000000000000000000000000000000000000000000000000000000000000000000000000000000000000000000000000000000000000000000000000000000000000000000000000000000000000000000000000000000000000000000000000000000000000000000000000000000000000000000000000000000000000000000000000000000000000000000000000000000000000000000000000000000000000000000000000000000000000000000000000000000000000000000000000000000000000000000000000000000000000000000000000000000000000000000000000000000000000000000000000000000000000000000000000000000000000000000000000000000000000000000000000000000000000000000000000000000000000000000000000000000000000000000000000000000000000000000000000000000000000000000000000000000000000000000000000000000000000000000000000000000000000000000000000000000000000000000000000000000000000000000000000000000000000000000000000000000000000000000000000000000000000000000000000000000000000000000000000000000000000000000000000000000000000000000000000000000000000000000000000000000000000000000000000000000000000000000000000000000000000000000000000000000000000000000000000000000000000000
#01818:0000000013130000
#01817:0000000000000000000000000000000000140014001400140000000000000000
#01919:0013000000000000
#01916:1400141400140000
#01912:00000013
#01914:0000000000000013
#0191b:1300001300000000
#02016:1400141400000000
#02012:0000001300130000
#0201a:00000013
#02013:00000013
#02014:0013000000000013
#02019:0000000000000013
#0211a:0000000000000013
#02113:0000000000000013
#02118:13
#0211b:0000001300000000
#02115:13
#02112:0000001300000000
#02212:1313130000000000
#0221b:1313130000000000
#0221a:0000001300000000
#02213:0000001300000000
#02219:0013
#02214:0013
#03918:23001300001300000000000000000013
#03915:00130013000000000013000000001300
#0391b:0000000000130000
#03912:00000000000000000000001300000000
#03910:41
#04018:0013000000001313
#04012:00000013000000000000130000000000
#04015:00000000001300000000000000130000
#04112:13
#04118:00130000001300000000001300001300
#04115:00001300000000000000130000000013
#0411b:00000013000000000013000000000000
#04215:00001300001300000000000000000000
#04218:00000013000000000000003300000000
#04219:0000000000330000
#0441b:00000013000000000000000013000000
#04415:0013000000000013
#04417:00000000001400000000000000000000
#04418:00000000000000000000000000000013
#04412:00000000000000250000000000000000
#0451b:0013001300000000
#04515:23
#0461a:24001413
#04616:14
#04613:00000013
#04618:0000000000000013
#04615:00000000000000000000000000000013
#0231b:1300001300131300
#02319:0000000000000013
#02312:2400001400000000
#02318:0013000000000000
#02315:00130000
#02310:41
#02417:13
#02412:0013000013000000
#02415:0000001300000000
#0241b:00001313
#02414:0000000000000013
#02512:13
#02519:0013000000000000
#0251b:0000131300000000
#02517:13
#02516:0000131300000000
#02518:0000000000130013
#02515:00000013
#0261a:14
#02618:0014000000000000
#02616:00140000
#02614:0000001400000000
#02612:00001413
#02619:0000000000000013
#0261b:0013
#02716:13000013
#0271b:1300000000131300
#02714:0013000000000013
#02717:0000131300000000
#02712:0000131300000000
#02818:0013001300000000
#02815:0013
#02812:23000013
#02819:0000000000000013
#0281b:2313
#0291b:13130000
#02912:1313
#02919:00000013
#02914:00000013
#02918:0000000000130000
#02915:0000000000000013
#0301b:13
#03012:0013
#03016:13
#03017:00130000
#03015:0000000000000013
#03018:00000013
#03118:0000130000000013
#03115:0013000000001300
#03112:1300001300130000
#0311a:2400001400000000
#03110:41
#0321b:1313000013000000
#03218:0000001300000000
#03212:13001313
#03219:0000000000000013
#0331b:13
#03314:0013000000000000
#03312:0000131300000000
#03316:13
#03317:0000131300000000
#03315:0000000000130013
#03318:00000013
#0341b:00000013
#03414:0014000000000013
#03412:1413
#03412:0013
#03416:00140000
#03418:0000001400000000
#0341a:0014
#03517:13000013
#03512:1300000000131300
#03519:0013000000000013
#03516:0000131300000000
#0351b:0000131300000000
#03615:0013001300000000
#03618:0013
#0361b:23000013
#03614:0000000000000013
#03612:2313
#03712:13130000
#0371b:1313
#03714:00000013
#03719:00000013
#03715:0000000000130000
#03718:0000000000000013
#03812:13
#0381b:0013
#03817:13
#03816:00130000
#04318:00130013000000000013000000001300
#04315:23001300001300000000000000000013
#04312:0000000000130000
#0431b:00000000000000000000001300000000
#05512:1300001300131300
#05519:0000000000000013
#05515:0013000000000000
#05518:00130000
#0551b:0000001300000000
#05517:00000013
#0551a:24
#0551f:21
#0561b:13001313
#05615:0013000000000013
#05612:1300001313000000
#05610:41
#05714:1300000000000013
#05718:0013000000000000
#05717:0000131300000000
#05719:13
#05712:0000131300000000
#05716:00000013
#0571b:0000000000131300
#05812:13000013
#05818:0014000000000000
#05819:0000140000000013
#05814:0000001400000000
#05815:0014
#0581b:0013
#05817:14
#05813:00140000
#05415:00000013
#05418:0000000000000013
#0541b:13
#05412:13
#0591b:1300001300131300
#05914:0000000000000013
#05918:0013000000000000
#05915:00130000
#05912:2400001300000000
#05916:00000013
#06012:13001313
#06018:0013000000000013
#0601b:1300001313000000
#06013:0000000000000013
#06112:0000001300000014
#06115:00000013
#0611b:0013000013000000
#06114:23130000
#06119:13
#06118:0000000000130000
#0611a:0000000000000014
#0621a:14000014000000000000000000000000
#06212:1400001414000000
#06216:0014
#06315:2313000000130000
#0631b:00130013000000000000001300001300
#06318:00000000001300000013000000000000
#06312:00000000000000000000000000000013
#06415:00001300001300000000000013000000
#06418:00000013000000000000000000130000
#0641b:0000000000130000
#06412:0000000000000013
#06518:13000000001300000000000000000013
#06512:00130000000000000000001300001300
#0651b:0013000000130000
#06515:00000013000000000013000000000000
#06615:00000000001300000000001300000000
#06618:0013000000130000
#06612:00000013000000000013000000000000
#0661a:00000000000000000000000000330000
#06614:00000000000000000000000000000033
#06718:2313000000130000
#06712:00130013000000000000001300001300
#06715:00000000001300000013000000000000
#0671b:00000000000000000000000000000013
#06818:00001300001400000000000000130013
#06814:00000014000000000000000000000000
#06815:0000000000001313
#06819:00000000000000150000000000000000
#06812:00000000000000250000000000000000
#0691b:00130000000000000000000000000000
#06912:2313000000000000
#06918:00000000000000130000000000130000
#06915:00000013
#07012:00131300
#07018:00000000000000000000130000000013
#07015:23000000000000000000001300001300
#0701b:13000013
#07017:00130000
#05114:00130013
#05116:0013
#05219:00130013
#05217:0013
#05316:00140014
#04815:13
#04812:0013
#04718:13
#0471b:0013
#0471f:11
#04918:13
#04915:0013
#07112:23
#00759:14
#00753:14
#01055:0000000000130013
#01058:00000013
#01056:63
#01855:000000000000000000000000000000000000000000000000000000000000000000000000000000000000000000000000000000000000000000000000000000000000000000000000000000000000000000000000000000000000000000000000000000000000000000000000000000000000000000000000000000000000000000000000000000000000000000000000000000000000000000000000000000000000000000000000000000000000000000000000000000000000000000000000000000000000000000000000000000000000000000000000000000000000000000000000000000000000000000000000230000000000000000000000000000000000000000000000000000000000000000000000000000000000000000000000000000000000000000000000000000000000000000000000000000000000000000000000000000000000000000000000000000000000000000000000000000000000000000000000000000000000000000000000000000000000000000000000000000000000000000000000000000000000000000000000000000000000000000000000000000000000000000000000000000000000000000000000000000000000000000000000000000000000000000000000000000000000000000000000000000000000000000000000000000000000000000000000000000000000000000000000000000000000000000000000000000000000000000000000000000000000000000000000000000000000000000000000000000000000000000000000000000000000000000000000000000000000000000000000000000000000000000000000000000000000000000000000000000000000000000000000000000000000000000000000000000000000000000000000000000000000000000000000000000000000000000000000000000000000000000000000000000000000000000000000000000000000000000000000000000000000000000000000000000000000000000000000000000000000000000000000000000000000000000000000000000000000000000000000000000000000000000000000000000000000000000000000000000000000000000000000000000000000000000000000000000000000000000000000000000000000000000000000000000000000000000000000000000000000000000000000000000000000000000000000000000000000000000000000000000000000000000000000000000000000000000000000000000000000000000000000000000000000000000000000000000000000000000000000230000000000000000000000000000000000000000000000000000000000000000000000000000000000000000000000000000000000000000000000005400000000000000000000000000000000000000000000000000000000000000000000000000000000000000000000000000000000000000000000002500000000000000000000000000000000000000000000000000000000000000000000000000000000000000000000000000000000000000000000006400000000000000000000000000000000000000000000000000000000000000000000000000000000000000000000000000000000000000000000230000000000000000000000000000000000000000000000000000000000000000000000000000000000000000000000000000000000000000000000005400000000000000000000000000000000000000000000000000000000000000000000000000000000000000000000000000000000000000000000002500000000000000000000000000000000000000000000000000000000000000000000000000000000000000000000000000000000000000000000006400000000000000000000000000000000000000000000000000000000000000000000000000000000000000000000000000000000000000000000130000000000000000000000000000000000000000000000000000000000000000000000000000000000000000000000000000000000000000000000000000000000000000000000000000000000000000000000000000000000000000000000000000000000000000000000000000000000000000000000000000000000000000000000000000000000000000000000000000000000000000000000000000000000000000000000000000000000000000000000000000000000000000000000000000000000000000000000000000000000000000000000000000000000000000000000000000000000000000000000000000000000000000000000000000000000000000000000000000000000000000000000000000000000000000000000000000000000000000000000000000000000000000000000000000000000000000000000000000000000000000000000000000000000000000000000000000000000000000000000000000000000000000000000000000000000000000000000000000000000000000000000000000000000000000000000000000000000000000000000000000000000000000000000000000000000000000000000000000000000000000000000000000000000000000000000000000000000000000000000
#0185b:0000006300000000
#01852:5300005300000000
#01856:14000000000000000025002500000000
#01858:0000000023231300
#01857:0000000000000000000000000000000000640054006400540000000000000000
#01756:1400006400000000
#0175b:63
#01758:0023000000000000
#01956:0000006400000000
#0195b:0000001300000000
#02259:0053
#02258:00000016
#02254:0063
#02252:00000016
#03052:0013
#0305b:1313
#03056:63
#03057:00530000
#0295b:13630000
#02952:53
#0285b:0063
#02752:0000005300000000
#02757:0000001300000000
#0265b:0063
#02452:0053
#02352:1400005400000000
#0235b:0000001300000000
#02556:0000006300000000
#0255b:0000001300000000
#0385b:0013
#03857:53
#03856:00630000
#03852:1313
#03752:13530000
#0375b:63
#03652:0053
#0355b:0000006300000000
#03556:0000001300000000
#03452:0053
#03452:0053
#0325b:0063
#03357:0000005300000000
#03352:0000001300000000
#04555:13
#0465a:14
#04656:64
#0585b:0063
#0555a:14
#0555b:0000006300000000
#05552:0000001300000000
#05652:0053
#05752:0000005300000000
#05757:0000001300000000
#05952:1400005300000000
#0595b:0000001300000000
#0605b:0063
#06154:13630000
#06152:0000002300000000
#06159:53
#0615b:0023000000000000
#0625a:14000064000000000000000000000000
#06252:5414
#06256:0054
#07055:13
#0705b:63
#07057:00230000
#07152:13
#06852:00000000000000150000000000000000
#06859:00000000000000650000000000000000
#02158:53
#0215b:0000002300000000
#02155:63
#02152:0000002300000000
#01656:0000005400000000
#01652:0000001300000000
#01556:0000006400000000
#0155b:0000001300000000
#0145b:63
#01457:00230000
#00952:53
#01355:63
#01258:0053
#0115b:63
#04452:00000000000000150000000000000000
#02056:0000005400000000
#02052:0000001300000000
#0315a:1400006400000000
#03152:0000001300000000
#05455:0013
#05458:0013
#0545b:63
#05452:53
#04855:63
#04852:0023
#04758:53
#0475b:0023
#04958:53
#04955:0063
#0003a0:00000012
#0013a0:32322200
#001341:00001232
#002341:32220000
#002380:00000000120000003200000032003232
#003380:22
#003321:1200000032322200
#003380:00000012
#004380:00322200
#004341:00001232
#005341:32220000
#0053a0:00000000120000003232320032000000
#0063a0:32
#007390:24
#006341:12
#007331:24
#0083b1:00001323
#009321:13
#009361:0000002300000000
#010361:13
#010321:0023
#0113b1:13
#011381:00230000
#011320:0000132300000000
#011381:0000001323000000
#012381:0013
#0123b1:00000023
#013351:13
#013321:00230000
#0143b1:1323
#014371:00530000
#015361:0000001400000000
#015321:0000000000230000
#016361:0000001400000000
#0163b1:0000000000230000
#0173b1:13230000
#017381:0053000000000000
#017361:0000001400000000
#017321:0000000000230000
#018321:13230000
#018351:0053000000000000
#018321:0000001300000000
#018351:000000000000000000000000000000000000000000000000000000000000000000000000000000000000000000000000000000000000000000000000000000000000000000000000000000000000000000000000000000000000000000000000000000000000000000000000000000000000000000000000000000000000000000000000000000000000000000000000000000000000000000000000000000000000000000000000000000000000000000000000000000000000000000000000000000000000000000000000000000000000000000000000000000000000000000000000000000000000000000000000000000000000000000000000000000000000000000000000000000000000000000000000000000000000000000000000000000000000000000000000000000000000000000000000000000000000000000000000000000000000000000000000000000000000000000000000000000000000000000000000000000000000000000000000000000000000000000000000000000000000000000000000000000000000000000000000000000000000000000000000000000000000000000000000000000000000000000000000000000000000000000000000000000000000000000000000000000000000000000000000000000000000000000000000000000000000000000000000000000000000000000000000000000000000000000000000000000000000000000000000000000000000000000000000000000000000000000000000000000000000000000000000000000000000000000000000000000000000000000000000000000000000000000000000000000000000000000000000000000000000000000000000000000000000000000000000000000000000000000000000000000000000000000000000000000000000000000000000000000000000000000000000000000000000000000000000000000000000000000000000000000000000000000000000000000000000000000000000000000000000000000000000000000000000000000000000000000000000000000000000000000000000000000000000000000000000000000000000000000000000000000000000000000000000000000000000000000000000000000000000000000000000000000000000000000000000000000000000000000000000000000000000000000000000000000000000000000000000000000000000000000000000000000000000000000000000000000000000000000000000000000000000000000000000000000000000000000000000000000000000530000000000000000000000000000000000000000000000000000000000000000000000000000000000000000000000000000000000000000000000005400000000000000000000000000000000000000000000000000000000000000000000000000000000000000000000000000000000000000000000005500000000000000000000000000000000000000000000000000000000000000000000000000000000000000000000000000000000000000000000005400000000000000000000000000000000000000000000000000000000000000000000000000000000000000000000000000000000000000000000330000000000000000000000000000000000000000000000000000000000000000000000000000000000000000000000000000000000000000000000005400000000000000000000000000000000000000000000000000000000000000000000000000000000000000000000000000000000000000000000005500000000000000000000000000000000000000000000000000000000000000000000000000000000000000000000000000000000000000000000005400000000000000000000000000000000000000000000000000000000000000000000000000000000000000000000000000000000000000000000230000000000000000000000000000000000000000000000000000000000000000000000000000000000000000000000000000000000000000000000000000000000000000000000000000000000000000000000000000000000000000000000000000000000000000000000000000000000000000000000000000000000000000000000000000000000000000000000000000000000000000000000000000000000000000000000000000000000000000000000000000000000000000000000000000000000000000000000000000000000000000000000000000000000000000000000000000000000000000000000000000000000000000000000000000000000000000000000000000000000000000000000000000000000000000000000000000000000000000000000000000000000000000000000000000000000000000000000000000000000000000000000000000000000000000000000000000000000000000000000000000000000000000000000000000000000000000000000000000000000000000000000000000000000000000000000000000000000000000000000000000000000000000000000000000000000000000000000000000000000000000000000000000000000000000000000000000000000000000000000
#0183b0:0000001300000000
#018380:0000000053332300
#018370:0000000000000000000000000000000000540054005400540000000000000000
#018360:00000000000000000055005500000000
#019360:0000001400000000
#019320:0000000000230000
#020360:0000001400000000
#0203b0:0000000000230000
#021350:13000023
#021320:0000005300000000
#021381:13000023
#0213b1:0000005300000000
#022391:0013
#022381:00000026
#022340:0013
#022320:00000026
#023320:0000001400000000
#023360:0000000000240000
#023320:000000000000000000000000000000000000000000000000000000000000000000000000000000000000000000000000000000000000000000000000000000000000000000000000000000000000000000000000000000000000000000000000000000000000000000000000000000000000000000000000000000000000000000000000000000000000000000000000000000000000000000000000000000000000000000000000000000000000000000000000000000000000000000000000000000000000000000000000000000000000000000000000000000000000000000000000000000000000000000000000000000000000000000000000000000000000000000000000000000000000000000000000000000000000000000000000000000000000000000000000000000000000000000000000000000000000000000000000000000000000000000000000000000000000000000000000000000000000000000000000000000000000000000000000000000000000000000000000000000000000000000000000000000000000000000000000000000000000000000000000000000000000000000000000000000000000000000000000000000000000000000000000000000000000000000000000000000000000000000000000000000000000000000000000000000000000000000000000000000000000000000000000000000000000000000000000000000000000000000000000000000000000000000000000000000000000000000000000000000000000000000000000000000000000000000000000000000000000000000000000000000000000000000000000000000000000000000000000000000000000000000000000000000000000000000000000000000000000000000000000000000000000000000000000000000000000000000000000000000000000000000000000000000000000000000000000000000000000000000000000000000000000000000000000000000000000000000000000000000000000000000000000000000000000000000000000000000000000000000000000000000000000000000000000000000000000000000000000000000000000000000000000000000000000000000000000000000000000000000000000000000000000000000000000000000000000000000000000000000000000000000000000000000000000000000000000000000000000000000000000000000000000000000000000000000000000000000000000000000000000000000000000000000000000000000000000000000000000000000000000000000000000000000000000000000000000000000000000000000000000000000000000000000000000000000000000000000000000000000000000000000000000000000000000000000000000000000000000000000000000000000000000000000000000000000000000000000000000000000000000000000000000000000000000000000000000000000000000000000000000000000000000000000000000000000000000000000000000000000000000000000000000000000000000000000000000000000000000000000000000000000000000000000000000000000000000000000000000000000000000000000000000000000000000000000000000000000000000000000000000000000000000000000000000000000000000000000000000000000000000000000000000000000000000000000000000000000000000000000000000000000000000000000000000000000000000000000000000000000000000000000000000000000000000000000000000000000000000000000000000000000000000000000000000000000000000000000000000000000000000000000000000000000000000000000000000000000000000000000000000000000000000000000000000000000000000000000000000000000000000190000000000000000000000000000000000000000000000000000000000000000000000000000000000000000000000000000000000000000000000000000000000000000000000000000000000000000000000000000000000000000000000000000000000000000000000000000000000000000000000595700000000000000000000000000000000000000000000000000000000000000000000000000000000000000000000000000000000000000000000000000000000000000000000000000000000000000000000000000000000000000000000000000000000000000000000000000000000000000000000575500000000000000000000000000000000000000000000000000000000000000000000000000000000000000000000000000000000000000000000000000000000000000000000000000000000000000000000000000000000000000000000000000000000000000000000000000000000000000000000555300000000000000000000000000000000000000000000000000000000000000000000000000000000000000000000000000000000000000000000000000000000000000000000000000000000000000000000000000000000000000000000000000000000000000000000000000000000000000000000
#024320:23
#024380:00000013000023000000000000000000
#024320:0013
#024360:00000023
#025360:0000001300000000
#025320:0000000000230000
#0263b0:0013
#026370:00000023
#027320:0000001300000000
#027360:0000000000230000
#028320:00000013000023000000000000000000
#0283b0:0013
#028370:00000023
#029320:13
#029360:00230000
#0293b1:00130000
#029371:0023
#030361:13
#030321:00230000
#030370:00130000
#0303b0:0023
#0313a0:0000001400000000
#031360:0000000000240000
#032350:00000013000023000000000000000000
#0323b0:0013
#032370:00000023
#033370:0000001300000000
#0333b0:0000000000230000
#034320:0013
#034360:00000023
#0353b0:0000001300000000
#035370:0000000000230000
#0363b0:00000013000023000000000000000000
#036320:0013
#036360:00000023
#0373b0:13
#037370:00230000
#037321:00130000
#037361:0023
#038371:13
#0383b1:00230000
#038360:00130000
#038320:0023
#0393b0:00000000000000130023000000000000
#039380:0000000000001323
#040320:1323000000000000
#040380:00000000000000130000000000000000
#0403b0:0000000000230000
#041350:00000000000000130023000000000000
#041320:0000000000001323
#0423b0:1323000000000000
#042320:00000000000000130023000000000000
#0423b1:00000000000000000013000000000000
#042391:0000000000330033
#042381:00000000000000000000003300330000
#042371:00000033
#0423a1:00000000000000000000000000000033
#0433b1:23
#043321:00000000000000130023000000000000
#043351:0000000000001323
#0443b1:1323000000000000
#045321:00000013000023000000000000000000
#045321:0000000014240000
#045380:0000000000142400
#045341:0000000000001424
#0453a0:0000000000000014
#0463a0:24
#046361:14
#046321:0024
#047381:13
#0473b1:0053
#048381:23
#048350:13
#048320:0053
#049350:23
#049381:13
#0493b1:0023
#049350:0013
#050320:23
#0503b1:13230000
#050350:00132300
#050381:00001323
#050320:00000013
#051320:23
#0513b1:13
#0523b1:23
#052320:13
#053320:23
#0533b1:1323
#053320:0013
#054320:33
#054350:0023
#0543b1:13
#054381:0023
#0553b1:0000001300000000
#055371:0000000000230000
#056381:00000013000000000000000000000000
#0563b1:0000002300000000
#056321:0013
#056361:00000023
#057321:0000001300000000
#057361:0000000000230000
#0583b1:0013
#058371:00000023
#059321:0000001300000000
#059361:0000000000230000
#060351:00000013000000000000000000000000
#060321:0000002300000000
#0603b1:0013
#060371:00000023
#061391:13
#0613b1:0053000000000000
#061371:00230000
#061340:00130000
#061320:0000005300000000
#061360:0023
#062320:14
#062360:00000024000000000000000000000000
#0623a1:00000014000000000000000000000000
#062361:0000002400000000
#062361:0014
#0633b1:23
#063351:00000000000000130023000000000000
#063321:0000000000001323
#064381:1323000000000000
#064321:00000000000000130000000000000000
#064351:0000000000230000
#0653b1:00000000000000130023000000000000
#065381:0000000000001323
#066351:1323000000000000
#066381:00000000000000130023000000000000
#0663b1:00000013
#0663a1:00000000000000000000000000330000
#066381:0000000000000023
#066350:0000000000000013
#066340:00000000000000000000000000000033
#067320:23
#067380:00000000000000130023000000000000
#0673b0:0000000000001323
#068350:1323000000000000
#068390:00000000000000150000000000000000
#068380:00000023
#0693b0:00000013000000000000000000000000
#069380:00000000002300000000000000000000
#069321:00000000001300000000000000000000
#069351:00000000000000230000000000000000
#069351:0013
#069321:0000000000230000
#069380:0000000000130000
#0693b0:00000023
#069350:0000000000000013
#070350:23
#0703b1:1323
#070371:00530000
#0729d0:112100000000000000000000000000000000000000000000000000000000000000000000000000000000000000000000000000000000000000000000000000000000000000000000000000000000000000000000000000000000000000000000000000000000000000000000000000000000000000000000000000000000000000000000000000000000000000000000000000000000000000000000000000000000000000000000000000000000000000000000000000000000000000000000000000000000000000000000000000000000000000000000000000000000000000000000000000000000000000000000000000000000000000000000000000000000000000000000000000000000000000000000000000000000000000000000000000000000000000000000000000000000000000000000000000000000000000000000000000000000000000000000000000000000000000000000000000000000000000000000000000000000000000000000000000000000000000000000000000000000000000000000000000000000000000000000000000000000000000000000000000000000000000000000000000000000000000000000000000000000000000000000000000000000000000000000000000000000000000000000000000000000000000000000000000000000000000000000000000000000000000000000000000000000000000000000000000000000000000000000000000000000000000000000000000000000000000000000000000000000000000000000000000000000000000000000000000000000000000000000000000000000000000000000000000000000000000000000000000000000000000000000000000000000000000000000000000000000000000000000000000000000000000000000000000000000000000000000000000000000000000000000000000000000000000000000000000000000000000000000000000000000000000000000000000000000000000000000000000000000000000000000000000000000000000000000000000000000000000000000000000000000000000000000000000000000000000000000000000000000000000000000000000000000000000000000000000000000000000000000000000000000000000000000000000000000000000000000000000000000000000000000000000000000000000000000000000000000000000000000000000000000000000000000000000000000000000000000000000000000000000000000000000000000000000000000000000000000000000000000000000000000000000000000000000000000000000000000000000000000000000000000000000000000000000000000000000000000000000000000000000000000000000000000000000000000000000000000000000000000000000000000000000000000000000000000000000000000000000000000000000000000000000000000000000000000000000000000000000000000000000000000000000000000000000000000000000000000000000000000000000000000000000000000000000000000000000000000000000000000000000000000000000000000000000000000000000000000000000000000000000000000000000000000000000000000000000000000000000000000000000000000000000000000000000000000000000000000000000000000000000000000000000000000000000000000000000000000000000000000000000000000000000000000000000000000000000000000000000000000000000000000000000000000000000000000000000000000000000000000000000000000000000000000000000000000000000000000000000000000000000000000000000000000000000000000000000000000000000000000000000000000000000000000000000000000000000000000000000000000000000000000000000000000000000000000000000000000000000000000000000000000000000000000000000000000000000000000000000000000000000000000000000000000000000000000000000000000000000000000000000000000000000000000000000000000000000000000000000000000000000000000000000000000000000000000000000000000000000000000000000000000000000000000000000000000000000000000000000000000000000000000000000000000000000000000000000000000000000000000000000000000000000000000000000000000000000000000000000000000000000000000000000000000000000000000000000000000000000000000000000000000000000000000000000000000000000000000000000000000000000000000000000000000000000000000000000000000000000000000000000000000000000000000000000000000000000000000000000000000000000000000000000000000000000000000000000000000000000000000000000000000000000000000000000000000000000000000000000000000000000000000000000000000000000000000000000000000000000000000000000000000000000000000000000000000000000000000000000000000
