This file was generated by Ched 2.7.0.0.
#TITLE ""
#ARTIST ""
#DESIGNER ""
#DIFFICULTY 0
#PLAYLEVEL
#SONGID ""
#WAVE ""
#WAVEOFFSET 0
#JACKET ""
#REQUEST "ticks_per_beat 480"
#00002: 4
#BPM01: 146
#00008: 01
#TIL00: "72'2:1, 71'1919:10000"
#VOLUME: ""
#HISPEED 00
#MEASUREHS 00
#00712:0013
#00718:24000013
#00715:0000000000000013
#0071b:0013
#00714:24
#00710:41
#0081b:13
#00815:00130000
#00818:0000001300000000
#00912:0013
#00918:00000013
#00915:0000000000000013
#01012:00000016
#0101b:13
#01115:0013
#01118:00000013
#01212:13000013
#01218:00131300
#01215:0000001300000000
#0121b:13
#01318:00130013
#0131b:0013
#01315:13
#01415:13000013
#01418:0000000000130000
#01518:00000013
#0151b:13130000
#01515:0013001300000000
#01510:41
#01715:00000013
#01718:0000001300000013
#0171b:13
#02215:13131300
#02218:0013001300000000
#04018:00130013
#04015:1300000000130000
#04012:0000000000000013
#0401b:0013
#02315:0013000000000000
#02318:00130000
#02312:0000001300000000
#0231b:23
#02310:41
#0241b:0013
#02418:00130000
#02415:0000001300000000
#02412:00000013
#02812:13
#0281b:13
#02818:0000130013000013
#02815:0000001300001300
#02918:00000013
#02915:0000000000000013
#02916:00130000
#02912:13
#04118:0000130000000013
#04115:00000000000000001300000000000013
#0411b:13
#04112:00000013
#05512:0013000000000000
#05518:0000130000000013
#05515:0000001300000000
#0551b:23
#0551f:21
#05615:13
#05618:0013
#05612:0000001300000000
#0561b:00130000
#05610:41
#05712:13
#05718:00130000
#05715:0013000000001300
#0571b:0000001300000000
#05812:0013000000000000
#05815:0000001300000000
#0581b:1313
#05818:00130000
#02112:13
#0211b:13
#02118:0000000000000013
#00612:13
#0061b:13
#01612:13130000
#01618:0013001300000000
#01615:00000013
#01812:13
#01815:0000001300000000
#0191b:13000013
#01918:00130000
#01915:0013001300000000
#02012:13000013
#02015:00130000
#02018:0013001300000000
#0251b:13130000
#02515:0013001300000000
#02518:00000013
#02615:1313
#02618:00130013
#0261b:1313
#02612:00130000
#02715:13000013
#02718:0013000000000000
#02712:00130000
#0271b:0000001300000000
#03017:00130000
#0301b:13
#03018:0000000000000013
#03015:00000013
#03118:0013000000000000
#03115:00130000
#03112:23
#03119:00000033
#0311a:0000000000000033
#03110:41
#03212:0013
#03215:00130000
#03218:0000001300000000
#0321b:00000013
#03312:13130000
#03318:0013001300000000
#03315:00000013
#03418:1313
#03415:00130013
#03412:1313
#0341b:00130000
#0361b:13
#03612:13
#03615:0000130013000013
#03618:0000001300001300
#03715:00000013
#03718:0000000000000013
#03717:00130000
#0371b:13
#03518:13000013
#03515:0013000000000000
#0351b:00130000
#03512:0000001300000000
#03816:00130000
#03812:13
#05418:00000013
#05415:0000000000000013
#0591b:0013000000000000
#05915:0000130000000013
#05918:0000001300000000
#05912:23
#06018:13
#06015:0013
#0601b:0000001300000000
#06012:00130000
#06215:0013
#06218:0013
#06212:13
#0621b:13
#06214:00000033000000000000000000000000
#06219:00000033000000000000000000000000
#0391b:23000013
#03915:0000130000000013
#03918:00000000000000001300000000000013
#03910:41
#04212:00130000
#04218:1300001300000013
#04215:00001313
#0421b:0000000000130000
#04312:23000013
#04318:0000130000000013
#04315:00000000000000001300000000000013
#04415:00000013
#04418:0000000000000013
#0441b:00000000000000230000000000000000
#06412:0000130000000013
#0641b:1313
#06418:0000000000130000
#06415:00000013
#06315:00000000130000000000000000000013
#06312:00001313
#0631b:0000001300130000
#06318:2300000000000013
#06912:2313
#0691b:1313
#06918:00130013
#06915:0000000000130013
#0701b:13
#07018:0013
#07012:13
#07015:0013
#06612:0013
#06615:0000130000130000
#0661b:0000000000000013
#06618:1300001300001300
#04617:14
#04612:00000014
#0451b:0013
#04518:0000000000130000
#04515:00000013
#04512:2300000000000013
#06114:13
#06119:13
#06113:0013
#0611a:0013
#0651b:1300001300000013
#06512:00130013
#06515:00000000000000001300000000000013
#06518:0000000000130000
#06718:00000000130000000000000000000013
#0671b:00001313
#06712:0000001300130000
#06715:2300000000000013
#06818:00000013
#06815:0000000000000013
#06816:00000000000000240000000000000000
#0471f:11
#0711b:23
#07112:23
#00314:0000000000330000
#01052:00000016
#0105b:63
#02255:0063
#02252:00000019
#02956:00630000
#02952:5313
#02352:0000005300000000
#0585b:0063
#05858:00000013
#05555:0000006300000000
#02152:53
#0215b:63
#0175b:63
#01758:0000005300000000
#01455:63
#00652:53
#0065b:63
#00754:14
#00758:14
#01555:0000006300000000
#01658:0000005300000000
#01852:53000013
#01855:0000006300000000
#01955:0000006300000000
#02058:0000005300000000
#02452:14
#02555:0000006300000000
#0275b:0000006300000000
#03057:00530000
#0305b:6313
#03358:0000005300000000
#0325b:13
#03757:00530000
#0375b:6313
#03552:0000005300000000
#03856:00630000
#03852:5313
#05658:0053
#0565b:00000013
#0575b:0000006300000000
#05958:0000005300000000
#06055:0063
#06052:00000013
#06255:0063
#06252:53000013
#06258:0053
#0625b:63000013
#0395b:13
#04352:13
#0445b:00000000000000130000000000000000
#04552:13
#06358:13
#06755:13
#0705b:63
#07058:0023
#07052:53
#07055:0023
#04657:54
#06154:13
#06159:13
#06153:0013
#0615a:0013
#0715b:43
#07152:33
#05452:0014
#0545a:0014
#06856:00000000000000140000000000000000
#000380:00000013
#001390:33
#0013a0:00330033
#0013b0:0033
#002390:33
#002380:00000000330000003300000033003333
#003380:23
#003351:1333
#003341:0000000000330000
#003321:00000033
#004321:00330000
#004341:0033
#004331:00000033
#005351:33000000000000003333330033000000
#005341:00330000
#006321:33
#007341:24
#0063b0:13
#007380:24
#008320:00001323
#0093b0:13230000
#0103b0:13
#010380:0023
#011380:16260000
#014350:13
#014320:0023
#015350:0000001300000000
#015320:0000000000230000
#016380:0000001300000000
#0163b0:0000000000230000
#0173b0:1300000000230000
#017380:0000333300000000
#018320:1300000000332300
#018350:0000333300000000
#019350:0000001300000000
#019320:0000000000230000
#020380:0000001300000000
#0203b0:0000000000230000
#021320:13
#021350:0023
#0213b1:13
#021381:0023
#022351:0013
#022321:00000029
#023321:000000000000000000000000000000000000000000000000000000000000000000000000000000000000000000000000000000000000000000000000000000000000000000000000000000000000000000000000000000000000000000000000000000000000000000000000000000000000000000000000000000000000000000000000000000000000000000000000000000000000000000000000000000000000000000000000000000000000000000000000000000000000000000000000000000000000000000000000000000000000000000000000000000000000000000000000000000000000000000000000000000000000000000000000000000000000000000000000000000000000000000000000000000000000000000000000000000000000000000000000000000000000000000000000000000000000000000000000000000000000000000000000000000000000000000000000000000000000000000000000000000000000000000000000000000000000000000000000000000000000000000000000000000000000000000000000000000000000000000000000000000000000000000000000000000000000000000000000000000000000000000000000000000000000000000000000000000000000000000000000000000000000000000000000000000000000000000000000000000000000000000000000000000000000000000000000000000000000000000000000000000000000000000000000000000000000000000000000000000000000000000000000000000000000000000000000000000000000000000000000000000000000000000000000000000000000000000000000000000000000000000000000000000000000000000000000000000000000000000000000000000000000000000000000000000000000000000000000000000000000000000000000000000000000000000000000000000000000000000000000130000000000000000000000000000000000000000000000000000000000000000000000000000000000000000000000000000000000000000000000000000000000000000000000000000000000000000000000000000000000000000000000000000000000000000000000000000000000000000000000000000000000000000000000000000000000000000000000000000000000000000000000000000000000000000000000000000000000000000000000000000000000000000000000000000000000000000000000000000000000000000000000000000000000000000000000000000000000000000000000000000000000000000000000000000000000000000000000000000000000000000000000000000000000000000000000000000000000000000000000000000000000000000000000000000000000000000000000000000000000000000000000000000000000000000000000000000000000000000000000000000000000000000000000000000000000000000000000000000000000000000000000000000000000000000000000000000000000000000000000000000000000000000000000000000000000000000000000000000000000000000000000000000000000000000000000000000000000000000000000000000000000000000000000000000000000000000000000000000000000000000000000000000000000000000000000000000000000000000000000000000000000000000000000000000000000000000000000000000000000000000000000000000000000000000000000000000000000000000000000000000000000000000000000000000000000000000000000000000000000000000000000000000000000000000000000000000000000000000000000000000000000000000000000000000000000000000000000000000000000000000000000000000000000000000000000000000000000000000000000000000000000000000000000000000000000000000000000000000000000000000000000000000000000000000000000000000000000000000000000000000000000000000000000000000000000000000000000000000000000000000000000000000000000000000000000000000000000000000000000000000000000000000000000000000000000000000000000000000000000000000000000000000000000000000000000000000000000000000000000000000000000000000000000000000000000000000000000000000000000000000000000000000000000000000000000000000000000000000000000355400000000000000000000000000000000000000000000000000000000000000000000000000000000000000000000000000000000000000000000000000000000000000000000000000000000000000000000000000000000000000000000000000000000000000000000000000000000000000000000000000000000000000000000000000000000000000000000000000000000000000000000000000000000000000000000000000000000000000000000000000000000000000000000000000000000000000000000000000000000000000000000000000000000000000000000000000000000000000000000
#023351:000000000000000000000000000000000000000000000000000000000000000000000000000000000000000000000000000000000000000000000000000000000000000000000000000000000000000000000000000000000000000000000000000000000000000000000000000000000000000000000000000000000000000000000000000000000000000000000000000000000000000000000000000000000000000000000000000000000000000000000000000000000000000000000000000000000000000000000000000000000000000000000000000000000000000000000000000000000000000000000000000000000000000000000000000000000000000000000000000000000000000000000000000000000000000000000000000000000000000000000000000000000000000000000000000000000000000000000000000000000000000000000000000000000000000000000000000000000000000000000000000000000000000000000000000000000000000000000000000000000000000000000000000000000000000000000000000000000000000000000000000000000000000000000000000000000000000000000000000000000000000000000000000000000000000000000000000000000000000000000000000000000000000000000000000000000000000000000000000000000000000000000000000000000000000000000000000000000000000000000000000000000000000000000000000000000000000000000000000000000000000000000000000000000000000000000000000000000000000000000000000000000000000000000000000000000000000000000000000000000000000000000000000000000000000000000000000000000000000000000000000000000000000000000000000000000000000000000000000000000000000000000000000000000000000000000000000000000000000000000000000000000000000000000000000000000000000000000000000000000000000000000000000000000000000000000000000000000000000000000000000000000000000000000000000000000000000000000000000000000000000000000000000000000000000000000000000000000000000000000000000000000000000000000000000000000000000000000000000000000000000000000000000000000000000000000000000000000000000000000000000000000000000000000000000000000000000000000000000000000000000000000000000000000000000000000000000000000000000000000000540000000000000000000000000000000000000000000000000000000000000000000000000000000000000000000000000000000000000000000000000000000000000000000000000000000000000000000000000000000000000000000000000000000000000000000000000000000000000000000000000000000000000000000000000000000000000000000000000000000000000000000000000000000000000000000000000000000000000000000000000000000000000000000000000000000000000000000000000000000000000000000000000000000000000000000000000000000000000000000054000000000000000000000000000000000000000000000000000000000000000000000000000000000000000000000000000000000000000000000000000000000000000000000000000000000000000000000000000000000000000000000000000000000000000000000000000000000000000000000000000000000000000000000000000000000000000000000000000000000000000000000000000000000000000000000000000000000000000000000000000000000000000000000000000000000000000000000000000000000000000000000000000000000000000000000000000000000000000000000000000000000000000000000000000000000000000000000000000000000000000000000000000000000000000000000000000000000000000000000000000000000000000000000000000000000000000000000000000000000000000000000000000000000000000000000000000000000000000000000000000000000000000000000000000000000000000000000000000000000000000000000000000000000000000000000000000000000000000000000000000000000000000000000000000000000000000000000000000000000000000000000000000000000000000000000000000000000000000000000000000000000000000000000000000000000000000000000000000000000000000000000000000000000000000000000000000000000000000000000000000000000000000000000000000000000000000000000000000000000000000000000000000000000000000000000000000000000000000000000000000000000000000000000000000000000000000000000000000000000000000000000000000000000000000000000000000000000000000000000000000000000000000000000000000000000000000000000000000000000000000000000000000000000000000000000000000000000000000000000000
#023341:000000000000000000000000000000000000000000000000000000000000000000000000000000000000000000000000000000000000000000000000000000000000000000000000000000000000000000000000000000000000000000000000000000000000000000000000000000000000000000000000000000000000000000000000000000000000000000000000000000000000000000000000000000000000000000000000000000000000000000000000000000000000000000000000000000000000000000000000000000000000000000000000000000000000000000000000000000000000000000000000000000000000000000000000000000000000000000000000000000000000000000000000000000000000000000000000000000000000000000000000000000000000000000000000000000000000000000000000000000000000000000000000000000000000000000000000000000000000000000000000000000000000000000000000000000000000000000000000000000000000000000000000000000000000000000000000000000000000000000000000000000000000000000000000000000000000000000000000000000000000000000000000000000000000000000000000000000000000000000000000000000000000000000000000000000000000000000000000000000000000000000000000000000000000000000000000000000000000000000000000000000000000000000000000000000000000000000000000000000000000000000000000000000000000000000000000000000000000000000000000000000000000000000000000000000000000000000000000000000000000000000000000000000000000000000000000000000000000000000000000000000000000000000000000000000000000000000000000000000000000000000000000000000000000000000000000000000000000000000000000000000000000000000000000000000000000000000000000000000000000000000000000000000000000000000000000000000000000000000000000000000000000000000000000000000000000000000000000000000000000000000000000000000000000000000000000000000000000000000000000000000000000000000000000000000000000000000000000000000000000000000000000000000000000000000000000000000000000000000000000000000000000000000000000000000000000000000000000000000000000000000000000000000000000000000000000000000000000000000000000000000000000000000000000000000000000000000000000000000000000000000000000000000000000000000000000000000000000000000000000000000000000000000000000000000000000000000000000000000000000000000000000000000000000000000000000000000000000000000000000000000000000000000000000000000000000000000000000000000000000000000000000000000000000000000000000000000000000000000000000000000000000000000000000000000000000000000000000000000000000000000000000000000000000000000000000000000000000000000000000355400000000000000000000000000000000000000000000000000000000000000000000000000000000000000000000000000000000000000000000000000000000000000000000000000000000000000000000000000000000000000000000000000000000000000000000000000000000000000000000000000000000000000000000000000000000000000000000000000000000000000000000000000000000000000000000000000000000000000000000000000000000000000000000000000000000000000000000000000000000000000000000000000000000000000000000000000000000000000000054000000000000000000000000000000000000000000000000000000000000000000000000000000000000000000000000000000000000000000000000000000000000000000000000000000000000000000000000000000000000000000000000000000000000000000000000000000000000000000000000000000000000000000000000000000000000000000000000000000000000000000000000000000000000000000000000000000000000000000000000000000000000000000000000000000000000000000000000000000000000000000000000000000000000000000000000000000000000000000000000000000000000000000000000000000000000000000000000000000000000000000000000000000000000000000000000000000000000000000000000000000000000000000000000000000000000000000000000000000000000000000000000000000000000000000000000000000000000000000000000000000000000000000000000000000000000000000000000000000000000000000000000000000000000000000000000000000000000000000000000000000000000000000000000000000000000000000000000000000000000000000000000000000000000000000000000000000000000000000000000
#023331:000000000000000000000000000000000000000000000000000000000000000000000000000000000000000000000000000000000000000000000000000000000000000000000000000000000000000000000000000000000000000000000000000000000000000000000000000000000000000000000000000000000000000000000000000000000000000000000000000000000000000000000000000000000000000000000000000000000000000000000000000000000000000000000000000000000000000000000000000000000000000000000000000000000000000000000000000000000000000000000000000000000000000000000000000000000000000000000000000000000000000000000000000000000000000000000000000000000000000000000000000000000000000000000000000000000000000000000000000000000000000000000000000000000000000000000000000000000000000000000000000000000000000000000000000000000000000000000000000000000000000000000000000000000000000000000000000000000000000000000000000000000000000000000000000000000000000000000000000000000000000000000000000000000000000000000000000000000000000000000000000000000000000000000000000000000000000000000000000000000000000000000000000000000000000000000000000000000000000000000000000000000000000000000000000000000000000000000000000000000000000000000000000000000000000000000000000000000000000000000000000000000000000000000000000000000000000000000000000000000000000000000000000000000000000000000000000000000000000000000000000000000000000000000000000000000000000000000000000000000000000000000000000000000000000000000000000000000000000000000000000000000000000000000000000000000000000000000000000000000000000000000000000000000000000000000000000000000000000000000000000000000000000000000000000000000000000000000000000000000000000000000000000000000000000000000000000000000000000000000000000000000000000000000000000000000000000000000000000000000000000000000000000000000000000000000000000000000000000000000000000000000000000000000000000000000000000000000000000000000000000000000000000000000000000000000000000000000000000000000000000000000000000000000000000000000000000000000000000000000000000000000000000000000000000000000000000000000000000000000000000000000000000000000000000000000000000000000000000000000000000000000000000000000000000000000000000000000000000000000000000000000000000000000000000000000000000000000000000000000000000000000000000000000000000000000000000000000000000000000000000000000000000000000000000000000000000000000000000000000000000000000000000000000000000000000000000000000000000000000000000000000000000000000000000000000000000000000000000000000000000000000000000000000000000000000000000000000000000000000000000000000000000000000000000000000000000000000000000000000000000000000000000000000000000000000000000000000000000000000000000000000000000000000000000000000000000000000000000000000000000000000000000000000000000000000000000000000000000000000000000000000000000000000000000000000000000000000000000000000000000000000000000000000000000000000000000000000000000000000000355400000000000000000000000000000000000000000000000000000000000000000000000000000000000000000000000000000000000000000000000000000000000000000000000000000000000000000000000000000000000000000000000000000000000000000000000000000000000000000000000000000000000000000000000000000000000000000000000000000000000000000000000000000000000000000000000000000000000000000000000000000000000000000000000000000000000000000000000000000000000000000000000000000000000000000000000000000000000000000054000000000000000000000000000000000000000000000000000000000000000000000000000000000000000000000000000000000000000000000000000000000000000000000000000000000000000000000000000000000000000000000000000000000000000000000000000000000000000000000000000000000000000000000000000000000000000000000000000000000000000000000000000000000000000000000000000000000000000000000000000000000000000000000000000000000000000000000000000000000000000000000000000000000000000000000000000000000000000000000000
#024321:24
#025351:0000001300000000
#025321:0000000000230000
#0273b1:0000001300000000
#027381:0000000000230000
#029321:1323
#029361:00330000
#0303b1:1323
#030371:00330000
#0313b1:0000001300000000
#031371:0000000000330000
#031391:00000033
#0313a1:0000000000000033
#0323b1:23
#033381:0000001300000000
#0333b1:0000000000230000
#035321:0000001300000000
#035351:0000000000230000
#0373b1:1323
#037371:00330000
#038321:1323
#038361:00330000
#044381:13
#0443b1:00000033003300230000000000000000
#046371:14
#0463a1:0024
#0473a1:14
#048361:34
#0493a1:24
#049320:14
#050360:34
#051320:24
#0513a1:14
#051381:00340034
#051361:0034
#0523a1:24
#052320:14
#052340:00340034
#052360:0034
#053320:24
#0533a1:1424
#053371:00340000
#053320:0014
#053350:00000034
#054320:3424
#0543a1:1424
#055351:0000001300000000
#055321:0000000000332300
#056381:0013
#0563b1:00000023
#0573b1:0000001300000000
#057381:0000000000230000
#0583b1:0013
#058381:00000023
#059381:0000001300000000
#0593b1:0000000000332300
#060351:0013
#060321:00000023
#062321:13000023
#062341:00000033000000000000000000000000
#062351:0000003333000000
#0623b0:13000023
#062390:00000033000000000000000000000000
#062380:0000003333000000
#068320:13
#068360:00000034003400240000000000000000
#0703b0:13
#070380:0053
#0713b0:23
#070321:13
#070351:0053
#071321:23
#0729d0:112100000000000000000000000000000000000000000000000000000000000000000000000000000000000000000000000000000000000000000000000000000000000000000000000000000000000000000000000000000000000000000000000000000000000000000000000000000000000000000000000000000000000000000000000000000000000000000000000000000000000000000000000000000000000000000000000000000000000000000000000000000000000000000000000000000000000000000000000000000000000000000000000000000000000000000000000000000000000000000000000000000000000000000000000000000000000000000000000000000000000000000000000000000000000000000000000000000000000000000000000000000000000000000000000000000000000000000000000000000000000000000000000000000000000000000000000000000000000000000000000000000000000000000000000000000000000000000000000000000000000000000000000000000000000000000000000000000000000000000000000000000000000000000000000000000000000000000000000000000000000000000000000000000000000000000000000000000000000000000000000000000000000000000000000000000000000000000000000000000000000000000000000000000000000000000000000000000000000000000000000000000000000000000000000000000000000000000000000000000000000000000000000000000000000000000000000000000000000000000000000000000000000000000000000000000000000000000000000000000000000000000000000000000000000000000000000000000000000000000000000000000000000000000000000000000000000000000000000000000000000000000000000000000000000000000000000000000000000000000000000000000000000000000000000000000000000000000000000000000000000000000000000000000000000000000000000000000000000000000000000000000000000000000000000000000000000000000000000000000000000000000000000000000000000000000000000000000000000000000000000000000000000000000000000000000000000000000000000000000000000000000000000000000000000000000000000000000000000000000000000000000000000000000000000000000000000000000000000000000000000000000000000000000000000000000000000000000000000000000000000000000000000000000000000000000000000000000000000000000000000000000000000000000000000000000000000000000000000000000000000000000000000000000000000000000000000000000000000000000000000000000000000000000000000000000000000000000000000000000000000000000000000000000000000000000000000000000000000000000000000000000000000000000000000000000000000000000000000000000000000000000000000000000000000000000000000000000000000000000000000000000000000000000000000000000000000000000000000000000000000000000000000000000000000000000000000000000000000000000000000000000000000000000000000000000000000000000000000000000000000000000000000000000000000000000000000000000000000000000000000000000000000000000000000000000000000000000000000000000000000000000000000000000000000000000000000000000000000000000000000000000000000000000000000000000000000000000000000000000000000000000000000000000000000000000000000000000000000000000000000000000000000000000000000000000000000000000000000000000000000000000000000000000000000000000000000000000000000000000000000000000000000000000000000000000000000000000000000000000000000000000000000000000000000000000000000000000000000000000000000000000000000000000000000000000000000000000000000000000000000000000000000000000000000000000000000000000000000000000000000000000000000000000000000000000000000000000000000000000000000000000000000000000000000000000000000000000000000000000000000000000000000000000000000000000000000000000000000000000000000000000000000000000000000000000000000000000000000000000000000000000000000000000000000000000000000000000000000000000000000000000000000000000000000000000000000000000000000000000000000000000000000000000000000000000000000000000000000000000000000000000000000000000000000000000000000000000000000000000000000000000000000000000000000000000000000000000000000000000000000000000000000000000000000000000000000000000000000000000000000000000000000000000000000000000000000000000000000000000000
