This file was generated by Ched 2.7.0.0.
#TITLE ""
#ARTIST ""
#DESIGNER ""
#DIFFICULTY 0
#PLAYLEVEL
#SONGID ""
#WAVE ""
#WAVEOFFSET 0
#JACKET ""
#REQUEST "ticks_per_beat 480"
#00002: 4
#BPM01: 200
#00008: 01
#TIL00: ""
#VOLUME: ""
#HISPEED 00
#MEASUREHS 00
#00016:14
#0001b:00130013
#00012:00130013
#00018:0013
#00015:0000000000130000
#00116:14
#00112:00130013
#0011b:00130013
#00115:0013
#00118:0000000000130000
#00216:14
#0021b:00130013
#00212:00130013
#00218:0013
#00215:0000000000130000
#00319:13131300
#00314:13131300
#00312:0000000000260000
#00318:00000026
#00518:0013000013000000
#00515:0000001300001300
#00412:13
#00415:00130000
#00418:0013
#0041b:00000013
#00410:41
#00618:0000001313000013
#00612:2300000000000013
#0061b:23
#0071b:0013000000000000
#00715:0013000000000000
#00712:0000001313000000
#00718:0000001313000000
#00915:13131300
#00918:0013001300001300
#00812:15
#00814:00150000
#00817:0015
#00819:00000015
#01015:0000001313000013
#0101b:2300000000000013
#01012:23
#01112:0013000000002600
#01118:0013000000260000
#0111b:0000001313000000
#01115:0000001313000000
#01212:1300001313000000
#0121b:1300000000000013
#01215:0000000000130000
#01218:00000013
#01315:0013001300000000
#01318:00130023
#01312:00000000000000000013000000000000
#0141b:1300001313000000
#01412:1300000000000013
#01418:0000000000130000
#01415:00000013
#01410:41
#01518:0013001300000000
#01515:00130023
#0151b:00000000000000000013000000000000
#01512:0000000000230000
#01617:0000001313000000
#01612:0000001313000000
#0161b:1300000000000013
#01616:1300000000000013
#0171b:13
#01716:13
#01717:0000001313000000
#01712:0000001313000000
#0181b:13
#01818:0013000000000000
#01819:00130013
#0181a:0000001300000000
#01814:00130013
#01816:13
#01812:0013
#01815:0000000000130000
#01813:0000000000000013
#0191b:13
#01918:0013000000260000
#01919:00130000
#0191a:0000001300000000
#01914:00130000
#01912:00001326
#02017:13
#02012:1300000013000013
#0201b:0000001300000013
#02018:0000000000130000
#02015:00000013
#02016:00000013000000000000000000000000
#02118:0013001300000000
#02115:00130023
#0211b:00000000000000000013000000000000
#02112:0000001300000000
#02216:13
#0221b:1300000013000013
#02212:0000001300000013
#02215:0000000000130000
#02218:00000013
#02217:00000013000000000000000000000000
#02315:0013001300000000
#02318:00130023
#02312:00000000000000000013000000000000
#0231b:0000001300230000
#02414:0000001300000013
#02419:0000001300000013
#02412:13
#02417:13
#0241b:0013
#02416:0013
#0241f:11
#02512:13
#02517:13
#02514:0000001300000000
#02519:0000001300000000
#0251b:0013
#02516:0013
#0261b:00130000
#02619:0000001300000000
#02617:1313
#02612:1313
#02616:00000013
#02613:0000000000000013
#02712:00130000
#02714:0000001300000000
#02716:1313
#0271b:1313
#02717:00000013
#0281b:1212001212000000
#02813:1200000012120012
#02816:00240024
#02913:1212
#0291b:1212
#02919:0012001200000000
#02915:0000000000120012
#02916:00240024
#03013:12
#0301a:14
#03018:0014000000230000
#03014:0000001400000000
#03017:0000000000000013
#03016:00240000
#03012:0000000024000023
#03015:00000023
#0301b:0023
#03116:0013000000000000
#03117:0000001313000000
#0311b:0023000000000000
#03112:0000002323000000
#03214:1212
#03215:0012001200000000
#0321a:0012
#03219:0000000000120012
#0321b:12
#03216:00240024
#0331a:1200000000120012
#03312:1212
#03314:0012001200000000
#0331c:0012
#03316:00240024
#03512:0023000014000000
#03514:0000000000140000
#03516:00000014
#03518:0023000000000014
#03612:2400001313000000
#0361b:00000013
#03615:00000013
#03613:0000000000000013
#0361a:24
#0361f:21
#03718:1313
#0371a:0013000000000000
#03715:00130000
#03713:0000001300000000
#03710:41
#0381b:1313
#03818:00001300000000000000005300000000
#03815:00000000130000000000000000000053
#03812:0000001300001300
#0381a:00000000000000000053000000000000
#03819:0000000000530000
#03817:00000053
#03813:00000000000000000000000000530000
#03814:0000000000000053
#0391b:13
#03912:0000131300000000
#03917:0000131300000000
#03916:53
#0401b:13
#04017:0000001313000000
#04012:0000000000000013
#04016:2400000000000024
#04112:13000013
#04116:2400001313002400
#0421b:13002363
#04215:0013000000000000
#04218:00130000
#04212:0000001300002300
#04219:00000000000000000063006300000000
#04217:0000000000630000
#04214:00000000000000000000000000630063
#04216:0000000000000063
#0441b:0000001313001300
#04412:24000013
#0441a:24
#04515:1313
#04513:0013000000000000
#04518:13130000
#0451a:0000001300000000
#04612:1313
#04615:00001300000000000000005300000000
#04618:00000000130000000000000000000053
#0461b:0000001300001300
#04613:00000000000000000053000000000000
#04614:0000000000530000
#04616:00000053
#0461a:00000000000000000000000000530000
#04619:0000000000000053
#04712:13
#0471b:0000131300000000
#04716:0000131300000000
#04717:53
#04912:00000013
#0491b:00000013
#04915:23
#04918:23
#0501b:13000013
#05015:13131300
#05018:0013000000130013
#05012:0000001300000013
#05216:1313000000000000
#0521b:0000001300000000
#05218:0013
#05215:0000000000130000
#05212:00002413
#0521a:2400000000000024
#05416:00000014000014001400000000000000
#0541a:24000014
#05412:24000014
#0551b:1313
#05518:0013000000000000
#05512:00130000
#05515:0000001300000000
#0561b:1313
#05616:1313
#05619:0013000000530000
#05612:00130013
#05617:00130053
#05614:0000001300000053
#0561a:00000000000000000053000000000000
#05618:00000000000000000000005300000000
#05613:00000000000000000000000000530000
#05615:00000000000000000000000000000053
#0571b:1300001300000000
#05716:5300141400140000
#05712:0000130000130000
#0581b:1300001313000000
#05812:00000014000000000000000000001300
#05816:2400000000000024
#05810:41
#0591b:00000013
#05912:1300001313000000
#0591a:00000014000000000000000000000000
#05916:24000024
#06012:13002363
#06018:0013000000000000
#06015:00130000
#0601b:0000001300002300
#06014:00000000000000000063006300000000
#06016:0000000000630000
#06019:00000000000000000000000000630063
#06017:0000000000000063
#06216:00000014000014001400000000000000
#06212:24000014
#0621a:24000014
#06312:1313
#06315:0013000000000000
#0631b:00130000
#06318:1300001300000000
#06412:1313
#06417:1313
#06414:0013000000530000
#0641b:00130013
#06416:00130053
#06419:0000001300000053
#06413:00000000000000000053000000000000
#06415:00000000000000000000005300000000
#0641a:00000000000000000000000000530000
#06418:00000000000000000000000000000053
#06512:1300001300000000
#06516:0000141400140000
#0651b:0000130000130000
#06517:53
#0661b:13
#06612:0000003300000013
#06616:2400003400000024
#06712:13000013
#06716:2400003400002400
#0671b:0000003300000000
#06812:1300000023000023
#06815:0013000000230000
#06818:13130023
#0681b:0000001300000023
#0701b:13000013
#07018:0013000000130013
#07012:2400001300000024
#07015:00131300
#0701a:0024
#07010:41
#07212:13002413
#07215:0013000000130013
#0721b:0000001300000000
#07218:00131300
#0721a:2400000000000024
#07512:0013000000000000
#07518:0000001300001300
#07515:0013
#0751b:0013000000000000
#07412:13
#07415:00130000
#07418:0013
#0741b:00000013
#07417:13
#0741a:00130000
#07413:0013
#07416:00000013
#07612:2400001300000000
#0761b:0000000013000013
#07616:0000001414000013
#0761a:24
#07714:0013000000000000
#07719:0013000000000000
#07717:0000001313000000
#07712:0000001313000000
#07915:13131300
#07918:0013001300001300
#0801b:0000001300000013
#08018:0013
#08015:0000000000130000
#08012:24000013
#0801a:24
#08212:13
#08217:13
#0341c:12
#03412:1423
#03414:0014000000000000
#03418:0000001400002300
#03416:00240000
#0341a:0024
#03415:0000000000230023
#0341b:0000000000000023
#07812:14
#07815:00140000
#07817:1314
#0781a:00130014
#07813:0013
#07816:00000013
#0431a:2400002400000000
#04316:0024000000000000
#04312:6300002400000000
#0511c:0022000000000000
#05119:00220000
#05116:0000002200000000
#05118:0000000000260000
#05112:00000026
#05312:0023000000000000
#05315:00230000
#05318:0000002300000000
#0531b:0023
#06112:2400002500000000
#06116:0024000000000000
#06119:0000002500000000
#0611b:63
#06917:00220000
#0691a:0022000000000000
#06914:0000002200000000
#06918:0000000000260000
#06912:00000026
#0711b:0023000000002300
#07118:00232300
#07115:0000002300002300
#07112:0023
#0731b:0023000023000000
#07312:0023000023000000
#07315:00230000
#07318:0000002300000000
#08112:0023000000000000
#08115:00230000
#08118:0000002300000000
#0811b:00002323
#08116:00000023
#04812:2300000000000023
#0481b:2300000000000023
#04810:41
#00452:13
#00455:00130000
#00458:0013
#0045b:00000013
#00558:0013
#00555:00000013
#0065b:13
#00652:13
#00852:15
#00854:00150000
#00857:0015
#00859:00000015
#00955:0013
#00958:00000013
#01052:13
#0105b:13
#0125b:5300000000000053
#01355:0000005300000000
#01352:00000000000000000023000000000000
#01452:6300000000000063
#01558:0000006300000000
#0155b:00000000000000000023000000000000
#0165b:53
#01656:53
#01652:0023
#01657:0023
#0175b:53
#01756:53
#01757:0023
#01752:0023
#0185b:53
#01859:00530000
#01858:0023000000000000
#0185a:0000002300000000
#01852:0063
#01855:0000000000230000
#01854:00000063
#01853:0000000000000023
#0195b:53
#01958:0023000000000000
#01959:00530000
#0195a:0000002300000000
#02052:6300000000000063
#02056:00000023000000000000000000000000
#02158:0000006300000000
#0215b:00000000000000000023000000000000
#0225b:5300000000000053
#02257:00000023000000000000000000000000
#02355:0000005300000000
#02352:00000000000000000023000000000000
#02452:63
#02457:63
#0245b:0023
#02456:0023
#02552:63
#02557:63
#0255b:0023
#02556:0023
#02652:53
#02657:0023
#0275b:63
#02756:0023
#03052:0000000000000013
#03157:0013
#03152:0013
#03552:0013000000000000
#0365a:54
#03657:0013
#03655:00000053
#03653:0000000000000023
#03652:14
#03758:53
#03755:00531300
#03753:0000002300000000
#0375a:0023000000000000
#03956:0000000000130000
#0395b:0000000000130000
#03952:0000005300000000
#03957:0000005300000000
#04056:54
#04052:0014
#04156:64
#0415a:0014
#04352:0000003400000000
#0435a:0000004400000000
#04555:63
#04553:0023000000000000
#04558:00631300
#0455a:0000002300000000
#04756:0000006300000000
#0475b:0000006300000000
#04752:0000000000130000
#04757:0000000000130000
#04452:64
#04456:0013
#0445a:14
#04858:0013
#04855:0013
#0485b:53
#04852:53
#0495b:0013
#04952:0013
#04955:53
#04958:63
#05052:0000000000000053
#0535b:0013
#0555b:53
#05558:0023000000000000
#05552:00533300
#05555:0000002300000000
#0545a:54
#0545b:0013
#05456:00000024000000000000000000000000
#05452:14000054
#05752:0000000000130000
#05756:0000000000140000
#05856:5414
#05852:00000024000000000000000000000000
#06159:0000004500000000
#06152:0000003500000000
#0595a:00000024000000000000000000000000
#05956:6414
#06352:63
#06355:0023000000000000
#0635b:00634300
#06358:0000002300000000
#06256:00000024000000000000000000000000
#06252:6413
#0625a:14
#06556:0000000000140000
#0655b:0000000000130000
#0665b:53
#06652:0013
#06656:5414
#06752:63
#0675b:0013
#06756:5414
#0685b:0000000000000013
#0735b:0013
#07352:0013
#07452:13
#07455:00130000
#07458:0013
#0745b:00000013
#07555:0013
#07558:00000013
#07955:0013
#07958:00000013
#07652:14
#0765a:14
#0805a:14
#08052:14
#0805b:0000000000000013
#08156:00000053
#0815b:00000053
#08256:00130000
#0825b:00130000
#08252:53
#08257:53
#0345b:0000000000000013
#07852:14
#07855:00140000
#07857:0014
#0785a:00000014
#0123b0:13
#012370:0000002300000000
#0123b0:0000000000000013
#013380:0023000000000000
#013350:0000001300002300
#013320:00000000000000000053000000000000
#014320:13
#014360:0000002300000000
#014320:0000000000000013
#015350:0023000000000000
#015380:0000001300002300
#0153b0:00000000000000000053000000000000
#0163b0:13
#016370:00230000
#016361:13
#016321:00230000
#016321:0013
#016361:00000023
#016370:0013
#0163b0:00000023
#0173b0:13
#017370:00230000
#017361:13
#017321:00230000
#017321:0013
#017361:00000023
#017370:0013
#0173b0:00000023
#0183b0:13
#018380:0053000000000000
#018390:00330000
#0183a0:0000005300000000
#018370:0023
#018321:0013
#018351:0000000000530000
#018341:00000033
#018331:0000000000000053
#019361:23
#0193b0:13
#019380:0053000000000000
#019390:00330000
#0193a0:0000005300000000
#019370:0023
#020320:1300002300000000
#020360:00000053000000000000000000000000
#020320:0000000000000013
#021350:0023000000000000
#021380:0000001300002300
#0213b0:00000000000000000053000000000000
#0223b0:1300002300000000
#022370:00000053000000000000000000000000
#0223b0:0000000000000013
#023380:0023000000000000
#023350:0000001300002300
#023320:00000000000000000053000000000000
#024320:13
#024360:00230000
#024371:13
#0243b1:00230000
#0243b1:0013
#024371:00000023
#024360:0013
#024320:00000023
#025320:13
#025360:00230000
#025371:13
#0253b1:00230000
#0253b1:0013
#025371:00000023
#025360:0013
#025320:00000023
#026320:13
#026360:00230000
#026370:0013
#0263b0:00000023
#0273b0:13
#027370:00230000
#027360:0013
#027320:00000023
#0363a0:14
#036370:0000003323000000
#036350:00000013
#036330:0000000000000053
#037350:23
#037381:13230000
#0373a1:0053000000000000
#037350:00132300
#037330:0000005300000000
#039370:0000001300000000
#0393b0:0000000000230000
#039321:0000001300000000
#039361:0000000000230000
#040361:14
#040321:0000003424000000
#041361:14
#0413a1:0000003424000000
#044321:14
#044361:0000003323000000
#045351:13230000
#045331:0053000000000000
#045380:00132300
#0453a0:0000005300000000
#047360:0000001300000000
#047320:0000000000230000
#0473b1:0000001300000000
#047371:0000000000230000
#0483b1:13
#048381:0000003323000000
#048320:13
#048350:0000003323000000
#049380:13
#0493b0:0000003323000000
#049351:13
#049321:0000003323000000
#050321:0000000000000013
#051361:0023000000000000
#0543a1:14
#054361:00000054000000000000000000000000
#0543b1:0000003323000000
#054321:00000014
#055351:23
#0553b0:13230000
#055380:0053000000000000
#055321:00132300
#055351:0000005300000000
#058361:1400003424000000
#058321:00000054000000000000000000000000
#059361:1400003424000000
#0593a1:00000054000000000000000000000000
#062321:1400003323000000
#062361:00000054000000000000000000000000
#063321:13230000
#063351:0053000000000000
#0633b0:00132300
#063380:0000005300000000
#066360:14
#066320:0000003323000000
#0663b1:13
#066361:0000003424000000
#067361:14
#0673b1:0000003323000000
#067320:13
#067360:0000003424000000
#081360:00000013
#082320:33
#082360:00230000
#0813b1:00000013
#082371:33
#0823b1:00230000
#0389b0:0013
#038970:00000023
#038921:00000013
#039961:23
#0429b1:00001323
#042971:0000000000530000
#042920:00000013
#042960:0000000000000053
#043920:23
#046920:0013
#046960:00000023
#0469b1:00000013
#047971:23
#0569b1:0013
#056971:00000023
#056920:00000013
#057960:23
#060920:00001323
#060960:0000000000530000
#0609b1:00000013
#060971:0000000000000053
#0619b1:23
#064921:0013
#064961:00000023
#0649b0:00000013
#065970:23
