This file was generated by Ched 2.7.0.0.
#TITLE ""
#ARTIST ""
#DESIGNER ""
#DIFFICULTY 0
#PLAYLEVEL
#SONGID ""
#WAVE ""
#WAVEOFFSET 0
#JACKET ""
#REQUEST "ticks_per_beat 480"
#00002: 4
#BPM01: 135
#00008: 01
#TIL00: ""
#VOLUME: ""
#HISPEED 00
#MEASUREHS 00
#0011a:14
#00214:14
#00512:14
#00510:41
#00618:14
#0091a:14
#0101a:14
#01114:14
#01214:14
#01210:41
#01318:14
#01418:14
#01512:14
#01612:14
#0171a:14
#01814:14
#01918:14
#02012:14
#02010:41
#0211a:14
#02214:14
#02318:14
#02412:14
#0251a:14
#02614:14
#02912:14
#03018:14
#0331a:14
#03314:0014
#0341a:14
#03512:14
#03518:0014
#03510:41
#03612:14
#0371a:14
#03714:0014
#0381a:14
#03912:14
#03918:0014
#04012:14
#04912:0016
#04918:26
#0491f:21
#05018:16
#05012:0016
#05010:41
#05118:1616
#05318:0016
#05312:26
#05412:16
#05418:0016
#05512:1616
#05718:1414
#05814:1414
#05918:1414
#06014:1414
#0411f:11
#06118:24
#02710:41
#0033a0:14
#0043a0:24
#007320:14
#008320:24
#027380:14
#028380:24
#031340:14
#032340:24
#0413a0:14
#0423a0:24
#043340:14
#044340:24
#045380:14
#046380:24
#047320:14
#048320:24
#052380:1626
#056320:1626
