This file was generated by Ched 2.7.0.0.
#TITLE ""
#ARTIST ""
#DESIGNER ""
#DIFFICULTY 0
#PLAYLEVEL
#SONGID ""
#WAVE ""
#WAVEOFFSET 0
#JACKET ""
#REQUEST "ticks_per_beat 480"
#00002: 4
#BPM01: 135
#00008: 01
#TIL00: ""
#VOLUME: ""
#HISPEED 00
#MEASUREHS 00
#0001a:000000000000000000000012
#00116:12
#00119:000000000000000000000012
#00215:12
#00318:000012000000001200000012
#00314:000000120000000012000000
#0031a:000000000012000000000000
#00316:0012
#00416:120000000000000000000012
#0041b:0012
#0051a:12
#00515:000000000000000000000012
#00510:41
#00619:12
#00714:000012000000001200000000
#00718:000000120000000012000000
#00716:000000000012000000000012
#0071a:0012
#00818:1212
#0081a:0012000000120000
#00816:00120012
#00814:0000001200000000
#0091a:1212
#00914:00120000
#00918:001200
#00916:000000000012000012000000
#01013:001200
#01118:120012
#01119:00120000
#01116:0012
#01115:00000012
#0111a:000000000000000000000000005200000000000000000000000000000000000000000000000000000000000012000000
#01114:000000000000000000000000000000000000000000000000000000000000000000000000005200000000000000000000
#0121a:120012
#01216:000012000000000000120000
#01218:000000120000000000000012
#01214:000000001212000000000000
#01210:41
#01313:001200000000
#01317:00121200
#01315:001200
#01319:000000000000000000000000000000000000000000000000000000000000000000000000000000001200000000000000000000000000000000000000000000000000000000000000000000000000000000000000000000000000000000620000
#0131b:000012
#01318:000000000000000000000000000000000000000000000062
#0131a:000000000000000000000000000000000000000000000000000000000000000000000000000000000000000000000062
#0151a:001200000000
#01515:00120000
#01518:000000121200
#01516:000000000000001200000000
#01514:000000000000000000000012
#01815:00120012
#01819:0012
#01818:000000000000000000000000000000000000001200000000
#01813:000000000000000000000012
#0181a:000052000000000000000000000000000000000000000000005200000000000000000000000000000000000000000000
#01814:000000000000000000000000005200000000000000000000000000000000000000000000000000000000000000000000
#01918:001200000000
#01914:00120000
#01919:001200
#01915:000000000012000000000000
#0191a:0012
#01913:000000000000000000000000000000000000000000000032
#0201b:12
#0201a:00120000
#02016:001200
#02018:000000000012120000000000
#02015:000000001212
#02019:00000012
#02017:000000000000000000000012
#02010:41
#02013:52
#02115:12
#02114:000000000000000000000000160000000000000000000000000000000000006200000000000000000000000000000000
#02112:006c
#02116:000000000000000000000000000000000000006200000000
#02118:000000000000000000000062
#02218:000013
#02215:000000000013
#0221a:006200000000000000000000000000000000000000000000
#02312:13
#0231b:13120000
#02319:0012
#02317:00000012
#02315:0022
#02415:1212
#02413:00120000
#02417:00000012
#02419:0022
#02519:120000000012000012000000
#02515:120000000000120000000012
#0251b:00120000
#02517:000012000012
#02513:00000012
#02619:120013
#02618:0013
#0261a:000000000013
#02612:0013
#02613:000013
#02614:000000000013
#0271b:130012
#02715:130000000012000000000012
#02713:00120000
#02717:000000001200001200120000
#02719:000000120012
#02710:41
#02817:12
#02815:0013
#02814:000013
#02813:000000000013
#0281b:0013
#0281a:000013
#02819:000000000013
#02912:130000000000000000000000000000000000005200000000
#02918:13
#0291b:000000120000000000000012
#02916:001200
#02919:000000000012000012000000
#02914:00000012
#02913:000000000000000000000000000000000000000000000000000000000000000000000000005200000000000000000000
#03016:120000000013
#03017:0013
#03019:000013
#0301b:000000000013
#03012:0013
#03014:000013
#03112:13
#03118:001200000000000000001200
#03115:000012000000001200000000
#03119:000000120000000012000000
#03113:000000000012000000000000
#0311b:0012
#03116:000000000000000000120012
#03218:1213
#03219:000013
#0321a:000000000013
#03212:0013
#03213:000013
#03214:000000000013
#0331b:13000053
#03315:13130013
#03318:001300130013
#03313:000000000053000000000013
#03314:005300
#03312:0053
#03319:000000000000005300000000
#0331a:000053
#03415:001300130000
#03418:000000130000000013000000
#03412:00000013
#0341b:000000000000530000000013
#03419:005300
#0341a:000000000053000000000000
#03515:000013000000000000530000
#03518:000000130000000000000053
#03512:0013
#0351a:00000013
#03510:41
#03513:000000000000005300000000
#03514:000053
#03519:000000000053
#03612:001300001300
#03618:00130013
#03615:000000000013000000000013
#0361b:0013
#03718:001300000000530000000013
#03715:001300130013
#0371b:00130000
#0371a:000000005300000000130000
#03714:000000000000005300000000
#03713:000053
#03712:00000053
#03719:000000000053000000000000
#03813:130000000013
#03818:000013000000000000000013
#03812:00130000
#0381b:000000000013000000000000
#03815:0013
#0381a:000000000000001300000000
#03814:000013
#03819:00000013
#03915:000013000000000000000013
#0391b:00130000
#03912:000000000013000000000000
#03918:0013
#03913:000000000000001300000000
#03919:000013
#03914:00000013
#0391a:000000000013
#0401b:001300130000
#04015:00130000
#04018:001300
#04012:000000000013000000130000
#04118:13
#04112:00000013
#0411b:00000013
#04114:000000000000000000000013
#0411f:11
#04217:13
#04216:001300000000
#04219:00130000
#04212:000000000000130033333333
#04318:16
#0431b:000033333333130033333333
#04412:160033333333130033333333
#04516:001200000000
#04518:260000000012000013000000000000000000000000001300
#04512:000000130000000014000000
#04515:000000000013000000000000
#0451a:0014
#04615:13
#0461a:001400000000
#04916:00140000
#04912:240000130000640000000000240000001400000000000000
#04917:000000000000000000000013
#0491b:0000000000130000
#0491a:24002464
#0491f:21
#0501a:240014000000240000641400
#05016:000000140013000000140014
#05012:240000130000640000000000240000001400000000000000
#0501b:0000000000130000
#05010:41
#05116:000014000013000014000000
#0511a:24142464
#05112:2413640024001400
#05117:000000000000000000000013
#0511b:0000000000130000
#0521a:241400240000
#05216:000000140014000000000000
#05212:2413640024000000
#05214:000024
#05218:000000000024
#05312:260000140000660000000000140000001400160000000000
#05316:000000000014000000000014
#0531a:0000140000140000
#05318:00002666
#0541a:140000001400140000000000000000140000000000001400
#05412:260000140000660000000000140000001400140000000000
#05416:000000000014000000001400
#05418:00002666
#05512:260000140000660000000000140000001400160000000000
#0551a:000000001400000000000000000000140000000000000000
#05518:00162666
#05515:000000000016000000000016
#05612:260000140000660000000000140000000000160056000000
#05616:001400001400
#05618:00162666
#0561a:1400000000140000
#05615:000000000000000000001600000000000000000000000056
#05613:0000000000000056
#05614:000000000000000000000056
#0571b:131300000000
#05715:0013
#05818:13
#05812:0013
#0581b:00000013
#05815:000000000000000000000013
#05918:131300000000
#05912:0013
#06018:13
#06015:0013
#0601b:000000000000000000130013
#04712:2323
#0471b:00230023
#04714:006300000000006300000000
#04716:006300006300
#04719:000063000063
#04717:000000000063000000000063
#04812:23
#0481a:000000230000000000006300000000000000000000000000
#04813:006300000000230000000000000000000000000000000000
#0481b:0000002300000000
#04814:000063000000006300000000000000000000000000000000
#04815:000000630000000063000000000000000000000000000000
#04819:000000006300000000000063000000000000000000000000
#04818:000000000063000000000000000000000000000000000000
#04817:00630000
#04816:0000006300000000
#01619:22
#01618:00220000
#01617:0022
#01616:00000022
#01712:005c
#01714:000000000000000000000000000000000000000000000000000000000000005200000000000000000000000000000000
#01716:000000000000000000000000000000000000005200000000
#01718:000000000000000000000052
#00456:52
#00858:5252
#0085a:0022000000220000
#00856:00620062
#00854:0000002200000000
#0095a:12
#00954:12
#00956:000052
#01053:002200
#0135b:000052
#02154:00560000
#02155:22
#02559:12
#0275b:13
#02755:13
#02952:13
#02958:13
#03258:12
#0335b:13
#03355:13
#03452:00000053
#03558:00530000
#03658:00000053
#03852:00530000
#0395b:00630000
#0405b:0053
#04052:00000053
#04155:13
#04259:00530000
#04252:0023
#0435b:0023
#04358:56
#04452:6623
#0455a:0014
#04552:000014
#0465a:001400000000
#04952:5423000000000000
#0495a:0054
#0495b:0000000000230000
#05052:5423000000000000
#0505b:0000000000230000
#0505a:0064
#05152:5423000000000000
#0515b:0000000000230000
#0515a:0064
#05252:5423000000000000
#0525a:000014
#05254:000000000014
#05358:1466
#05352:5624000000001600
#0535a:0000000000240000
#05452:5624000000000000
#0545a:0000000000240000
#05458:0066
#05552:5624000000001600
#05558:00166600
#0555a:0000000000240000
#05652:5624000000000000
#0565a:0000000000240000
#05658:0066
#004360:12
#004330:0022
#008380:12220000
#0083a0:0052000000000000
#008361:00122200
#008341:0000005200000000
#008380:00001222
#0083a0:0000000000520000
#008361:00000012
#009341:22
#009361:000012
#010331:005200
#011361:22
#0133b1:000012
#013381:000000000000000000000000000000000000000000000022
#017351:12
#017321:002c
#019361:000000000000000012000032
#019331:000000000000000000000000000000000000000000000032
#020331:22
#021351:12
#021341:00560000
#021321:002c
#022321:00130000
#022341:0025
#022370:00130000
#022390:0025
#029340:000000122200
#034320:00000013
#034350:000000000000000000000023
#035380:00130000
#0353b0:0023
#036380:00000013
#0363b0:000000000000000000000023
#038320:00130000
#038350:000000000023000000000000
#0393b0:00130000
#039380:000000000023000000000000
#0403b0:0013
#040380:000000000000000033230000
#040321:00000013
#040351:000000000000000000000033
#041351:23
#042391:00130000
#0423b1:0023
#042320:000000000000130033333333
#043320:26
#043381:16
#0433b1:000033333333330033333333
#044381:26
#044320:160033333333330033333333
#045320:26
#049320:1453240000000000
#0493a0:00001424
#0493b0:0000000000530000
#050320:1453240000000000
#0503a0:00001424
#0503b0:0000000000530000
#051320:1453240000000000
#0513a0:00001424
#0513b0:0000000000530000
#052320:1453240000000000
#0523a0:000000142400
#052341:000000001424
#052380:000000000014
#053380:24
#053321:1654260000000000
#053381:00001626
#0533a1:0000000000540000
#054321:1654260000000000
#054381:00001626
#0543a1:0000000000540000
#055321:1654260000000000
#055381:00001626
#0553a1:0000000000540000
#056321:1654260000000000
#056381:00001626
#0563a1:0000000000540000
#011990:00120000
#0119a0:000000000000000000000000002200000000000000000000000000000000000000000000000000000000000000000000
#011950:00000012
#011940:000000000000000000000000000000000000000000000000000000000000000000000000002200000000000000000000
#013980:000000000000000000000000000000000000000000000012
#0139a0:000000000000000000000000000000000000000000000000000000000000000000000000000000000000000000000022
#018950:00120000
#018940:000000000000000000000000002200000000000000000000000000000000000000000000000000000000000000000000
#018990:0012
#0189a0:000000000000000000000000000000000000000000000000002200000000000000000000000000000000000000000000
#029940:00000012
#029920:000000000000000000000000000000000000002200000000
#033950:00130000
#033920:0023
#033981:0013
#0339b1:00000023
#034981:00130000
#0349b1:0023
#035921:0013
#035951:00000023
#0359a0:00000013
#035980:000000000000000000000023
#0379b0:00130000
#037980:0023
#037951:0013
#037921:00000023
#047921:13
#047961:002300000000
#0479b1:00130000
#047971:000000000023000000000000
#047921:0013
#047961:000023
#0479b1:00000013
#047971:000000000000000000000023
#048921:13
#048951:0023000000000000
#0489a0:0013000000000000
#048970:00230000
#048931:00130000
#048961:0000002300000000
#0489b0:0000001300000000
#048990:000000000000000000000023000000000000000000000000
#056920:000000000000000000165600
#056950:000000000000000000000000000000000000000000000026
#0609b0:000000000000000000000013
#0619d0:002100000000
