This file was generated by Ched 2.7.0.0.
#TITLE ""
#ARTIST ""
#DESIGNER ""
#DIFFICULTY 0
#PLAYLEVEL
#SONGID ""
#WAVE ""
#WAVEOFFSET 0
#JACKET ""
#REQUEST "ticks_per_beat 480"
#00002: 4
#BPM01: 135
#00008: 01
#TIL00: ""
#VOLUME: ""
#HISPEED 00
#MEASUREHS 00
#00018:000000000000000000000013
#00115:000000000000000000000013
#00118:0013
#0011a:53
#00215:0013
#00213:53
#00318:130000000000001300000000
#00312:001300001300
#0031b:000000000013000000000013
#00315:0013
#00314:00530000
#00415:000000000000000000000013
#00413:0013
#0041a:0013
#00419:53
#00518:000000000000000000000013
#00515:0013
#00510:41
#00513:53
#00618:0013
#0061a:53
#00715:130000000000001300000013
#0071b:001300001300
#00712:000000000013000000000000
#00718:0013
#00719:00530000
#00912:00130000
#00918:250013
#00913:005300
#00914:000000000053000000000000
#00915:0053
#0101b:001300
#01115:00130000
#0111b:0013
#01116:000013
#01119:00000013
#01114:000000000000005300000000000000000000000000001300
#01217:13
#01212:001300000000
#01218:000013
#01215:000000000053000000130000
#01210:41
#01213:00530000
#01214:005300
#01317:001300000000
#01312:000000000000130000000000000000000000000000000063
#01319:001300
#01314:000000000013000000000000
#0131b:0013
#01316:000013
#01418:0013
#01512:13
#01518:001300130000
#01515:000000130000001300000013
#0151b:000013
#01717:00135700
#01718:15
#01814:120000000000000000000000005200000000000000000000
#01819:00120000
#01815:0012
#01818:000000000000000000120012
#01816:000000000000000000000000000000000000001200000000
#0181a:000000000000005200000000000000000000000000000000
#01912:001200000000
#01918:000012
#01913:00520000
#01914:005200
#01915:000000000052000000000000
#01916:0052
#02015:00120000
#02018:000012000012
#02016:000000000012000000120000
#02019:000000121200
#02010:41
#02115:00120000
#02113:0066
#0221a:12
#02214:00120000
#0251b:00130000
#02515:000013
#02519:120000000053000000130000
#02514:000000000000000000000013
#0251a:005300
#02518:0053
#02618:130000001414
#02614:0024
#0271b:00130053
#02715:001300
#02718:0013
#02714:24
#02710:41
#02719:000000000000005300000053
#0271a:000000005353
#02814:000000001414
#02818:5324
#02912:00130000
#02918:240013
#02914:000000000053000000130000
#02919:000000000000000000000013
#02913:005300
#02915:0053
#03015:13
#03018:000000001414
#03014:0024
#0311b:001300000000000000000000
#03119:000000530013000000000000
#03115:0013
#03114:240000000000005300000053
#0311a:005300000000
#03113:000000005353
#03112:00000053
#03214:000000001414
#03218:0024
#03215:53
#03312:001300000000
#03318:240000130000000013000000
#03315:000000000000001300130000
#03319:005300
#0331a:000000000053000000000000
#03314:000000000053
#03313:000000000000000000000053
#0341b:001300000000
#03415:00130000
#03418:000013
#03414:000000005300000000130000
#0341a:000000000000000000000013
#03412:0053
#03413:000000000053000000000000
#03516:13
#0351b:001300000000
#03515:0013
#03510:41
#03519:00530000
#03514:000000000000005300000053
#03513:000000005353
#03512:00000053
#0361b:001300000000
#03616:00130000
#03619:000000000013000000000000
#03614:0013
#03617:000000000000000013000013
#03612:00000013
#03615:53
#03712:13
#03719:000000130053
#03713:005300000000000000000000
#03714:005300530000
#03715:000000530053000000000000
#03716:005300
#03718:000000000000005300530000
#03717:000053
#0371a:000000000000000000000053
#03815:000013000013000000000000
#03818:00131300
#0381b:53000053
#03819:000000000000005300000053
#0381a:000000005353
#03918:530013000013000000000000
#03915:00131300
#03914:000000000000005300000053
#03913:000000005353
#03912:00000053
#04015:530013001300130000130000
#04018:000000130013000000000013
#0401b:000013
#04112:13
#04118:00000013
#04115:000000000000000000000013
#0411f:11
#04218:13130000
#04215:001300000000
#0421b:0000000000130000
#04312:00130000
#04318:0013
#04315:00000013
#0441b:13
#04415:00130000
#04418:0013
#04412:00000013
#0451b:13
#04516:001300000000
#04518:000013
#04515:000000530000000000000013
#04514:005300
#04513:000000000053000000000000
#04512:0053
#04618:13
#04612:001300000000
#04912:230000131300
#04918:230000000000130013000013
#0491f:21
#05013:13
#05019:001300000000
#05014:000000130000000000005300
#0501a:000000000013000000000000
#05015:0013
#0501b:000013
#05016:00000013
#05010:41
#05012:000000000000000000000053
#05117:001300000000
#05115:000000000013000000000013
#05119:000000530000000013000000
#05113:0053
#0511b:00000053
#0521b:13
#05214:001300000000
#0521a:00130000
#05213:000000000013000000000000
#05219:0013
#05212:000013
#05218:00000013
#05318:000000000013000013000000
#05315:23001313
#0531b:230000000000000000000013
#05415:1313
#05418:001300001300
#05412:00130013
#0541b:000000000013000000000000
#05414:000000000053
#05416:000000000000000000000053
#05518:001300001300
#05515:00130013
#0551b:000000000013000000000000
#05512:0013
#0551a:000000000000000000000013
#05613:13
#05618:001300000000
#05615:00130000
#0561b:000000000013000000130000
#05612:00001313
#0231b:00120000
#02317:00000012
#02319:0022
#02415:1222
#02413:00120000
#02417:00000012
#04716:246464646464646464646464
#05717:0022
#05815:22
#05817:0022
#05919:22
#05917:0022
#06015:22
#06017:0022
#06119:22
#04816:646400000000000000000000000000000000000000000000
#04815:000066660000000000000000000000000000000000000000
#04814:000000006868000000000000000000000000000000000000
#04813:006a0000
#04812:000000000000006c6c6c6c6c000000000000000000000000
#0105b:002300
#00958:000053
#01255:00000053
#01252:000000000000000000000013
#01356:000053
#01757:00230000
#01758:55
#01958:000052
#02155:00220000
#02254:00220000
#02356:13
#02658:13
#0425b:0000000000230000
#04258:00530000
#04952:53
#04958:53
#05258:00000013
#0535b:63
#05355:63
#05652:00001353
#0565b:00000053
#05758:13
#05755:13
#03055:13
#008380:13230000
#008351:00132300
#008380:00001424
#008331:00000015
#009331:25
#009381:000013
#0103b1:005300
#011381:23
#012351:00000013
#012321:000000000000000000000023
#013361:000013
#013321:000000000000000000000000000000000000000000000023
#016381:13230000
#016350:00132300
#016381:00001424
#016330:00000015
#017330:25
#017381:15
#017371:00532700
#019381:000012
#0193b1:000000000000000000000022
#020351:000000000000000000000012
#021351:00520000
#021331:0026
#022341:00120000
#022331:000000340033
#022361:000033
#023361:23
#042381:00130000
#0423b1:0000000000530000
#043381:23
#049321:13
#049351:00230000
#049380:13
#0493b0:00230000
#0533b0:13
#053380:00230000
#053351:13
#053321:00230000
#0563b1:00000013
#057381:23
#056320:00000013
#057350:23
#000980:000000000000000000000013
#0019a0:23
#001950:000000000000000000000013
#002930:23
#003920:001300000000
#003940:00230000
#0039b0:000000000000000000000013
#004990:23
#004950:000000000000000000000013
#005930:23
#005980:000000000000000000000013
#0069a0:23
#0079b0:001300000000
#007990:00230000
#009920:00130000
#009950:0023
#011950:00130000
#011940:000000000000002300000000000000000000000000000000
#012920:001300000000
#012950:000000000023000000000000
#018990:00120000
#0189a0:000000000000002200000000000000000000000000000000
#018950:0012
#018940:000000000000000000000000002200000000000000000000
#019920:001200000000
#019960:0022
#0259b0:00130000
#025980:0023
#027980:0013
#0279b0:00000053
#028980:23
#029920:00130000
#029950:0023
#0319b0:001300000000000000000000
#031990:00230000
#031950:0013
#031920:00000053
#032950:23
#033980:00130000
#0339a0:000000000023000000000000
#033950:00000013
#033930:000000000000000000000023
#034950:00130000
#034920:0023
#0359b0:001300000000
#035990:00230000
#035950:0013
#035920:00000053
#036950:23
#037920:13
#037960:005300
#037940:0023
#037991:0013
#037971:000053
#0389b1:23
#038981:0013
#0389b1:00000053
#039981:23
#039951:0013
#039921:00000053
#040951:23
#045961:001300000000
#045921:0023
#047961:14
#048961:54
#048921:000000000000005c0000002c000000000000000000000000
#050961:00000013
#050921:000000000000000000000023
#051971:001300000000
#051991:00230000
#051951:000000000013000000000000
#051931:0023
#051991:000013
#0519b1:00000023
#054921:00000013
#054961:000000000000000000000023
#057971:000000000000122200000000
#058951:122200000000000000000000
#058971:000000000000122200000000
#059991:122200000000000000000000
#059971:000000000000122200000000
#060951:122200000000000000000000
#060971:000000000000122200000000
#061991:122200000000000000000000
