This file was generated by Ched 2.7.0.0.
#TITLE ""
#ARTIST ""
#DESIGNER ""
#DIFFICULTY 0
#PLAYLEVEL
#SONGID ""
#WAVE ""
#WAVEOFFSET 0
#JACKET ""
#REQUEST "ticks_per_beat 480"
#00002: 4
#BPM01: 92
#00008: 01
#TIL00: "44'0:1, 43'1919:10000"
#VOLUME: ""
#HISPEED 00
#MEASUREHS 00
#00118:16
#00112:0016
#0041a:14240000
#00414:0014000000000000
#00412:00001424
#00418:0000000000140000
#0131b:13130000
#01315:0013
#01312:00000013
#01318:0000000000130000
#01310:41
#01418:1300130000130000
#01412:0013
#01415:00000013
#0151b:13000013
#01512:0000130000000013
#01515:0000000000130000
#01518:0013
#01818:0000001300000000
#01812:0013
#0181b:23000013
#01815:23
#01810:41
#01912:13
#01918:00130000
#01916:00000014
#02015:0000001300000000
#0201b:0013
#02018:13
#02012:13000013
#02115:00130000
#0211b:13
#02116:00000014
#0221b:0000001300000000
#02215:0013
#02218:23000013
#02212:23
#02315:13
#02318:00130000
#02316:00000014
#02415:13000013
#0241b:13
#02412:0000001300000000
#02418:0013
#02518:13
#02515:00130000
#02516:00000014
#0251f:0011
#02618:16
#02612:0016
#02919:15250000
#02913:0015000000000000
#03018:2600001300001600
#03015:0013
#03012:26
#0301f:21
#03010:0041
#03112:13
#03118:13
#03115:00130016
#0311b:00130000
#03218:1613
#03212:16000016
#03215:0000001300000000
#03315:13000016
#0331b:13
#03312:00130000
#03318:00130000
#0341b:0000001300000000
#03415:0013
#03418:26000016
#03412:26
#03515:13000016
#0351b:13
#03512:00130000
#03518:00130000
#03618:1613
#03612:1600001300001600
#03712:13
#03718:13
#03715:00130016
#0371b:00130000
#03818:16
#03812:0016
#04118:1600160000160000
#04112:0016000016001600
#0031b:13230000
#00315:0013000000000000
#00312:00001323
#00318:0000000000130000
#0051b:13
#00515:0013001300000000
#00518:00130000
#00510:41
#00612:13
#00618:0013001300000000
#00615:00130000
#00718:13
#00715:0013001300000000
#0071b:00130000
#00815:13
#00818:0013001300000000
#00812:00130000
#0091b:1313
#00915:0013001300000000
#00918:00130000
#00910:41
#01012:1313
#01018:0013001300000000
#01015:00130000
#01118:16
#01112:0016
#0121b:13
#01215:00130000
#01218:0013
#01212:00000013
#0271b:13
#02715:00130000
#02718:0013
#02712:00000013
#0281b:13230000
#02815:0013000000000000
#02812:00001424
#02818:0000000000140000
#0391b:13
#03915:00130000
#03918:0013
#03912:00000013
#03910:41
#0401a:14140000
#04014:0014000000000000
#04012:00001414
#04018:0000000000140000
#0021a:14
#00212:00140000
#00218:0014
#00214:00000014
#04212:2c
#01615:0036363636363636
#00158:66
#00152:0056
#01855:63
#0185b:00000013
#01952:53
#01958:00530000
#0195b:0013
#02058:63
#02052:00000013
#02155:00630000
#0215b:63
#02152:0013
#02252:63
#02258:00000013
#02355:53
#02358:00530000
#0235b:0013
#0245b:53
#02455:00000013
#02558:53
#02555:00530000
#02552:0013
#02658:56
#02652:0056
#03052:66
#03058:00000016
#03152:5313
#03158:5313
#03155:00530000
#0315b:00530000
#03258:56
#03252:00000016
#03355:5313
#0335b:5313
#03352:00530000
#03358:00530000
#03452:56
#03458:00000016
#03555:2313
#0355b:2313
#03552:00530000
#03558:00530000
#03658:56
#03652:00000016
#03752:2313
#03758:2313
#03755:00530000
#0375b:00530000
#03858:56
#03852:0056
#04252:1c
#01752:1c
#0095b:0053
#01052:0053
#01158:56
#01152:0056
#00452:00000014
#0045a:00140000
#00352:00000013
#0035b:00130000
#0285b:00130000
#02852:00000014
#02959:00150000
#02952:00000016
#0405a:00140000
#04052:00000014
#04158:00160000
#04152:00000016
#0025a:64
#00252:00540000
#00258:0064
#00254:00000054
#001380:16
#0013b0:0023
#001321:0016
#002321:23
#0023a0:14
#0023b0:00230000
#002321:00142300
#002380:00001423
#002341:00000014
#003351:23
#0053b1:00001323
#006321:00001323
#007381:00001323
#008351:00001323
#0093b1:0013
#009381:00000023
#010321:0013
#010351:00000023
#011381:16
#0113b1:0023
#011320:0016
#012320:23
#016350:1636363636363636
#017320:2c
#018350:13
#018320:0000002300000000
#019320:13
#019350:00230000
#019381:00130000
#0193b1:0023
#020381:13
#0203b1:0000002300000000
#0213b1:13
#021381:00230000
#021350:00130000
#021320:0023
#022320:13
#022350:0000002300000000
#023350:13
#023320:00230000
#023381:00130000
#0233b1:0023
#0243b1:13
#024381:0000002300000000
#025381:13
#0253b1:00230000
#025350:00130000
#025320:0023
#026380:16
#0263b0:0023
#026321:0016
#027321:23
#029321:00001626
#030321:1600002300000000
#031321:1323
#031351:00330000
#031380:1323
#0313b0:00330000
#032380:16
#0323b0:0000002300000000
#0333b0:1323
#033380:00330000
#033351:1323
#033321:00330000
#034321:16
#034351:0000002300000000
#0353b1:1323
#035381:00330000
#035350:1323
#035320:00330000
#036380:1600002300000000
#037320:1323
#037350:00330000
#037381:1323
#0373b1:00330000
#038381:16
#0383b1:0023
#038320:0016
#039320:23
#0449d0:112100000000000000000000000000000000000000000000000000000000000000000000000000000000000000000000000000000000000000000000000000000000000000000000000000000000000000000000000000000000000000000000000000000000000000000000000000000000000000000000000000000000000000000000000000000000000000000000000000000000000000000000000000000000000000000000000000000000000000000000000000000000000000000000000000000000000000000000000000000000000000000000000000000000000000000000000000000000000000000000000000000000000000000000000000000000000000000000000000000000000000000000000000000000000000000000000000000000000000000000000000000000000000000000000000000000000000000000000000000000000000000000000000000000000000000000000000000000000000000000000000000000000000000000000000000000000000000000000000000000000000000000000000000000000000000000000000000000000000000000000000000000000000000000000000000000000000000000000000000000000000000000000000000000000000000000000000000000000000000000000000000000000000000000000000000000000000000000000000000000000000000000000000000000000000000000000000000000000000000000000000000000000000000000000000000000000000000000000000000000000000000000000000000000000000000000000000000000000000000000000000000000000000000000000000000000000000000000000000000000000000000000000000000000000000000000000000000000000000000000000000000000000000000000000000000000000000000000000000000000000000000000000000000000000000000000000000000000000000000000000000000000000000000000000000000000000000000000000000000000000000000000000000000000000000000000000000000000000000000000000000000000000000000000000000000000000000000000000000000000000000000000000000000000000000000000000000000000000000000000000000000000000000000000000000000000000000000000000000000000000000000000000000000000000000000000000000000000000000000000000000000000000000000000000000000000000000000000000000000000000000000000000000000000000000000000000000000000000000000000000000000000000000000000000000000000000000000000000000000000000000000000000000000000000000000000000000000000000000000000000000000000000000000000000000000000000000000000000000000000000000000000000000000000000000000000000000000000000000000000000000000000000000000000000000000000000000000000000000000000000000000000000000000000000000000000000000000000000000000000000000000000000000000000000000000000000000000000000000000000000000000000000000000000000000000000000000000000000000000000000000000000000000000000000000000000000000000000000000000000000000000000000000000000000000000000000000000000000000000000000000000000000000000000000000000000000000000000000000000000000000000000000000000000000000000000000000000000000000000000000000000000000000000000000000000000000000000000000000000000000000000000000000000000000000000000000000000000000000000000000000000000000000000000000000000000000000000000000000000000000000000000000000000000000000000000000000000000000000000000000000000000000000000000000000000000000000000000000000000000000000000000000000000000000000000000000000000000000000000000000000000000000000000000000000000000000000000000000000000000000000000000000000000000000000000000000000000000000000000000000000000000000000000000000000000000000000000000000000000000000000000000000000000000000000000000000000000000000000000000000000000000000000000000000000000000000000000000000000000000000000000000000000000000000000000000000000000000000000000000000000000000000000000000000000000000000000000000000000000000000000000000000000000000000000000000000000000000000000000000000000000000000000000000000000000000000000000000000000000000000000000000000000000000000000000000000000000000000000000000000000000000000000000000000000000000000000000000000000000000000000000000000000000000000000000000000000000000000000000000000000000000000000000000000000000000000000000000000000000000000000000000000000000000000000000000000000000000000000000000
