This file was generated by Ched 2.7.0.0.
#TITLE ""
#ARTIST ""
#DESIGNER ""
#DIFFICULTY 0
#PLAYLEVEL
#SONGID ""
#WAVE ""
#WAVEOFFSET 0
#JACKET ""
#REQUEST "ticks_per_beat 480"
#00002: 4
#BPM01: 92
#00008: 01
#TIL00: "44'0:1, 43'1919:10000"
#VOLUME: ""
#HISPEED 00
#MEASUREHS 00
#00318:14
#00314:0014
#00512:1414
#00510:41
#00618:1414
#00714:1414
#0081a:1414
#00912:14
#00918:0014
#00910:41
#01012:14
#01018:0014
#01312:13
#01318:0013
#01310:41
#01818:00160000
#01812:2616
#01810:41
#01918:1616
#01912:00160000
#02012:1616
#02018:00160000
#02212:00160000
#02218:2616
#02312:1616
#02318:00160000
#02418:1616
#02412:00160000
#02818:14
#02814:0014
#03012:26161600
#0301f:21
#03010:0041
#03118:16161600
#03212:16161600
#03412:16
#03415:00160000
#03418:0016
#03512:1616
#03518:00160000
#01114:14
#01218:14
#01612:16
#04012:14
#0401a:0014
#01518:0013
#01515:13
#01415:13
#0141b:0013
#0251f:0011
#03618:16
#03615:00160000
#03612:0016
#01713:24
#01719:24
#04214:28
#02618:26
#02712:26
#03812:26
#03918:26
#03910:41
#03358:0016
#03758:0016
#01154:54
#01258:54
#01652:56
#02658:66
#02752:56
#03852:66
#03958:56
#0013a0:1424
#002320:1424
#004380:1424
#011340:14
#011320:0024
#012380:14
#0123a0:0024
#016320:16
#016330:0024
#021380:1626
#025320:1626
#026380:16
#0263a0:0024
#027320:1624
#029380:1424
#033380:1626
#037380:1626
#038320:1624
#039380:16
#0393a0:0024
#041320:1424
#0449d0:112100000000000000000000000000000000000000000000000000000000000000000000000000000000000000000000000000000000000000000000000000000000000000000000000000000000000000000000000000000000000000000000000000000000000000000000000000000000000000000000000000000000000000000000000000000000000000000000000000000000000000000000000000000000000000000000000000000000000000000000000000000000000000000000000000000000000000000000000000000000000000000000000000000000000000000000000000000000000000000000000000000000000000000000000000000000000000000000000000000000000000000000000000000000000000000000000000000000000000000000000000000000000000000000000000000000000000000000000000000000000000000000000000000000000000000000000000000000000000000000000000000000000000000000000000000000000000000000000000000000000000000000000000000000000000000000000000000000000000000000000000000000000000000000000000000000000000000000000000000000000000000000000000000000000000000000000000000000000000000000000000000000000000000000000000000000000000000000000000000000000000000000000000000000000000000000000000000000000000000000000000000000000000000000000000000000000000000000000000000000000000000000000000000000000000000000000000000000000000000000000000000000000000000000000000000000000000000000000000000000000000000000000000000000000000000000000000000000000000000000000000000000000000000000000000000000000000000000000000000000000000000000000000000000000000000000000000000000000000000000000000000000000000000000000000000000000000000000000000000000000000000000000000000000000000000000000000000000000000000000000000000000000000000000000000000000000000000000000000000000000000000000000000000000000000000000000000000000000000000000000000000000000000000000000000000000000000000000000000000000000000000000000000000000000000000000000000000000000000000000000000000000000000000000000000000000000000000000000000000000000000000000000000000000000000000000000000000000000000000000000000000000000000000000000000000000000000000000000000000000000000000000000000000000000000000000000000000000000000000000000000000000000000000000000000000000000000000000000000000000000000000000000000000000000000000000000000000000000000000000000000000000000000000000000000000000000000000000000000000000000000000000000000000000000000000000000000000000000000000000000000000000000000000000000000000000000000000000000000000000000000000000000000000000000000000000000000000000000000000000000000000000000000000000000000000000000000000000000000000000000000000000000000000000000000000000000000000000000000000000000000000000000000000000000000000000000000000000000000000000000000000000000000000000000000000000000000000000000000000000000000000000000000000000000000000000000000000000000000000000000000000000000000000000000000000000000000000000000000000000000000000000000000000000000000000000000000000000000000000000000000000000000000000000000000000000000000000000000000000000000000000000000000000000000000000000000000000000000000000000000000000000000000000000000000000000000000000000000000000000000000000000000000000000000000000000000000000000000000000000000000000000000000000000000000000000000000000000000000000000000000000000000000000000000000000000000000000000000000000000000000000000000000000000000000000000000000000000000000000000000000000000000000000000000000000000000000000000000000000000000000000000000000000000000000000000000000000000000000000000000000000000000000000000000000000000000000000000000000000000000000000000000000000000000000000000000000000000000000000000000000000000000000000000000000000000000000000000000000000000000000000000000000000000000000000000000000000000000000000000000000000000000000000000000000000000000000000000000000000000000000000000000000000000000000000000000000000000000000000000000000000000000000000000000000000000000000000000000000000000000000000000000000000000000000000000000000000000000000000000
