This file was generated by Ched 2.7.0.0.
#TITLE ""
#ARTIST ""
#DESIGNER ""
#DIFFICULTY 0
#PLAYLEVEL
#SONGID ""
#WAVE ""
#WAVEOFFSET 0
#JACKET ""
#REQUEST "ticks_per_beat 480"
#00002: 4
#BPM01: 130
#00008: 01
#TIL00: ""
#VOLUME: ""
#HISPEED 00
#MEASUREHS 00
#00918:14
#00914:0014
#00910:41
#04418:14
#00118:14
#00218:14
#0051a:14
#0061a:14
#00812:14
#00712:14
#0131a:14
#01312:0014
#02214:14
#02318:14
#02414:14
#02512:0016
#02518:26
#02510:41
#04314:14
#04712:14
#0461a:14
#04512:14
#00414:14
#00314:14
#01114:14
#01118:0014
#0141a:14
#01412:0014
#02718:0016
#02712:26
#02912:0016
#02918:26
#03118:0016
#03112:26
#03110:41
#03318:16
#03318:16
#03312:0016
#03312:0016
#03418:1616
#03512:1616
#03712:1616
#03712:1616
#03710:41
#03818:1616
#04018:16
#04012:0016
#05018:0016
#05112:16
#05118:0016
#05110:41
#05318:1616
#05412:1616
#05612:16
#05618:0016
#0411f:11
#02118:24
#04912:00260000
#0491f:00210000
#01710:41
#010380:1424
#012340:1424
#015380:1424
#016340:1424
#0173a0:14
#018380:24
#019320:14
#020340:24
#026380:1626
#028320:1626
#030380:1626
#032320:1626
#036380:1626
#039320:1626
#041380:16
#0423a0:24
#0483a0:1424
#049320:00160000
#050320:26
#052320:1626
#055380:1626
#057320:16003636
#058320:26
