This file was generated by Ched 2.7.0.0.
#TITLE ""
#ARTIST ""
#DESIGNER ""
#DIFFICULTY 0
#PLAYLEVEL
#SONGID ""
#WAVE ""
#WAVEOFFSET 0
#JACKET ""
#REQUEST "ticks_per_beat 480"
#00002: 4
#BPM01: 130
#00008: 01
#TIL00: ""
#VOLUME: ""
#HISPEED 00
#MEASUREHS 00
#0411f:11
#04117:00000000000000000000000000120000
#04115:00000012
#04112:14
#0411b:0013
#0411a:24000000000000000053000000000000
#04118:00000000000000000000005300000000
#04119:0000000000530000
#0381a:00140000
#03816:0014001400000000
#03812:1414
#03818:0000000000000014
#03814:0000000000140000
#0541a:1414
#05412:00140000
#05414:0000000000000014
#05418:0000000000140000
#05416:0014001400000000
#05218:13131413
#05212:0013000000130000
#0521b:0000001300000013
#05214:00140014
#05215:0013
#05115:00000000000000000000000000130013
#05118:0000000000000013
#0511a:1400140000140000
#05112:14141400
#05116:00001400000000140000001400000000
#05110:41
#0501a:14141414
#05016:0014000000000014
#05017:0000001400000000
#05012:00141414
#05015:0000000000140000
#04917:00000000000000000000001300000000
#04912:00000000000000000013001300000000
#04916:0000000000000013
#04915:00000000260000130000000000000000
#04918:0013
#0491f:00210000
#05315:13000000130000000000130013000013
#05318:24000000000013000000001300001300
#0531b:0013
#05312:0013000013000000
#0341a:00140014
#03413:0000001400000000
#03414:0000140000000014
#03416:00000014
#03412:0014
#03418:0013000014000000
#03419:0000000000140000
#03415:13
#0371a:14
#03715:00000000000013000000001300001300
#03712:0013
#0371b:0013000013000000
#03718:00000000130000000000130013000013
#03716:24
#03710:41
#03612:00140014
#03614:0000000014000014
#0361a:1414
#03618:0000140000140000
#03616:00000014
#03613:0000001400000000
#03619:0014000000000000
#03912:0000000000140000
#0391a:1414
#03918:0000001400000013
#03916:00140000
#03914:0014000000000000
#03915:00000000000000000000000000000013
#03515:00000000000000000000000000000013
#03518:0014000000000013
#03512:14000000140000000000001300130000
#0351a:00140000
#03516:1413
#03517:0000000000130000
#0351b:00000000000000130000000000000000
#02812:0000002400000013
#02817:0000000000000013
#02814:0024000000000000
#02816:0024
#02818:00240000
#0281a:24
#02716:24000000000000130000000000130013
#0271b:0000000013000013
#02712:24000013000000000000130000000000
#02717:00000000130000000000001300000000
#0261b:0000000000000013
#02616:0000000024000013
#02618:0024000000000000
#0261a:0000002400000000
#02614:00240000
#02612:24
#02517:00000000000000130000000000130013
#02512:2500000013000013
#02516:00000000130000000000001300000000
#0251b:00000013000000000000130000000000
#02519:25
#02510:41
#02418:0013000053000000
#02417:000000000000000000000000000000000000000000000000000000000000000000000000000000000000000000000000000000000000000000000000000000000000000000000000000000000000000000000000000000000000000000000000000000000000000000000000000000000000000000000000000000000000000000000000000000000000000000000000000000000000000000000000000000000000000000000000000000000000000000000000000000000000000000000000000000000000000000000000000000000000000000000000000000000000000000000000000000000000000000000000000000000000000000000000000000000000000000000000000000000000000000000000000000000000000000000000000000000000000000000000000000000000000000000000000000000000000000000000000000000000000000000000000000000000000000000000000000000000000000000000000000000000000000000000000000000000000000000000000000000000000000000000000000000000000000000000000000000000000000000000000000000000000000000000000000000000000000000000000000000000000000000000000000000000000000000000000000000000000000000000000000000000000000000000000000000000000000000000000000000000000000000000000000000000000000000000000000000000000000000000000000000000000000000000000000000000000000000000000000000000000000000000000000000000000000000000000000000000000000000000000000000000000000000000000000000000000000000000000000000000000000000000000000000000000000000000000000000000000000000000000000000000000000000000000000000000000000000000000000000000000000000000000000000000000000000000000000000000000000000000000000000000000000000000000000000000000000000000000000000000000000000000000000000000000000000000000000000000000000000000000000000000000000000000000000000000000000000000000000000000000000000000000000000000000000000000000000000000000000000000000000000000000000000000000000000000000000000000000000000000000000000000000000000000000000000000000000000000000000000000000000000000000000000000000000000000000000000000000000000000000000000000000000000000000000000000000000000000000000000000000000000000000000000000000000000000000000000000000000000000000000000000000000000000000000000000000000000000000000000000000000000000000000000000000000000000000000000000000000000000000000000000000000000000000000000000000000000000000000000000000000000000000000000000000000000000000000000000000000000000000000000000000000000000000000000000000000000000000000000000000000000000000000000000000000000000000000000000000000000000000000000000000000000000000000000000000000000000000000000000000000000000000000000000000000000000000000000000000000000000000000000000000000000000000000000000000000000000000000000000000000000000000000000000000000000000000000000000000000000000000000000000000000000000000000000000000000000000000000000000000000000000000000000000000000000000000000000000000000000000000000000000000000000000000000000000000000000000000000000000000000000000000000000000000000000000000000000000000000000000000000000000000000000000000000000000000000000000000000000000000000000000000000000000000000000000000000000000000000000000000000000000000000000000000000000000000000000000000000000000000000000000000000000000000000000000000000000000000000000000000000000000000000000000000000000000000000000000000000000000000000000000000000000000000000000000000000000000000000000000000000000000000000000000000000000000000000000000000000000000000000000000000000000000000000000000000000000000000000000000000000000000000000000000000000000000000000000000000000000000001300000000000000000000000000000000000000000000000000000000000000000000000000000000000000000000000000000000000000000000000000000000000000000000000000000000000000000000000000000000000000000000000000000000000000000000000000000000000000000000000000000000000000000000000000000000000000000000000000000000000000000000000000000000000000000000000000000000000000000000000000000000000000000000000000000000000000000000000000000000000000000000000000000000000000000000000000000000000000000000
#02416:0000000000000013
#0241b:00130013
#02412:00000000000000000000000000000000130000000000000000000000000000000054000000000000000000000000000013000000000000000000000000000000
#02415:1353
#0241a:00000000000000000000000000000000000000000000000000000000000000000054000000000000000000000000000000000000000000000000000000000000
#02318:16000000160000001600001300130013
#02312:0016001600000000
#02315:0000000000131313
#01916:0013
#01917:13
#01912:0000000000000033
#01914:00000000000000000000003300000000
#0191b:0000003300000000
#01919:00000033000000000000000000000000
#0031a:12000012001200000000000012000012
#00314:1200121200000000
#00318:00000000000000120000120000000000
#00312:00000000000000000000001200000000
#05815:16
#05717:00000000000000000000000000000015
#05714:0000000000000015
#05719:00000000000000000000000000150000
#05712:00000015
#04817:00000000000000540000001500000000
#04812:13000000000000002400002500002600
#0481a:00140000
#04816:0054
#04818:0000005400000000
#04819:00000000005400000000000000000000
#04616:0000000024000014
#04612:00000014
#0461b:0013000000000000
#04619:0000131300000000
#04614:00000000001300130000000000000000
#04517:00000000000000000000000000120000
#04519:00000012
#04512:2613
#04518:1613000000000000
#04516:0000001400000000
#0451b:00130000
#04515:00000013000000000000005300000000
#04514:0000000000530000
#04513:00000000000000000053000000000000
#04714:00000014000000000000000000000000
#04718:00001400000000000013000000000013
#04715:0000000000130013
#0471b:00000000000000000000001300130000
#04712:0013
#04717:0000222200000000
#04412:0000140000000016
#04414:00000000000054000000001500000000
#0441b:13
#04418:0000000000000026
#04419:00000000000000000000002500000000
#0441a:0024
#04416:0054
#04415:00000000000000540000000000000000
#04413:00000000005400000000000000000000
#04216:0000000024000014
#0421a:00000014
#04212:0013000000000000
#04214:0000131300000000
#04219:00000000001300130000000000000000
#04318:00000014000000000000130000001300
#04314:0014000000000000
#04315:00000000000000000013000000000013
#04312:00000000000000000000001300130000
#0431b:0013
#04317:0000222200000000
#0561b:0000000000000013
#05618:00130000000000130000000013000000
#05615:1300001300130000
#05612:0013
#0551a:0000000000140000
#05512:1414
#05514:0000001400000000
#05516:00140000
#05518:00001400000000000000000000000013
#05515:0000000000000013
#04012:0000000000000013
#04015:00130000000000130000000013000000
#04018:1300001300130000
#0401b:0013
#0331b:00000000000000000000001300001300
#03312:00000000000000000000001300000000
#03318:00000000000000130013000000000000
#03315:0013
#03316:00240000
#03217:0000000000000013
#03212:2400000000000013
#03216:0024
#03218:0000002400000000
#03214:00240000
#0321a:0024000000000000
#02916:24000013000000000000130000000000
#02917:0013
#02912:00000000000000130000000000130000
#02918:0000000000000013
#02915:00000000000000000000000000000013
#0291b:00000000130000000000001300000000
#0291a:24
#03112:24000000130000000000001300000000
#0311b:00000000000000130000000000130000
#03117:00000013000000000000130000000000
#03118:00000000000000000000000000000013
#03115:0000000000000013
#03116:2413
#03110:41
#03016:0000000024000013
#0301b:0000000000000013
#03014:0000002400000000
#03018:00240000
#03012:0024000000000000
#0301a:24
#02218:00000000130000000000000000130000
#02215:0000001300001313
#02212:1313
#0221b:0013000000000000
#02112:2400130000130000
#02115:00000000000000130000000000001300
#02118:00000000000013000000000000000013
#0211b:00001313
#0211a:24
#01612:0000001313000000
#01618:00000000000000130000000000000000
#0161b:0013130000000000
#01615:13000013000000000000000000000000
#01518:00001300130000000013000000000013
#01515:00000013000000000000001300000000
#01512:00000000000013000000000000130000
#0151b:00000000000000130000000000000000
#01415:00130000000013000000001300130000
#01418:00000000130000130000130013000000
#01412:0013
#0141b:0013000000000013
#01312:13001300000000001300000000130000
#0131b:2300000013130000
#01315:00000000001300000000001300000000
#01318:0000131300000013
#01118:13001300000000000013000013000013
#01115:00000013000013001300000000001300
#01112:0000000000130000
#0111b:00130000
#01215:13000013000000001300000000000000
#01218:00000000130000130000000000000000
#01212:0000001300000000
#0121b:0013000000000000
#01012:00000013000000000000000000001300
#01015:00000000001300130000000013000000
#01018:0000131300130000
#0101b:1313
#00918:00000000130000000000001300001300
#00915:2200001300001300
#00912:0013
#00919:22
#00910:41
#00814:0000120000120000
#00818:1200000000120000
#0081a:00000012000000001200000000000000
#00816:00120000000000001200000000000000
#00817:0000001200000000
#00712:00000012
#00714:1200000000000012
#00718:00120000000000000012001200000000
#0071c:00120000
#00716:00000012000000001200000000000000
#0071a:0000001200000000
#00618:00000012000000000000001200000000
#0061a:1200000012000012
#00616:00120000000000000000120000000000
#00617:0000001200000000
#00614:00120000
#00514:00000000001200000000000000001200
#00516:00000012000000001200001200000000
#0051a:00000000000000000012000000000000
#00518:00000000120000120000000000000000
#00512:22
#0051c:22
#00418:00000000000000000000000000120000
#00414:00001200000000000000001200000000
#0041a:00000012000000000000120000000000
#00416:00000000001200000000000000000000
#00417:0012
#00218:00000000001200120000000012000000
#00216:0000121200000012
#0021a:0012000000120000
#00114:1200000000000012
#00116:00000012
#0011a:0012
#00118:0000000000120000
#01712:24
#01710:41
#0335a:14
#03356:00140000
#03352:00000000000000000000005300000000
#03256:0014
#03258:0000001400000000
#03254:00140000
#0325a:0014000000000000
#03252:1400000000000053
#03257:0000000000000053
#03056:0000000014000063
#03054:0000001400000000
#03058:00140000
#03052:0014000000000000
#0305a:14
#0305b:0000000000000063
#02854:0014000000000000
#02852:0000001400000053
#02856:0014
#02858:00140000
#0285a:14
#02857:0000000000000053
#02658:0014000000000000
#0265a:0000001400000000
#02656:0000000014000063
#02654:00140000
#02652:14
#0265b:0000000000000063
#03756:14
#02956:14
#0295a:14
#02957:0053
#0295b:00000000630000000000006300000000
#02756:14
#02752:14
#0275b:0063
#02757:00000000530000000000005300000000
#04955:00160000
#04957:00000000000000000000005300000000
#04552:16
#0415a:14
#04152:54
#05358:14
#03156:1463
#03152:14000000530000000000005300000000
#02559:45
#02552:3553
#02556:00000000630000000000006300000000
#02152:14
#0215a:14
#0215b:00000013
#00955:12
#00959:12
#00952:0013
#01752:14
#0135b:13
#01358:0000000000000013
#00552:12
#0055c:12
#0385a:00140000
#03852:14
#03858:0000000000000014
#03854:0000000000140000
#05452:00140000
#05454:0000000000000014
#05458:0000000000140000
#0545a:14
#05152:00145400
#0515a:14
#05052:00000014
#0505a:0014
#05254:00140014
#05258:0014
#03658:00140000
#03654:0014
#03656:00000014
#03952:0000000000140000
#0395a:0014
#0355a:00140000
#03552:14
#03556:0063
#0345a:00000014
#03452:0014
#02358:16161600
#02352:0016001600000000
#01956:0063
#01957:53
#05855:16
#04656:0000000000000014
#04652:00000014
#04852:53
#04256:0000000000000014
#0425a:00000014
#0445b:63
#0555a:0000000000140000
#05552:0014
#02457:000000000000000000000000000000000000000000000000000000000000000000000000000000000000000000000000000000000000000000000000000000000000000000000000000000000000000000000000000000000000000000000000000000000000000000000000000000000000000000000000000000000000000000000000000000000000000000000000000000000000000000000000000000000000000000000000000000000000000000000000000000000000000000000000000000000000000000000000000000000000000000000000000000000000000000000000000000000000000000000000000000000000000000000000000000000000000000000000000000000000000000000000000000000000000000000000000000000000000000000000000000000000000000000000000000000000000000000000000000000000000000000000000000000000000000000000000000000000000000000000000000000000000000000000000000000000000000000000000000000000000000000000000000000000000000000000000000000000000000000000000000000000000000000000000000000000000000000000000000000000000000000000000000000000000000000000000000000000000000000000000000000000000000000000000000000000000000000000000000000000000000000000000000000000000000000000000000000000000000000000000000000000000000000000000000000000000000000000000000000000000000000000000000000000000000000000000000000000000000000000000000000000000000000000000000000000000000000000000000000000000000000000000000000000000000000000000000000000000000000000000000000000000000000000000000000000000000000000000000000000000000000000000000000000000000000000000000000000000000000000000000000000000000000000000000000000000000000000000000000000000000000000000000000000000000000000000000000000000000000000000000000000000000000000000000000000000000000000000000000000000000000000000000000000000000000000000000000000000000000000000000000000000000000000000000000000000000000000000000000000000000000000000000000000000000000000000000000000000000000000000000000000000000000000000000000000000000000000000000000000000000000000000000000000000000000000000000000000000000000000000000000000000000000000000000000000000000000000000000000000000000000000000000000000000000000000000000000000000000000000000000000000000000000000000000000000000000000000000000000000000000000000000000000000000000000000000000000000000000000000000000000000000000000000000000000000000000000000000000000000000000000000000000000000000000000000000000000000000000000000000000000000000000000000000000000000000000000000000000000000000000000000000000000000000000000000000000000000000000000000000000000000000000000000000000000000000000000000000000000000000000000000000000000000000000000000000000000000000000000000000000000000000000000000000000000000000000000000000000000000000000000000000000000000000000000000000000000000000000000000000000000000000000000000000000000000000000000000000000000000000000000000000000000000000000000000000000000000000000000000000000000000000000000000000000000000000000000000000000000000000000000000000000000000000000000000000000000000000000000000000000000000000000000000000000000000000000000000000000000000000000000000000000000000000000000000000000000000000000000000000000000000000000000000000000000000000000000000000000000000000000000000000000000000000000000000000000000000000000000000000000000000000000000000000000000000000000000000000000000000000000000000000000000000000000000000000000000000000000000000000000000000000000000000000000000000000000000000000000000000000000000000000000000000000000000000000000000000000000000000002300000000000000000000000000000000000000000000000000000000000000000000000000000000000000000000000000000000000000000000000000000000000000000000000000000000000000000000000000000000000000000000000000000000000000000000000000000000000000000000000000000000000000000000000000000000000000000000000000000000000000000000000000000000000000000000000000000000000000000000000000000000000000000000000000000000000000000000000000000000000000000000000000000000000000000000000000000000000000000000
#02456:0000000000000023
#0245b:00630063
#02452:00530053
#02252:0013
#01652:0013
#0165b:00130000
#01255:0013
#01258:00130000
#01152:0000000000130000
#0115b:00130000
#0105b:13
#0145b:0000000000000013
#0013a0:12220000
#001361:00122200
#002361:0000000012220000
#003321:0000000012220000
#003341:00000000000000000000000000120022
#0043c1:0000001222000000
#004321:0000000000000012
#005321:22
#005381:0000000000001222
#006361:0000000000001222
#008391:00000012
#009391:22
#008350:00000012
#009350:22
#0173a0:14
#017380:0023
#017321:0014
#018351:23
#018380:13230000
#018351:00132300
#0183b0:00001323
#018321:00000013
#019321:23
#019370:13
#019390:00000033000000000000000000000000
#0193b0:0000003323000000
#019361:0013
#019341:00000000000000000000003300000000
#019321:0000000000000033
#020321:23
#020380:13000023000000000000000000000000
#020351:00000013000023000000000000000000
#0203b0:0000001323000000
#020321:0000000016260000
#020380:0000000000163600
#0203a0:00000000000000000000000000540000
#0213a0:24
#020321:00000000000000000000000016540000
#021321:24
#024321:00130000
#024351:0000005323000000
#0243b0:00130000
#024380:0000005323000000
#0243b0:00000013
#024370:000000000000000000000000000000000000000000000000000000000000000000000000000000000000000000000000000000000000000000000000000000000000000000000000000000000000000000000000000000000000000000000000000000000000000000000000000000000000000000000000000000000000000000000000000000000000000000000000000000000000000000000000000000000000000000000000000000000000000000000000000000000000000000000000000000000000000000000000000000000000000000000000000000000000000000000000000000000000000000000000000000000000000000000000000000000000000000000000000000000000000000000000000000000000000000000000000000000000000000000000000000000000000000000000000000000000000000000000000000000000000000000000000000000000000000000000000000000000000000000000000000000000000000000000000000000000000000000000000000000000000000000000000000000000000000000000000000000000000000000000000000000000000000000000000000000000000000000000000000000000000000000000000000000000000000000000000000000000000000000000000000000000000000000000000000000000000000000000000000000000000000000000000000000000000000000000000000000000000000000000000000000000000000000000000000000000000000000000000000000000000000000000000000000000000000000000000000000000000000000000000000000000000000000000000000000000000000000000000000000000000000000000000000000000000000000000000000000000000000000000000000000000000000000000000000000000000000000000000000000000000000000000000000000000000000000000000000000000000000000000000000000000000000000000000000000000000000000000000000000000000000000000000000000000000000000000000000000000000000000000000000000000000000000000000000000000000000000000000000000000000000000000000000000000000000000000000000000000000000000000000000000000000000000000000000000000000000000000000000000000000000000000000000000000000000000000000000000000000000000000000000000000000000000000000000000000000000000000000000000000000000000000000000000000000000000000000000000000000000000000000000000000000000000000000000000000000000000000000000000000000000000000000000000000000000000000000000000000000000000000000000000000000000000000000000000000000000000000000000000000000000000000000000000000000000000000000000000000000000000000000000000000000000000000000000000000000000000000000000000000000000000000000000000000000000000000000000000000000000000000000000000000000000000000000000000000000000000000000000000000000000000000000000000000000000000000000000000000000000000000000000000000000000000000000000000000000000000000000000000000000000000000000000000000000000000000000000000000000000000000000000000000000000000000000000000000000000000000000000000000000000000000000000000000000000000000000000000000000000000000000000000000000000000000000000000000000000000000000000000000000000000000000000000000000000000000000000000000000000000000000000000000000000000000000000000000000000000000000000000000000000000000000000000000000000000000000000000000000000000000000000000000000000000000000000000000000000000000000000000000000000000000000000000000000000000000000000000000000000000000000000000000000000000000000000000000000000000000000000000000000000000000000000000000000000000000000000000000000000000000000000000000000000000000000000000000000000000000000000000000000000000000000000000000000000000000000000000000000000000000000000000000000000000000000000000000000000000000000000000000000000000000000000000000000000000000000000000000000000000000005300000000000000000000000000000000000000000000000000000000000000000000000000000000000000000000000000000000000000000000000000000000000000000000000000000000000000000000000000000000000000000000000000000000000000000000000000000000000000000000000000000000000000000000000000000000000000000000000000000000000000000000000000000000000000000000000000000000000000000000000000000000000000000000000000000000000000000000000000000000000000000000000000000000000000000000000000000000000000000000
#025390:25
#024321:00000013
#024361:0000000000000053
#025321:25
#025361:00130000
#025321:00000000000000230000000000000000
#025321:0013
#025361:0000000000230000
#025361:00000000000000000000001300000000
#025321:00000000000000000000000000230000
#0263b1:0000000000130033
#027361:24
#026360:00000000000000000000001300003300
#027320:24
#027370:00130000
#0273b0:00000000000000230000000000000000
#0273b0:0013
#027370:0000000000230000
#027370:00000000000000000000001300000000
#0273b0:00000000000000000000000000230000
#028320:0000000000130033
#029360:24
#028371:00000000000000000000001300003300
#0293a1:24
#0293b1:00130000
#029371:00000000000000230000000000000000
#029371:0013
#0293b1:0000000000230000
#0293b1:00000000000000000000001300000000
#029371:00000000000000000000000000230000
#030321:0000000000140000
#030361:0000000000000033
#031321:24
#030370:00000000000000000000001300000000
#0303b0:0000000000000033
#031360:24
#031320:00130000
#031360:00000000000000230000000000000000
#031360:0013
#031320:0000000000230000
#031320:00000000000000000000001300000000
#031360:00000000000000000000000000230000
#0323a0:0000000000140000
#032370:0000000000000033
#0333a0:24
#032361:00000000000000000000001300000000
#032321:0000000000000033
#033361:34240000
#033321:00000000000000000000001300000000
#033361:0000000000000023
#035361:0013
#035321:0000000000230000
#0383a1:00001424
#038320:00000014
#039320:24
#040380:0013000000000000
#0403b0:00230000
#040351:00130000
#040321:0000002300000000
#041321:14
#041361:0024
#041321:00000000000000000000000000000013
#042321:00230000000000000000000000000000
#0423b0:00130000230000000000000000000000
#042360:00001424
#0433a0:14545454545454542400000000000000000000000000000000000000000000000000000000000000000000000000000000000000000000000000000000000000
#043390:0054005400540054005400540054005400000000000000000000000000000000000000000000000000000000000000000000000000000000000000000000000000000000000000000000000000000000000000000000000000000000000000000000000000000000000000000000000000000000000000000000000000000000
#0443b0:13
#044360:00240000
#0453b0:00000000000000000000000000000013
#0463b0:00230000000000000000000000000000
#046321:00130000230000000000000000000000
#046361:00001424
#047321:14545454545454542400000000000000000000000000000000000000000000000000000000000000000000000000000000000000000000000000000000000000
#047331:0054005400540054005400540054005400000000000000000000000000000000000000000000000000000000000000000000000000000000000000000000000000000000000000000000000000000000000000000000000000000000000000000000000000000000000000000000000000000000000000000000000000000000
#048321:13
#048361:00240000
#048381:0000000000000016
#048351:00000000000000000000000000000056
#049351:00260000
#049371:00000000000000000000001300000000
#0493b1:0000000000000023
#051321:0014
#051361:0000000000240000
#054321:00001424
#0543a0:00000014
#0553a0:24
#056350:0013000000000000
#056320:00230000
#056381:00130000
#0563b1:0000002300000000
#057341:1353535353535353230000000000000000000000000000000000000000000000
#057351:00530053005300530053005300530053000000000000000000000000000000000000000000000000000000000000000000000000000000000000000000000000
#057390:0000000000000000135353535353535323000000000000000000000000000000
#057380:00000000000000000000000000000000005300530053005300530053005300530000000000000000000000000000000000000000000000000000000000000000
#057321:0000000000000000000000000000000013535353230000000000000000000000
#057331:00000000000000000000000000000000000000000000000000000000000000000053005300530053000000000000000000000000000000000000000000000000
#0573b0:0000000000000000000000000000000000000000135353532300000000000000
#0573a0:00000000000000000000000000000000000000000000000000000000000000000000000000000000005300530053005300000000000000000000000000000000
#024950:0013
#024920:00000000000000000000000000000000000000000000000000000000000000000024000000000000000000000000000000000000000000000000000000000000
#024981:0013
#0249a1:00000000000000000000000000000000000000000000000000000000000000000024000000000000000000000000000000000000000000000000000000000000
#0419b1:0013
#041981:00000000000000000000002300000000
#044921:00140000
#044961:000000000000000000000000000000000000000000000000000000000000000000000000000000000000000000000000000000000000000000000000000000000000000000000000000000000000000000000000000000000000000000000000000000000000000000000000000000000000000000000000000000000000000000000000000000000000000000000000000000000000000000000000000000000000000000000000000000000000000000000000000000000000000000000000000000000000000000000000000000000000000000000000000000000000000000000000000000000000000000000000000000000000000000000000000000000000000000000000000000000000000000000000000000000000000000000000000000000000000000000000000000000000000000000000000000000000000000000000000000000000000000000000000000000000000000000000000000000000000000000000000000000000000000000000000000000000000000000000000000000000000000000000000000000000000000000000000000000000000000000000000000000000000000000000000000000000000000000000000000000000000000000000000000000000000000000000000000000000000000000000000000000000000000000000000000000000000000000000000000000000000000000000000000000000000000000000000000000000000000000000000000000000000000000000000000000000000000000000000000000000000000000000000000000000000000000000000000000000000000000000000000000000000000000000000000000000000000000000000000000000000000000000000000000000000000000000000000000000000000000000000000000000000000000000000000000000000000000000000000000000000000000000000000000000000000000000000000000000000000000000000000000000000000000000000000000000000000000000000000000000000000000000000000000000000000000000000000000000000000000000000000000000000000000000000000000000000000000000000000000000000000000000000000000000000000000000000000000000000000000000000000000000000000000000000000000000000000000000000000000000000000000000000000000000000000000000000000000000000000000000000000000000000000000000000000000000000000000000000000000000000000000000000000000000000000000000000000000000000000000054240000000000000000000000000000000000000000000000000000000000000000000000000000000000000000000000000000000000000000000000000000000000000000000000000000000000000000000000000000000000000000000000000000000000000000000000000000000000000000000000000000000000000000000000000000000000000000000000000000000000000000000000000000000000000000000000000000000000000000000000000000000000000000000000000000000000000000000000000000000000000000000000000000000000000000000000000000000000000000000000000000000000000000000000000000000000000000000000000000000000000000000000000000000000000000000000000000000000000000000000000000000000000000000000000000000000000000000000000000000000000000000000000000000000000000000000000000000000000000000000000000000000000000000000000000000000000000000000000000000000000000000000000000000000000000000000000000000000000000000000000000000000000000000000000000000000000000000000000000000000000000000000000000000000000000000000000000000000000000000000000000000000000000000000000000000000000000000000000000000000000000000000000000000000000000000000000000000000000000000000000000000000000000000000000000000000000000000000000000000000000000000000000000000000000000000000000000000000000000000000000000000000000000000000000000000000000000000000000000000000000000000000000000000000000000000000000000000000000000000000000000000000000000000000000000000000000000000000000000000000000000000000000000000000000000000000000000000000000000000000000000000000000000000000000000000000000000000000000000000000000000000000000000000000000000000000000000000000000000000000000000000000000000000000000000000000000000000000000000000000000000000000000000000000000000000000000000000000000000000000000000000000000000000000000000000000000000000000000000000000000000000000000000000000000000000000000000000000000000000000000000000000000000000000000000000000000000000000000000000000000000000000000000000000000000000000000000000000000000000000
#045921:0013
#045951:00000000000000000000002300000000
#0489a1:00140000
#048961:000000000000000000000000000000000000000000000000000000000000000000000000000000000000000000000000000000000000000000000000000000000000000000000000000000000000000000000000000000000000000000000000000000000000000000000000000000000000000000000000000000000000000000000000000000000000000000000000000000000000000000000000000000000000000000000000000000000000000000000000000000000000000000000000000000000000000000000000000000000000000000000000000000000000000000000000000000000000000000000000000000000000000000000000000000000000000000000000000000000000000000000000000000000000000000000000000000000000000000000000000000000000000000000000000000000000000000000000000000000000000000000000000000000000000000000000000000000000000000000000000000000000000000000000000000000000000000000000000000000000000000000000000000000000000000000000000000000000000000000000000000000000000000000000000000000000000000000000000000000000000000000000000000000000000000000000000000000000000000000000000000000000000000000000000000000000000000000000000000000000000000000000000000000000000000000000000000000000000000000000000000000000000000000000000000000000000000000000000000000000000000000000000000000000000000000000000000000000000000000000000000000000000000000000000000000000000000000000000000000000000000000000000000000000000000000000000000000000000000000000000000000000000000000000000000000000000000000000000000000000000000000000000000000000000000000000000000000000000000000000000000000000000000000000000000000000000000000000000000000000000000000000000000000000000000000000000000000000000000000000000000000000000000000000000000000000000000000000000000000000000000000000000000000000000000000000000000000000000000000000000000000000000000000000000000000000000000000000000000000000000000000000000000000000000000000000000000000000000000000000000000000000000000000000000000000000000000000000000000000000000000000000000000000000000000000000000000000000000000000054240000000000000000000000000000000000000000000000000000000000000000000000000000000000000000000000000000000000000000000000000000000000000000000000000000000000000000000000000000000000000000000000000000000000000000000000000000000000000000000000000000000000000000000000000000000000000000000000000000000000000000000000000000000000000000000000000000000000000000000000000000000000000000000000000000000000000000000000000000000000000000000000000000000000000000000000000000000000000000000000000000000000000000000000000000000000000000000000000000000000000000000000000000000000000000000000000000000000000000000000000000000000000000000000000000000000000000000000000000000000000000000000000000000000000000000000000000000000000000000000000000000000000000000000000000000000000000000000000000000000000000000000000000000000000000000000000000000000000000000000000000000000000000000000000000000000000000000000000000000000000000000000000000000000000000000000000000000000000000000000000000000000000000000000000000000000000000000000000000000000000000000000000000000000000000000000000000000000000000000000000000000000000000000000000000000000000000000000000000000000000000000000000000000000000000000000000000000000000000000000000000000000000000000000000000000000000000000000000000000000000000000000000000000000000000000000000000000000000000000000000000000000000000000000000000000000000000000000000000000000000000000000000000000000000000000000000000000000000000000000000000000000000000000000000000000000000000000000000000000000000000000000000000000000000000000000000000000000000000000000000000000000000000000000000000000000000000000000000000000000000000000000000000000000000000000000000000000000000000000000000000000000000000000000000000000000000000000000000000000000000000000000000000000000000000000000000000000000000000000000000000000000000000000000000000000000000000000000000000000000000000000000000000000000000000000000000000000000000000000000
