This file was generated by Ched 2.7.0.0.
#TITLE ""
#ARTIST ""
#DESIGNER ""
#DIFFICULTY 0
#PLAYLEVEL
#SONGID ""
#WAVE ""
#WAVEOFFSET 0
#JACKET ""
#REQUEST "ticks_per_beat 480"
#00002: 4
#BPM01: 130
#00008: 01
#TIL00: ""
#VOLUME: ""
#HISPEED 00
#MEASUREHS 00
#00918:0000130013000013
#00915:0000001300001300
#00912:23
#0091b:23
#00910:41
#02112:24130013
#02118:0000000013000013
#02115:00000000000013000000000000000013
#0211b:0000000000130000
#0211a:24
#0371b:2300000013000013
#03712:0013000013000000
#03715:0000130000130000
#03718:0000001300001300
#03710:41
#03812:1313
#0381b:0013000000000013
#03818:0000130000130000
#03815:0000001300001300
#03915:0013000013000013
#03912:13
#03918:0000130000130000
#0391b:0000001300000000
#0331b:00000000230000130000000000000000
#03312:00230000
#03518:00000013
#03515:0000000000000013
#03516:14
#0351b:0013000000000000
#01018:0013
#01015:1300000000130000
#0101b:00130013
#01012:0000001300000013
#01118:13001313
#0111b:00130000
#01115:0013001300000013
#01112:0000000000130000
#01218:00131300
#01212:0013000000000000
#01215:0000001300000000
#0121b:13
#01518:0013000013000000
#01515:00130013
#01512:0013
#0151b:00000013
#01618:13130000
#01615:0013001300000000
#0161b:0013
#02218:0013000000000013
#02215:00130013
#02212:0000001300000000
#0221b:1313
#02312:1313
#0231b:1313
#02318:0000130000000013
#02315:0000001300001300
#02415:13000013
#02418:00130013
#02412:0023
#0241b:0023
#0341b:1300000000130000
#03412:0000001300000013
#03417:0014
#03415:0013000000001400
#03418:00130000
#0401b:0000130000130000
#04018:13000000000000130000000013000000
#04015:0000001313000013
#04012:0013000000000000
#04112:13
#04118:00000012
#04116:00000000000000000000000000000012
#0411f:11
#0011b:0013
#00115:0000000000130000
#00118:00000013
#00112:0000000000000013
#0021b:0013000000000000
#00215:00130000
#0021a:0000001300000000
#00214:0013
#00219:0000000000130000
#00213:00000013
#00218:0000000000000013
#00312:13
#0041b:00130000
#00418:0013
#00415:00000013
#00518:0000130000130000
#00515:00001313
#00512:23
#0051b:23
#0061b:13
#00612:13
#00618:00001313
#00615:0000130000130000
#0071b:1313
#00712:1313
#00715:0000130000000013
#00718:0000001300001300
#0081b:13
#00812:13
#00815:00131300
#00818:0000001300130000
#0131b:0000000000000013
#01318:0013000000000000
#01313:00130000
#01319:0000001300000000
#0131a:0000000000130000
#01315:00000013
#01314:0013
#01312:23
#01412:0000000000000013
#01415:0013000000000000
#0141a:00130000
#01414:0000001300000000
#01413:0000000000130000
#01418:00000013
#01419:0013
#01718:0013
#01710:41
#01815:0013
#02018:00001414
#02014:00000014
#03012:0014000000000000
#03014:0000001400000000
#03015:0000000000130013
#03018:00000000240000000000001300000000
#03016:24
#0301a:0024
#0321a:0014000000000000
#03218:0000001400130013
#03215:00000000000000000000001300000000
#03216:24
#03214:00240000
#03212:0024
#02614:0014000000000000
#02612:0000001400000000
#02615:0000000000130013
#02618:00000000240000000000001300000000
#0261a:24
#02616:0024
#02818:0014000000130013
#0281a:0000001400000000
#02815:00000000000000000000001300000000
#02812:24
#02814:00240000
#02816:0024
#0251a:24000000000000001400000000340000
#02517:00000000000000000000341400000000
#02512:24
#02510:41
#02712:24000000000000001400000000340000
#02715:00000000000000000000341400000000
#0271a:24
#0291a:24000000140000000000341400000000
#02916:00000000000000341400000000340000
#02912:24
#03112:24000000140000000000341400000000
#03116:00000000000000341400000000340000
#0311a:24
#03110:41
#0361b:13
#03618:0013000000130000
#03615:00131300
#03612:0000001300000000
#04215:00000000001300130000000000000000
#04218:0000131300000000
#0421b:0023
#04212:00330000000000000000000000000000
#04414:0000001424000000
#0441b:13
#04418:00000000000000140000000000000000
#04412:0000000000000038
#04413:00000000000000000000003600000000
#05312:2300000013000013
#0531b:0013000013000000
#05318:0000130000130000
#05315:0000001300001300
#0541b:1313
#05412:0013000000000013
#05415:0000130000130000
#05418:0000001300001300
#05518:0013000013000013
#0551b:13
#05515:0000130000130000
#05512:0000001300000000
#04912:00000000000000130000000000000000
#0491f:00210000
#05115:00000013
#05118:0000000000000013
#05116:14
#05112:0013000000000000
#05110:41
#05012:1300000000130000
#0501b:0000001300000013
#05015:00131400
#05017:00000014
#05018:0013000000000000
#05612:0000130000130000
#05615:13000000000000130000000013000000
#05618:0000001313000013
#0561b:0013000000000000
#05212:13
#05215:0013000000130000
#05218:00131300
#0521b:0000001300000000
#04812:13
#04818:0000001424000000
#04814:00000000000000140000000000000000
#04817:00000000000000000000003600000000
#04816:0000000000000038
#04518:00000000000013000000000000000012
#04516:00000012
#04512:0013
#0451b:0013000000130000
#04515:00130000
#04615:0000131300000000
#04618:00000000001300130000000000000000
#04612:0023
#0461b:00330000000000000000000000000000
#05712:1300000013001313
#05713:00000000000000000000000000130013
#05714:0000000000130000
#05715:00130000
#0571b:1300000013001313
#0571a:00000000000000000000000000130013
#05719:0000000000130000
#05718:00130000
#04318:00220000
#04316:0000002200000000
#04718:0000002200000000
#04716:00220000
#00552:13
#0055b:13
#00958:0013
#00952:13
#0095b:13
#03852:13
#03858:0000000000130000
#0385b:0000000000000013
#0115b:00130000
#01152:0000000000130000
#0165b:0013
#02152:14000013
#0215a:14
#0225b:0013
#02352:1313
#0235b:1313
#02455:13000063
#02458:00130053
#0375b:13
#03958:0000000000130000
#04152:53
#04156:00000000000000000000000000000062
#01055:13
#01258:0013
#0135b:0000000000000013
#01352:13
#01452:0000000000000013
#02058:00000054
#02054:00000064
#02552:14
#0255a:1464
#02557:00000000000000000000005400000000
#0315a:14
#03152:14000000540000000000005400000000
#03156:0064
#03352:00130000
#0335b:00130000
#02752:1454
#0275a:14
#02755:00000000000000000000006400000000
#02952:14
#0295a:14000000640000000000006400000000
#02956:0054
#03556:0014
#04252:0013000000000000
#0445b:63
#0545b:13
#05455:0000000000130000
#05452:0000000000000013
#05555:0000000000130000
#05352:13
#05156:0014
#0465b:0013000000000000
#04852:53
#04558:00000000000000000000000000000052
#04552:18
#04956:00180000
#05752:5300000053005353
#05753:00000000000000000000000000630063
#05754:0000000000630000
#05755:00630000
#0575b:6300000063006363
#0575a:00000000000000000000000000530053
#05759:0000000000530000
#05758:00530000
#0585b:13
#05852:13
#0265a:14
#02658:00140000
#02656:0014
#02852:14
#02854:00140000
#02856:0014
#03056:14
#03058:00140000
#0305a:0014
#03256:14
#03254:00140000
#03252:0014
#0013b0:13230000
#001321:13230000
#0033b1:00132300
#003321:00000013
#004321:23
#008321:00000013
#009321:23
#0083b0:00000013
#0093b0:23
#017320:14
#018320:24
#0183a1:14
#0193a1:24
#019320:1424
#0193a1:0014
#0203a1:24
#020340:1424
#020340:00000014
#021320:24
#020381:00000014
#0213a1:24
#024351:00000013
#025321:24
#024380:00000013
#0253a0:24
#0253a0:00000000140000343400000000343400
#025370:00000000000000000000343400000000
#0263a0:24
#027320:00000000140000343400000000343400
#027350:00000000000000000000343400000000
#028320:24
#0293a0:00000000140000000000343400000000
#029360:00000000000000343400000000343400
#030360:24
#031320:00000000140000000000343400000000
#031360:00000000000000343400000000343400
#032360:24
#033320:13230000
#0333b1:13230000
#033351:0000000013000023
#033321:00000000000000000000003300000000
#035361:00142400
#0363b1:00000013
#0373b1:23
#041321:13
#041361:0022
#041361:00000000000000000000000000120032
#042321:00332300000000000000000000000000
#0423b1:00001323
#043321:13535353535353532300000000000000000000000000000000000000000000000000000000000000000000000000000000000000000000000000000000000000
#043331:0053005300530053005300530053005300000000000000000000000000000000000000000000000000000000000000000000000000000000000000000000000000000000000000000000000000000000000000000000000000000000000000000000000000000000000000000000000000000000000000000000000000000000
#0433b1:0013
#0433a1:00000000000000000033000000000033
#043391:0000000000330033
#043381:00000000000000000000003300330000
#0443b1:33
#044381:00240000
#044341:0014
#044331:00000000000000000000003600000000
#044321:0000000000000038
#045321:28
#045381:00000000000000000000000000120032
#0463b1:00332300000000000000000000000000
#046321:00001323
#0473b1:13535353535353532300000000000000000000000000000000000000000000000000000000000000000000000000000000000000000000000000000000000000
#0473a1:0053005300530053005300530053005300000000000000000000000000000000000000000000000000000000000000000000000000000000000000000000000000000000000000000000000000000000000000000000000000000000000000000000000000000000000000000000000000000000000000000000000000000000
#047321:0013
#047331:00000000000000000033000000000033
#047341:0000000000330033
#047351:00000000000000000000003300330000
#048321:33
#048341:00240000
#048381:0014
#048371:00000000000000000000003600000000
#048361:0000000000000038
#049361:00280000
#049381:0000000013000023
#0493b1:00000000000000000000003300000000
#051361:00142400
#052321:00000013
#053321:23
#057321:1300000033003333
#057351:00330000
#057341:0000000000330000
#057331:00000000000000000000000000330033
#058321:23
#0573b0:1300000033003333
#057380:00330000
#057390:0000000000330000
#0573a0:00000000000000000000000000330033
#0583b0:23
