This file was generated by Ched 2.7.0.0.
#TITLE ""
#ARTIST ""
#DESIGNER ""
#DIFFICULTY 0
#PLAYLEVEL
#SONGID ""
#WAVE ""
#WAVEOFFSET 0
#JACKET ""
#REQUEST "ticks_per_beat 480"
#00002: 4
#BPM01: 130
#00008: 01
#TIL00: ""
#VOLUME: ""
#HISPEED 00
#MEASUREHS 00
#00918:00140014
#00914:0014
#00912:24
#00910:41
#02112:00000014
#02114:00140000
#02118:2414
#02312:1414
#0231a:00140014
#01014:14
#0101a:00140000
#01012:0014
#01018:00000014
#04414:00140000
#04418:0024
#0441a:0000000000000034
#04419:00000000000000000000003400000000
#00118:14141414
#00218:14141414
#00314:14141414
#00414:14141414
#00514:00140000
#00516:0014
#00518:24000014
#0061a:14
#00612:00140000
#00614:0014
#00616:00000014
#0081a:0014
#00812:00140000
#00718:14
#01112:14
#01116:00140000
#0111a:0014
#01114:00000014
#01218:1414
#01214:00140000
#01318:00140000
#01314:0014
#0131a:00000014
#01312:24
#01414:14
#0141a:00140000
#01412:0014
#01418:00000014
#01512:14000014
#01516:00140000
#0151a:0014
#0161a:14
#01616:00140000
#01612:0014
#0221a:0014
#02218:14
#02214:00140000
#02412:14
#02418:0014
#02414:00000014
#02512:00140000
#02516:0014
#0251a:24000014
#02510:41
#0271a:00140000
#02716:0014
#02712:24000014
#02912:00140000
#02916:0014
#0291a:24000014
#0311a:00140000
#03116:0014
#03112:24000014
#03110:41
#03314:0014
#03318:00240014
#03412:14000014
#03416:00140000
#0341a:0014
#03516:14
#0351a:00140000
#03512:0014
#03518:00000014
#03614:1414
#0361a:00140000
#03618:00000014
#0371a:00140000
#03716:0014
#03712:24000014
#03710:41
#03818:14
#03814:00140000
#0381a:0014
#03812:00000014
#03918:14
#03914:00140000
#0391a:0014
#03912:00000014
#04018:14
#04014:00140000
#0401a:0014
#04016:00000014
#04118:00000014
#0411f:11
#04318:14
#04314:00140000
#04214:14
#0421a:00140000
#04212:0024
#04818:00140000
#04814:0024
#04514:00000014
#04512:00140000
#0451a:0014
#04714:14
#04718:00140000
#04618:14
#04612:00140000
#0461a:0024
#04918:0014
#04914:00000014
#0491f:00210000
#0501a:14000014
#05016:00140000
#05012:0014
#05116:14
#05112:00140000
#0511a:0014
#05114:00000014
#05110:41
#05218:1414
#05212:00140000
#05214:00000014
#05312:00140000
#05316:0014
#0531a:24000014
#05414:14
#05418:00140000
#05412:0014
#0541a:00000014
#05514:14
#05518:00140000
#05512:0014
#0551a:00000014
#05614:14
#05618:00140000
#05612:0014
#05616:00000014
#03212:0000000000140000
#03214:0014
#0321a:0014000000000000
#03218:14
#0301a:0000000000140000
#03018:0014
#03012:0014000000000000
#03014:14
#02614:14
#02618:0014
#01914:0014
#01912:14
#02012:14
#0171a:14
#01718:0014
#01710:41
#0181a:14
#0571a:14
#05718:00140000
#02152:00000014
#02158:14
#02352:1414
#0235a:00140014
#00558:14
#01352:14
#03358:00140000
#0455a:14
#00952:14
#01258:0014
#0225a:0014
#02452:14
#0255a:14
#02652:00140000
#0265a:00000014
#02654:64
#02658:0054
#02752:14
#02858:00140000
#02854:00000014
#0295a:14
#03054:64140000
#03058:00005414
#0305a:0000000000240000
#03052:0024000000000000
#03152:14
#03258:54140000
#03254:00006414
#03252:0000000000240000
#0325a:0024000000000000
#03752:14
#0385a:0014
#03852:00000014
#04952:00140000
#05452:0014
#0545a:00000014
#0535a:14
#0585a:14
#01954:0064
#01952:54
#02052:54
#0175a:64
#01758:0054
#0185a:64
#0575a:64
#05758:00540000
#007340:00142400
#007380:00000014
#008380:24
#008320:00000014
#009320:24
#0173a0:14
#017380:0034
#0183a0:34
#018380:0024
#019320:14
#019340:0034
#020320:34
#020340:0024
#020380:00000014
#021380:24
#026340:14
#026320:00240000
#026380:0014
#0263a0:00000024
#028380:14240000
#028340:00001424
#030340:14240000
#030320:0054000000000000
#030380:00001424
#0303a0:0000000000540000
#032380:14240000
#0323a0:0054000000000000
#032340:00001424
#032320:0000000000540000
#033380:14240000
#041320:1424
#042320:00001424
#0433a0:0014
#0443a0:24
#044380:0014
#044390:00000000000000000000003400000000
#0443a0:0000000000000034
#0453a0:24
#0463a0:00001424
#047320:0014
#048320:24
#048340:0014
#048330:00000000000000000000003400000000
#048320:0000000000000034
#049320:00240000
#0573a0:14003434
#057380:00340000
#057390:0000000000340034
#0583a0:24
