This file was generated by Ched 2.7.0.0.
#TITLE " "
#ARTIST ""
#DESIGNER ""
#DIFFICULTY 0
#PLAYLEVEL
#SONGID ""
#WAVE ""
#WAVEOFFSET 0
#JACKET ""
#REQUEST "ticks_per_beat 480"
#00002: 4
#BPM01: 183
#00008: 01
#TIL00: ""
#VOLUME: ""
#HISPEED 00
#MEASUREHS 00
#0021a:14
#00212:0014
#00318:14
#00314:0014
#01218:14
#01314:14
#01612:14
#0171a:14
#01814:14
#03218:2616
#03210:41
#0481a:14
#0491a:14
#05012:14
#05112:14
#05218:14
#05318:14
#05414:14
#05514:14
#06418:14
#06414:0014
#00018:14
#00114:14
#01918:14
#01914:0014
#0201a:14
#02010:41
#02112:14
#02218:14
#03312:1616
#03418:16
#03412:0016
#03612:2616
#03718:1616
#03812:16
#03818:0016
#04018:14
#04114:14
#04414:14
#04410:41
#04518:14
#07912:0016
#07918:26
#0791f:21
#08112:16
#08118:0016
#0831a:14
#08412:14
#08712:14
#0881a:14
#09314:14
#09418:14
#09512:14
#0961a:14
#0651f:11
#06519:0034
#06618:34
#06814:34
#06713:0034
#0701a:34
#06919:0034
#08010:41
#00810:41
#05610:41
#0043a0:14
#0053a0:24
#006320:14
#007320:24
#008380:14
#0083a0:0000000034000034
#0093a0:0024
#010340:14
#010320:0000000034000034
#011320:0024
#0143a0:14
#014380:0000000000000034
#015380:0024
#023340:1424
#024380:14
#0253a0:24
#026340:14
#027320:24
#0283a0:14
#029380:24
#030320:14
#031340:24
#035380:16362600
#039320:16362600
#0423a0:14
#043380:24
#046320:14
#047340:3424
#0563a0:14
#057380:24
#058320:14
#059340:24
#060380:14
#0613a0:24
#062340:14
#063320:24
#0653a0:14
#065390:0034
#066380:3424
#067320:14
#067330:0034
#068340:3424
#069380:14
#069390:0034
#0703a0:3424
#071340:14
#071330:0034
#072320:34
#072330:0034
#073340:34
#074320:24
#075380:14
#0753a0:0000000034000034
#0763a0:0024
#077340:14
#077320:0034
#078320:24
#080380:1626
#082320:16362600
#085380:14
#0863a0:24
#089340:14
#090320:3424
#091380:14
#0923a0:3424
#097340:1434
#098320:24
