This file was generated by Ched 2.7.0.0.
#TITLE " "
#ARTIST ""
#DESIGNER ""
#DIFFICULTY 0
#PLAYLEVEL
#SONGID ""
#WAVE ""
#WAVEOFFSET 0
#JACKET ""
#REQUEST "ticks_per_beat 480"
#00002: 4
#BPM01: 183
#00008: 01
#TIL00: ""
#VOLUME: ""
#HISPEED 00
#MEASUREHS 00
#0651f:11
#06515:0000000000001313
#06518:00000000000000000000000000130000
#0651a:1400140000140000
#06512:1414
#06516:0014001400000000
#03612:2400000024001424
#0361a:2400000024001414
#03618:0013001300000000
#03615:00230000
#03712:0013000024001300
#03715:0000001300000000
#03718:00130000
#0371b:00000013
#0371a:0024
#0321a:2400000024001424
#03212:2400000024001414
#03215:0013001300000000
#03218:00230000
#03210:41
#08615:00000000000000000000000000130000
#08618:0000000000001313
#0861b:0013
#08612:0000000000130000
#08616:00000013000000000000000000000000
#0841b:0013001300001300
#08414:0000130000000013
#08412:1300001300130000
#08417:0013
#08516:00130000000000000013000000000000
#0851a:00130000
#08513:0000001300000000
#08512:0000000000000013
#08519:00000013
#07613:00000014
#07618:00141600
#07614:0000001400000000
#07612:0024
#07716:00140000
#07718:2416
#07714:0024
#0711b:13000000000000000000000000000013
#07112:1300000000000013
#0711a:0000000000132300
#07113:00000000000000000000001300000000
#07114:0000001323000000
#07119:00000000000000130000000000000000
#07118:0013230000000000
#07115:00000013000000000000000000000000
#09712:1c
#09715:00000022
#09717:0000000022000022
#09719:0000000000220000
#0971b:0000002200000000
#01612:14
#01616:0014001400000000
#0161a:14140000
#01617:0000000000130000
#01618:00000013
#01619:0000000000000013
#0171a:14
#01712:00140000
#01716:0014001400130000
#01715:00000013
#01714:0000000000000013
#01812:14
#0181a:00140000
#01816:0014001400141400
#01515:0000000000001313
#01518:00000000000000000000000000130000
#0151b:0000000000130000
#01512:0013
#01912:00000014
#0301a:14000000000000000000000034343414
#03012:00000000000000000000000000000014
#03016:0014
#03017:00000000000014000034000000000000
#03018:0000140000340000
#03019:00001400000000000000003400000000
#0951a:0000001400000000
#09518:00000000140000000000000000333333
#09514:14
#09516:0014000000000000
#09513:00000000000000000033333300000000
#09419:00000000000014000000000000333333
#09417:00140000
#09413:14
#09415:0014000000000000
#09414:00000000000000000033333300000000
#09612:1313
#0961b:0013000000000013
#09618:00130013
#09615:0000001300130000
#0931a:14000000000000000000000000333333
#09318:0000001400000000
#09316:00140000
#09312:14
#09314:0014000000000000
#09315:00000000000000000033333300000000
#09212:0016
#09216:00000014000000000000000022000000
#09218:0026
#0921a:0000002200000000
#0921b:00220000
#0921c:0022000000000000
#09116:00140000000000000014000000000000
#09119:0000151500000000
#09112:0000001500001616
#09118:0000000000000016
#09012:0000240000001414
#09017:00000013000000000000000000000000
#0901a:0000000000002414
#09016:0024
#06816:14141300
#06812:00130053
#06817:00000013
#0681a:00000000000000000000000000000053
#06819:0000000000000053
#06818:00000000000000000000000000530000
#06813:00000000000000000000005300000000
#06814:0000000000530000
#06815:00000000000000000053000000000000
#08914:00000013
#0891b:0000000000000013
#08917:00130000000000000013000000000000
#0891a:0000001300000000
#08913:00130000
#08819:0000130000000013
#0881b:1300001300130000
#08816:0013
#08812:0013001300001300
#08715:0013000000000000
#08718:00130000
#08717:0000000013000013
#08716:0000000000130000
#08712:1300001300000000
#0871b:1300001300000000
#08318:0013000000000000
#08315:00130000
#08316:0000000013000013
#08317:0000000000130000
#0831b:1300001300000000
#08312:1300001300000000
#08115:0013001300000000
#08118:00130000
#08112:00001314
#0811a:0014
#0811b:13
#08116:0000000000140000
#08016:00000014
#0801b:00000013
#08018:0000001300000000
#08012:0013000024000000
#08015:00130000
#0801a:0024
#08010:41
#03318:0000001300000000
#03315:00130000
#0331b:0013000000001300
#03312:00002413
#0331a:0024
#07916:0000240000002414
#07912:2400000024001424
#07914:0000001400000000
#07918:0014000000000000
#0791f:21
#0791a:2424
#07812:0000000000231300
#0781b:0000000000132300
#07819:0022
#07817:00220000
#07815:22
#07518:24001614
#07516:00140000
#07512:0000000000000016
#0751a:0000000000000024
#07514:0024
#07318:16
#07312:26
#0741c:00120000
#07418:00000026
#07218:0000000000162600
#07212:23000014000015002500001600000000
#07219:00000000000000150000000000000000
#0721a:0014240000000000
#0691b:5313001300001313
#06912:0000000000000013
#06916:23131300
#07015:00000013
#07017:00131300
#07012:0013001300000000
#07018:0000000000000013
#06715:1400000000000013
#0671a:0000000000130000
#06713:0000001300000000
#06615:0000001313000014
#0661a:00000000000000000000000000000014
#06617:0000000000141400
#06612:00000013000000000000001400000000
#0661b:00000000000000130000000000000000
#06618:0013130000000000
#06212:16
#0621c:12000012
#0581a:12
#05812:12000012
#06016:00000014
#0601a:00140000
#06012:24000012
#06416:0012
#0641a:000000000012000000000000
#06415:001200
#06419:00120000
#06414:001200000000
#06418:001200000000000000260000
#06413:12
#06412:00000026
#05616:00000014
#05612:00140000
#0561c:00000012
#0561a:24
#05610:41
#0631a:12000012
#06314:0012
#06318:00120000
#0611a:00000012
#06118:0012
#06116:00120000
#06114:12
#05914:12000012
#0591a:0012
#05916:00120000
#05714:00000012
#05716:0012
#05718:00120000
#0571a:12
#05517:00000012
#05512:1212
#05516:00120000
#05415:00000012
#05412:0012
#05414:00120000
#05316:00000012
#05314:0012
#05312:00120000
#05212:24000012
#05214:0012
#05216:00120000
#05117:00000012
#0511c:1212
#05118:00120000
#05019:00000012
#0501c:0012
#0501a:00120000
#04918:00000012
#0491a:0012
#0491c:00120000
#0481c:00000012
#0481a:2412
#04818:00120000
#00312:14241400
#0031a:24142400
#00316:00000022
#0471a:0014
#0471c:00000012000000000000000000000000
#04715:0024000000000000
#04714:00240000
#04713:0000002400000000
#04718:00000022
#04712:0024
#0461b:0000000000000013
#0461a:00000000000000000012000000000000
#04618:00120000000000000000000000000000
#04619:0000001300000000
#04616:00000013
#04614:00130000
#04517:0000000000000013
#04516:0013001300000000
#0451b:0000130000130000
#04512:00000013
#04417:0000000000000013
#0441b:1300001300000000
#04412:13
#04418:00130000
#04415:0013000000000000
#04410:41
#04312:00000012000000000000130000000000
#0431b:0013
#04318:0000000000001313
#04315:00000000000000000000000000130000
#04214:00000000000013000012000000000000
#04216:00120000000000000000000000000000
#04212:0000000000000013
#04217:00000013
#04219:00130000
#04116:0000000000000013
#04117:0013001300000000
#04112:0000130000130000
#0411b:00000013
#04016:0000000000000013
#04012:1300001300000000
#0401b:13
#04015:00130000
#04018:0013000000000000
#03817:0013
#03818:0013000000000000
#03815:00130000
#0381b:13
#03819:00000013
#03814:0000000000130000
#03812:0000001300000000
#03518:00130024
#03512:1313
#03514:0000000000240000
#03416:0013
#03415:0013000000000000
#03418:00130000
#03412:13
#03417:0000000000000013
#03414:00000013
#03419:0000000000130000
#0341b:0000001300000000
#02913:0000001400000000
#02914:00140000
#02915:0014000000000000
#02816:0000000000001414
#02814:0000001414000000
#02812:1414000000000000
#0271b:00002313
#0271a:0000001300000000
#02719:00130000
#02718:0013000000000000
#02712:00000023
#02617:0000000000001313
#02619:0000001313000000
#0261b:1313000000000000
#02416:0000000000001212
#02414:0000001212000000
#02412:1212000000000000
#02316:1400000000140000
#0231a:14000014
#02312:0014
#02216:0000001400141400
#02212:13000014
#0221b:0000001300000000
#02218:00130000
#02215:0013000000000000
#0211a:0000000000140000
#02116:0000001400130000
#02112:0000001300000013
#02114:00000013
#02115:00130000
#02118:0013000000000000
#0211b:13
#02016:1400001400000000
#02012:1300000000140000
#0201b:0000001300000013
#02019:00000013
#02017:0000000000130000
#02018:00130000
#02015:0013000000000000
#02010:41
#01418:0000230000130013
#01412:0013000014000000
#01415:2300001300002300
#0141a:14
#0141b:0023
#0131b:0013000000000000
#01316:0014
#01318:23000014
#01315:00230000
#01312:00002323
#01112:0014
#01118:00130013
#01115:0013000000000000
#01014:0014
#01016:0000000000000014
#0101b:00000013
#01019:00130000
#01012:14
#01212:0013000000000000
#01216:0014
#01214:0000000000000014
#0121b:00002323
#01218:00230000
#01215:23
#00916:00000014
#0091a:0014
#00915:00130000
#00918:0013000000000000
#00812:00000013
#00814:00130000
#00818:0014
#00816:0000000000000014
#0081a:14
#00810:41
#00612:0000001400000000
#00614:00140000
#00618:14
#00616:0014000000000000
#0061a:00000000000000000033333300000000
#00615:00000000000000000000000000333333
#00513:0000001400000000
#00515:00140000
#00519:14000000000000000033333300000000
#00517:0014000000000000
#00514:00000000000000000000000000333333
#0071b:1313
#00712:0013000000000013
#00715:00130013
#00718:0000001300130000
#00412:14
#00414:0000001400000000
#00416:00140000
#0041a:14
#00418:00001400000000000033333300000000
#00413:00000000000000000000000000333333
#00116:00000012
#00118:00000012
#02513:0000001200000000
#02514:00120000
#02515:0012000000000000
#00014:12
#03919:00000000000000000000000000000000006300000000000000000000000000002300000000000000000000000000000000000000000000000000000000000000
#0391a:00630000000000000000000000000000230000000000000000000000000000000000000000000000000000000000000000000000000000000000000000000000
#0391b:23
#03912:00000026
#03918:00000000000000000000000000000000000000000000000000000000000000000063000000000000000000000000000026000000000000000000000000000000
#08214:00000000000000000000000000000000006300000000000000000000000000002300000000000000000000000000000000000000000000000000000000000000
#08213:00630000000000000000000000000000230000000000000000000000000000000000000000000000000000000000000000000000000000000000000000000000
#08212:23000026
#08218:00000026
#08215:00000000000000000000000000000000000000000000000000000000000000000063000000000000000000000000000000000000000000000000000000000000
#03118:00000023
#03115:00000023
#00213:0000000000240000
#00218:00000024
#00214:0000000000000024
#00219:0024
#00212:0000002400000000
#0021a:00240000
#09813:22
#07752:16
#07758:0016
#01752:14
#01756:0000005400000000
#0185a:14
#01856:0000006400005400
#01952:14000014
#0195a:14
#01958:00000014
#09258:00006612
#09256:00000024000000000000000012000000
#09252:0056
#07552:1600000000000016
#07558:0016
#04756:00000012
#04758:00000012
#04752:0054
#0475a:0064
#0475c:00000022000000000000000000000000
#00358:00000012
#00356:00000012
#0035a:0064
#00352:0054
#0355b:0013
#03558:00530000
#03552:53
#02952:00000014
#0295a:00000014
#0255b:00000013
#02552:00000012
#02356:64140000
#02352:00140000
#0235a:64
#02256:1400006400005400
#02252:00000054
#02156:1400005400000000
#0215a:0000000000640000
#0125a:14
#01256:0014
#01254:0000000000000014
#0025a:14
#00252:14
#06552:54340000
#06555:0000000000000063
#0655a:44640000
#06556:0024002400000000
#03652:1400000000000014
#0365a:0000000014000064
#07952:1400000000000014
#0795a:0014
#07956:0000000000000054
#0325a:1400000000000014
#03252:0000000014000054
#08258:00000016
#08252:00000016
#0805a:0014
#08056:00000064
#07458:00000016
#0745c:00220000
#06452:00000016
#06458:00000016
#06456:0022
#06052:14
#06056:00000024
#0605a:00640000
#0565a:14
#05656:00000024
#05652:00540000
#05252:14000012
#03952:00000016
#03958:00000016
#0375a:0014
#03752:00000053
#03352:0014
#0335b:00000063
#03158:00000013
#03155:00000013
#06956:1363
#0695b:0000000000000063
#0485a:14
#0485c:00000012
#07352:16
#07358:56
#08454:0000000000000053
#08457:0023
#0845b:0000006300000000
#08452:23
#08556:00230000000000000023000000000000
#08553:0000005300000000
#08552:0000000000000053
#08656:00000023000000000000000000000000
#07653:00000024
#07658:0016
#09752:1c
#01656:0000006400000000
#0165a:14
#01552:0013
#0305a:00000000000000000000000000000064
#03052:00000000000000000000000000000054
#03056:0054
#09156:00240000000000000024000000000000
#09159:0000006500000000
#09152:0000000000000056
#09052:0000000000000054
#09057:00000023000000000000000000000000
#06856:14540000
#0895b:0000000000000063
#08957:00230000000000000023000000000000
#0895a:0000006300000000
#08859:0000000000000063
#08856:0023
#08852:0000005300000000
#0885b:23
#08757:0000000023000053
#08756:0000000000630000
#0875b:0000006300000000
#08356:0000000023000063
#08357:0000000000530000
#08352:0000005300000000
#07057:0053
#06755:64
#06252:56
#0585a:22
#05557:00000012
#05356:00000012
#05157:00000012
#04958:00000012
#0465b:0000000000000053
#0465a:00000000000000000022000000000000
#04658:00220000000000000000000000000000
#04659:0000005300000000
#04557:0000000000000053
#04556:0000006300000000
#04457:0000000000000053
#0445b:0000006300000000
#04352:00000022000000000000000000000000
#04254:00000000000063000022000000000000
#04256:00220000000000000000000000000000
#04252:0000000000000063
#04156:0000000000000063
#04157:0000005300000000
#04056:0000000000000063
#04052:0000005300000000
#0275b:00000013
#02056:1400006400000000
#02052:0000000000540000
#01458:0000000000000053
#01452:0014
#0145a:14
#01152:0014
#01158:00000053
#01054:0014
#01056:0000000000000014
#01052:14
#01356:0014
#01358:00000014
#00956:00000014
#0095a:0014
#00156:00000062
#00158:00000052
#00858:0014
#00856:0000000000000014
#0085a:14
#0003a0:1222
#000341:0000000012000022
#000380:0000000000000012
#001380:0022
#001361:00001232
#002321:24
#001380:00000012
#0023a0:24
#003320:0014
#003360:00000022
#0033a1:0014
#003381:00000022
#004391:0013
#004381:00000000000000000033333300000000
#004371:00000023
#004340:00000013
#004330:00000000000000000000000000333333
#005320:23
#0053a0:0013
#005390:00000000000000000033333300000000
#005380:00000023
#005351:00000013
#005341:00000000000000000000000000333333
#006331:23
#0063b1:0013
#0063a1:00000000000000000033333300000000
#006391:00000023
#006360:00000013
#006350:00000000000000000000000000333333
#007340:23
#011380:00000013
#0123a0:24
#014380:0000000000000013
#0153b0:00532300
#016360:0000001400000000
#016320:0000000000340000
#017320:24
#017360:0000001400000000
#0173a0:0000000000340000
#0183a0:24
#018360:0000001400000000
#018320:0000000000340000
#019320:24
#018361:00000014
#0183a1:0000000000000054
#0193a1:24
#019321:0000142400000000
#019341:0000000000000000005400540000000000000000000000000000000000000000
#019331:00000000005300000000000000000000
#019380:0000001424000000
#0193a0:0000000000000000000000000054005400000000000000000000000000000000
#019390:00000000000000530000000000000000
#019321:0000000014240000
#019341:0000000000000000000000000000000000540054000000000000000000000000
#019331:00000000000000000053000000000000
#019380:0000000000142400
#0193a0:0000000000000000000000000000000000000000005400540000000000000000
#019390:00000000000000000000005300000000
#020360:0000001400000000
#020320:0000000000340000
#021360:24
#021360:0000001400000000
#0213a0:0000000000340000
#022360:24
#022360:0000001400000000
#022320:0000000000343400
#023360:34
#023320:00240000
#022361:00000014
#0233a1:34
#023361:00240000
#0243a1:14
#0253b1:00000023
#025320:00001222
#026320:14
#027320:0023
#0283b0:13
#0293a0:00000024
#029321:00001424
#030321:13000000000000000000000000000054
#031351:00530000000000000000000023000000
#030360:0014
#030370:00000000000000000034000000000000
#030380:0000000000340000
#030390:00000000000000000000003400000000
#0303a0:00000000000000000000000034343434
#031380:00530000000000000000000023000000
#032320:0000000000000014
#033360:0023000000000000
#0333b0:00000013
#034370:23
#035320:13
#035350:00230000
#035381:00130000
#0353b1:0023
#0363a1:0000000000000014
#037371:0023000000000000
#037321:00000013
#038361:23
#038361:0000000000000014
#039321:00000026
#040321:0000001300000000
#040361:0000000000230000
#0403b0:0000000000130023
#040361:0000000000000013
#041321:0023000000000000
#041371:0000001300000000
#0413b1:0000000000230000
#041361:0000000000000013
#042361:00520000230000000000000000000000
#042341:00000000000013000052000023000000
#042321:0000000000000013
#043321:00000052000000002300000000000000
#0443b1:0000001300000000
#044371:0000000000230000
#044320:0000000000130023
#044371:0000000000000013
#0453b1:0023000000000000
#045361:0000001300000000
#045321:0000000000230000
#045371:0000000000000013
#046381:00520000000000000000000000000000
#046371:00230000
#046391:0000001300002300
#0463a1:00000000000000000052000000000000
#0463b1:0000000000000013
#0473c1:00000052000000000000000000000000
#0473a1:0034
#047381:00000022
#047320:0014
#047360:00000022
#048320:14
#050320:52
#052320:24
#0523a1:14
#0543c1:52
#0563a1:24
#056320:14340000
#056360:00000054
#057320:00240000
#0583a0:12
#058380:0056
#059380:00260000
#0603a0:14340000
#060360:00000054
#0613a0:00240000
#062320:16
#063340:00220000
#064360:0012
#064320:00000026
#065320:14240000
#065360:0054000000000000
#0653a1:00142400
#065361:0000005400000000
#065351:0000000000000013
#066321:0023000000000000
#067351:14
#067321:00230000
#067390:00132300
#067341:00001323
#0673b0:00000013
#0683b0:23
#068360:00140000
#0683b0:0023
#069360:0013
#069320:00000023
#0693b0:0000000000000013
#070370:0023000000000000
#070370:0013
#0703b0:00000023
#073380:16
#0743c0:00520000
#074380:00000026
#074321:0000000000000000000000000000000000000000000000001656565656565656
#074331:00000000000000000000000000000000000000000000000000000000000000000000000000000000000000000000000000540054005400540054005400540054
#075321:26
#076331:00000014
#077321:26
#077381:0000000000000000000000000000000000000000000000001656565656565656
#077391:00000000000000000000000000000000000000000000000000000000000000000000000000000000000000000000000000540054005400540054005400540054
#078381:26
#079361:0000000000000014
#0803b1:0023000000000000
#080361:00000014
#081321:23
#081361:0000000000000014
#082381:00000026
#083321:0000001300230000
#083361:0053
#083370:0000000000130000
#0833b0:0000000000000023
#083361:0000000000000013
#084321:53
#084361:0023000000000000
#0843b1:0000001300230000
#084371:0053
#084341:0000000000000013
#085361:00530000000000000000000000000000
#085341:00230000
#085331:0000001300002300
#085361:00000000000000000053000000000000
#085321:0000000000000013
#086361:00000053000000000000000000000000
#086321:0023
#0873b1:0000001300230000
#087371:0053
#087360:0000000000130000
#087320:0000000000000023
#087371:0000000000000013
#0883b1:53
#088371:0023000000000000
#088321:0000001300230000
#088361:0053
#088391:0000000000000013
#089371:00530000000000000000000000000000
#089391:00230000
#0893a1:0000001300002300
#089371:00000000000000000053000000000000
#0893b1:0000000000000013
#090371:00000053000000000000000000000000
#0903b1:0023
#090321:0000000000000014
#091361:00540000000000000000000000000000
#091321:00250000
#091391:0000001500000000
#091361:00000000000000000054000000000000
#091381:00000026
#091321:0000000000000016
#092361:00000054000000000000000022000000
#092321:0036
#092380:00001622
#093340:0013
#093350:00000000000000000033333300000000
#093360:00000023
#093391:00000013
#0933a1:00000000000000000000000000333333
#0943b1:23
#094331:0013
#094341:00000000000000000033333300000000
#094351:00000023
#094380:00000013
#094390:00000000000000000000000000333333
#0953a0:23
#095320:0013
#095330:00000000000000000033333300000000
#095340:00000023
#095371:00000013
#095381:00000000000000000000000000333333
#096391:23
#0399b0:13
#0399a0:00230000000000000000000000000000000000000000000000000000000000000000000000000000000000000000000000000000000000000000000000000000
#0399a0:00130000
#039990:00000000000000000000000000000000002300000000000000000000000000000000000000000000000000000000000000000000000000000000000000000000
#039990:0013
#039980:00000000000000000000000000000000000000000000000000000000000000000023000000000000000000000000000000000000000000000000000000000000
#068960:0013
#068920:000000000000000000000000000000000000000000000000000000000000000000000000000000000000000000000000000000000000000000000000000000000000000000000000000000000000000000000000000000000000000000000000000000000000000000000000000000000000000000000000000000000000000000000000000000000000000000000000000000000000000000000000000000000000000000000000000000000000000000000000000000000000000000000000000000000000000000000000000000000000000000000000000000000000000000000000000000000000000000000000000000000000000000000000000000000000000000000000000000000000000000000000000000000000000000000000000000000000000000000000000000000000000000000000000000000000000000000000000000000000000000000000000000000000000000000000000000000000000000000000000000000000000000000000000000000000000000000000000000000000000000000000000000000000000000000000000000000000000000000000000000000000000000000000000000000000000000000000000000000000000000000000000000000000000000000000000000000000000000000000000000000000000000000000000000000000000000000000000000000000000000000000000000000000000000000000000000000000000000000000000000000000000000000000000000000000000000000000000000000000000000000000000000000000000000000000000000000000000000000000000000000000000000000000000000000000000000000000000000000000000000000000000000000000000000000000000000000000000000000000000000000000000000000000000000000000000000000000000000000000000000000000000000000000000000000000000000000000000000000000000000000000000000000000000000000000000000000000000000000000000000000000000000000000000000000000000000000000000000000000000000000000000000000000000000000000000000000000000000000000000000000000000000000000000000000000000000000000000000000000000000000000000000000000000000000000000000000000000000000000000000000000000000000000000000000000000000000000000000000000000000000000000000000000000000000000000000000000000000000000000000000000000000000000000000000000000000000000000000000000000000000000000000000000000000000000000000000000000000000000000000000000000000000000000000000000000000000000000000000000000000000000000000000000000000000000000000000000000000000000000000000000000000000000000000000000000000000000000000000000000000000000000000000000000000000000000000000000000000000000000000000000000000000000000000000000000000000000000000000000000000000000000000000000000000000000000000000000000000000000000000000000000000000000000000000000000000000000000000000000000000000000000000000000000000000000000000000000000000000000000000000000000000000000000000000000000000000000000000000000000000000000000000000000000000000000000000000000000000000000000000000000000000000000000000000000000000000000000000000000000000000000000000000000000000000000000000000000000000000000000000000000000000000000000000000000000000000000000000000000000000000000000000000000000000000000000000000000000000000000000000000000000000000000000000000000000000000000000000000053230000000000000000000000000000000000000000000000000000000000000000000000000000000000000000000000000000000000000000000000000000000000000000000000000000000000000000000000000000000000000000000000000000000000000000000000000000000000000000000000000000000000000000000000000000000000000000000000000000000000000000000000000000000000000000000000000000000000000000000000000000000000000000000000000000000000000000000000000000000000000000000000000000000000000000000000000000000000000000000000000000000000000000000000000000000000000000000000000000000000000000000000000000000000000000000000000000000000000000000000000000000000000000000000000000000000000000000000000000000000000000000000000000000000000000000000000000000000000000000000000000000000000000000000000000000000000000000000000000000000000000000000000000000000000000000000000000000000000000000000000000000000000000000000000000000000000000000000000000000000000000000000000000000000000000000000000000000000000000000000
#068971:00000013
#0689b1:000000000000000000000000000000000000000000000000000000000000000000000000000000000000000000000000000000000000000000000000000000000000000000000000000000000000000000000000000000000000000000000000000000000000000000000000000000000000000000000000000000000000000000000000000000000000000000000000000000000000000000000000000000000000000000000000000000000000000000000000000000000000000000000000000000000000000000000000000000000000000000000000000000000000000000000000000000000000000000000000000000000000000000000000000000000000000000000000000000000000000000000000000000000000000000000000000000000000000000000000000000000000000000000000000000000000000000000000000000000000000000000000000000000000000000000000000000000000000000000000000000000000000000000000000000000000000000000000000000000000000000000000000000000000000000000000000000000000000000000000000000000000000000000000000000000000000000000000000000000000000000000000000000000000000000000000000000000000000000000000000000000000000000000000000000000000000000000000000000000000000000000000000000000000000000000000000000000000000000000000000000000000000000000000000000000000000000000000000000000000000000000000000000000000000000000000000000000000000000000000000000000000000000000000000000000000000000000000000000000000000000000000000000000000000000000000000000000000000000000000000000000000000000000000000000000000000000000000000000000000000000000000000000000000000000000000000000000000000000000000000000000000000000000000000000000000000000000000000000000000000000000000000000000000000000000000000000000000000000000000000000000000000000000000000000000000000000000000000000000000000000000000000000000000000000000000000000000000000000000000000000000000000000000000000000000000000000000000000000000000000000000000000000000000000000000000000000000000000000000000000000000000000000000000000000000000000000000000000000000000000000000000000000000000000000000000000000000000000000000000000000000000000000000000000000000000000000000000000000000000000000000000000000000000000000000000000000000000000000000000000000000000000000000000000000000000000000000000000000000000000000000000000000000000000000000000000000000000000000000000000000000000000000000000000000000000000000000000000000000000000000000000000000000000000000000000000000000000000000000000000000000000000000000000000000000000000000000000000000000000000000000000000000000000000000000000000000000000000000000000000000000000000000000000000000000000000000000000000000000000000000000000000000000000000000000000000000000000000000000000000000000000000000000000000000000000000000000000000000000000000000000000000000000000000000000000000000000000000000000000000000000000000000000000000000000000000000000000000000000000000000000000000000000000000000000000000000000000000000000000000000000000000000000000000000000000000000000000000000000000000000000000000000000000000000000000000000000000000000000000000000000000000000000000000000000000000000000000000000000000000000000000000000000000000000000000000000000000000000000000000000000000000000000000000000000000000000000000000000000000000000000000000000000000000000000000000000000000000000000000000000000000000000000000000000000000000000000000000000000000000000000000000000000000000000000000000000000000000000000000000000000000000000000000000000000000000000000000000000000000000000000000000000000000000000000000000000000000000000000000000000000000000000000000000000000000000000000000000000000000000000000000000000000000000000000000000000000000000000000000000000000000000000000000000000000000000000000000000000000000000000000000000000000000000000000000000000000000000000000000000000000000000000000000000000000000000000000000000000000000000000000000000000000000000000000000000000000000000000000000000000000000000000000000000000000000000000000000000000000000000000000000000000000000000000000000000000000000000000000053
#0699b1:23
#082921:13
#082931:00230000000000000000000000000000000000000000000000000000000000000000000000000000000000000000000000000000000000000000000000000000
#082931:00130000
#082941:00000000000000000000000000000000002300000000000000000000000000000000000000000000000000000000000000000000000000000000000000000000
#082941:0013
#082951:00000000000000000000000000000000000000000000000000000000000000000023000000000000000000000000000000000000000000000000000000000000
