This file was generated by Ched 2.7.0.0.
#TITLE " "
#ARTIST ""
#DESIGNER ""
#DIFFICULTY 0
#PLAYLEVEL
#SONGID ""
#WAVE ""
#WAVEOFFSET 0
#JACKET ""
#REQUEST "ticks_per_beat 480"
#00002: 4
#BPM01: 183
#00008: 01
#TIL00: ""
#VOLUME: ""
#HISPEED 00
#MEASUREHS 00
#00014:12
#0001a:12
#00016:0000000012000012
#00018:00000012
#07018:0000130000000013
#07015:0000001300001300
#0701b:0013
#0081b:00001313
#00815:0000130000000013
#00818:13
#00812:0013
#00810:41
#03215:0013001300001300
#0321b:2300230023000013
#03210:41
#01518:0013000000001300
#0651b:1313
#06516:13
#06517:00130000
#06512:00130000
#06518:0000000000130000
#06515:00000013
#0651f:11
#06915:0000130000000013
#06918:0000001300001300
#06912:0013
#0691a:24
#0341b:0000001300000000
#03418:00000013
#03412:0000000000000013
#03415:00131300
#01018:00130000
#0101b:1300000000000013
#01015:0013
#01012:00000013
#01115:0013000000000000
#01612:2300000000130000
#01618:0000001300001300
#01615:0000130000000013
#0161b:23
#04812:00130000
#04815:0013
#04818:00000013
#0481a:24
#0671b:0000000000130000
#06715:0000001300000013
#06712:00130000
#06718:00001313
#06812:13
#0681b:00130000
#06816:0014
#06817:00000000000000000034000000000000
#06818:0000000000340000
#06819:00000000000000000000003400000000
#0681a:00000000000000000000000034343434
#0751a:2400000014000024
#07512:1400000024000014
#07518:00000013
#07516:00140000
#0761a:0014
#07615:0013001300000000
#07618:00130013
#07612:0024
#07715:00130000
#07712:1424
#0771a:2414
#07716:00000014
#03312:00132300
#03318:0000001300001300
#00418:00130000
#00412:13
#00415:0000001300000000
#00419:00000000000000000033000000000000
#0041a:0000000000330000
#0041b:00000000000000000000003333333333
#00712:00130000
#00718:00001313
#00715:0000000000130013
#00114:00000012
#0011a:00120000
#00117:0012
#00912:00130013
#0091b:0013
#00918:0013000000000000
#01212:00001313
#01218:0000130000000013
#0121b:0013
#01415:00130000
#01412:1300000000000013
#01418:0013
#0141b:00000013
#0131b:00130013
#01312:0013
#01315:0013000000000000
#0171b:13
#01712:0000000000130000
#01718:0000001300001300
#01715:0000130000000013
#01812:0000000000130000
#01818:0000001300001300
#01815:0000130000000013
#0181b:13
#0201b:2300000000130000
#02015:0000001300001300
#02018:0000130000000013
#02012:23
#02010:41
#02112:13
#0211b:0000000000130000
#02115:0000001300001300
#02118:0000130000000013
#0221b:0000000000130000
#02215:0000001300001300
#02218:0000130000000013
#02212:13
#0191b:0013
#01912:0013
#02312:13
#0351b:00130000
#03518:13
#03618:0013001300001300
#03612:2300230023000013
#03812:0000001300000000
#03815:00000013
#0381b:0000000000000013
#03818:00131300
#0371b:00132300
#03715:0000001300001300
#0411a:00000014
#04114:0000000000000014
#04115:0013
#04219:00140000
#04213:0000000000000000000000001400000000000000000000000000000000140014
#04218:00000014
#04212:00000000000000000000000000001414
#04512:00000014
#04518:0000000013000014
#04613:00140000
#04619:0000000000000000000000001400000000000000000000000000000000140014
#04614:00000014
#0461a:00000000000000000000000000001414
#04315:00000013
#04318:0000000000000013
#0431a:0014
#04312:14141414141414140000000000000000
#04313:0014001400140014001400140014001400000000000000000000000000000000
#0471a:14141414141414140000000000000000
#04719:0014001400140014001400140014001400000000000000000000000000000000
#04712:0026
#04915:00130000
#04918:0013
#0491b:00000013
#05112:13
#05115:00130000
#0511b:00000013
#05118:0013
#0501b:00130000
#05018:0013
#05015:00000013
#0521b:00130000
#05218:0013
#05215:00000013
#05212:24
#05318:00130000
#05315:0013
#05312:00000013
#0551b:13
#05518:00130000
#05512:00000013
#05515:0013
#05412:00130000
#05415:0013
#05418:00000013
#05612:00140000
#05616:00000014
#05618:24
#05610:41
#0601a:00140000
#06016:00000014
#06014:24
#06118:1414
#06116:00140014
#06218:00000014
#06319:00140000
#06317:0014
#06316:14
#05714:1414
#05716:00140014
#05814:14000014
#05816:0000001500000000
#05913:00140000
#05915:0014
#05916:14
#05912:00000014
#07118:0013000000000000
#07119:0000001300000000
#0711a:0000000000130000
#0711b:0000000000000013
#07112:23
#07113:00230000
#07114:0023
#07115:00000023
#0721b:0000000000000013
#0721a:0000000000130000
#07219:0000001300000000
#07218:0013000000000000
#07212:23
#07213:00240000
#07214:0025
#07215:00000026
#07918:0014000000000000
#0791a:0000001400001400
#07912:2400000000000014
#07914:00240000
#07916:0024
#0791f:21
#08116:0000001300000000
#0811b:00130000
#08119:0013
#08114:0000000000130000
#08117:00000013
#08112:0000000000000013
#0801a:00140000
#08012:0000001400001300
#08017:00000013
#08016:0024
#08010:41
#08412:00000014
#08418:0000000013000014
#0851a:00140000
#08514:0000001400000000
#08512:00000014
#08518:0000000000000014
#08612:0014
#08618:00000013
#08615:0000000000000013
#0881a:00000014
#08814:0000000000000014
#08815:0013
#08912:00140000
#08918:0000001400000000
#0891a:00000014
#08914:0000000000000014
#0901a:0014
#09012:00000014
#09018:0000000000000014
#0911a:00140000
#09115:0000001400000000
#09112:00000014
#09116:0000000000000014
#09318:1300001300000000
#09315:00000000130000000000000000000033
#09314:00000000000000000033000000003300
#09313:00000000000000000000330000330000
#09312:00000000000000000000003300000000
#09418:00000000130000000000000000000033
#09415:0000001300000000
#09419:00000000000000000033000000003300
#0941a:00000000000000000000330000330000
#0941b:00000000000000000000003300000000
#09515:00000000130000000000000000000033
#09518:0000001300000000
#09514:00000000000000000033000000003300
#09513:00000000000000000000330000330000
#09512:00000000000000000000003300000000
#0961b:00130013
#09612:0000001300000013
#09618:0013
#09615:0000000000130000
#00515:00130000
#00518:0000001300000000
#00514:00000000000000000033000000000000
#00513:0000000000330000
#00512:00000000000000000000003333333333
#00618:00130000
#00615:0000001300000000
#00619:00000000000000000033000000000000
#0061a:0000000000330000
#0061b:00000000000000000000003333333333
#09715:16
#0971a:0000002400000000
#09716:0000000024000024
#09718:0000000000240000
#09714:00000024
#09812:24
#0311b:00000023
#03112:00000023
#06416:000000003300000000240000
#06413:003300000000000000000000
#06414:003300000000
#06415:00330000
#06417:000000000033000000000000
#07814:22
#07817:00220000
#0781a:00002224
#07812:0000000000240000
#00218:0000260000230023
#00215:00002323
#00312:26
#00315:00260000
#00318:0026
#03912:26000026
#03915:00260000
#03918:0026
#07315:26
#08218:26000026
#08215:00260000
#08212:0026
#09212:0026
#06619:00000000000000000000000000000033
#0661a:00000000000000330000000000000000
#06614:00000000000000000000003300000000
#06613:00000033000000000000000000000000
#03014:00330000
#03019:00330000
#04410:41
#0485a:14
#04858:00000013
#0315b:00000013
#03152:00000013
#03352:0013
#03358:00000053
#06456:00000014
#06852:13
#0685b:00630000
#06856:0054
#06955:0000000000000063
#0695a:14
#00154:00000052
#00358:0066
#0035a:00000012
#00252:16
#00858:13
#00952:00000013
#01158:0013
#0135b:00000013
#01555:0013
#01255:13
#01955:00000013
#01958:00000013
#0195b:0063
#01952:0053
#02355:0013
#02352:53
#0325b:0000000013000063
#0345b:13
#0355b:00630000
#03558:5313
#03652:0000000013000053
#03755:00000063
#0375b:0013
#03852:13
#03952:00000016
#04154:0000000000000014
#04253:0000000000000000000000001400000000000000000000000000000000640064
#04252:00000000000000000000000000005454
#04558:0000000000000014
#04659:0000000000000000000000001400000000000000000000000000000000540054
#0465a:00000000000000000000000000006464
#04752:0056
#04754:00000012
#0475a:64646464646464640000000000000000
#04759:0054005400540054005400540054005400000000000000000000000000000000
#04352:54545454545454540000000000000000
#04353:0064006400640064006400640064006400000000000000000000000000000000
#0495b:00000013
#0515b:00000013
#05255:00000013
#05252:14
#05352:00000013
#05552:00000013
#05658:14
#05652:00540000
#05656:00000064
#06054:14
#0605a:00640000
#06056:00000054
#0635a:00000014
#06359:00640000
#06357:0054
#06356:54
#06158:6464
#06156:00540054
#06258:00000064
#05754:5454
#05756:00640064
#05854:54000054
#05856:0000002500000000
#05953:00540000
#05955:0064
#05956:64
#05952:00000054
#0675b:13
#06752:13
#07452:00000014
#07355:66
#07956:0014
#07952:0000000000000054
#08056:0014
#08057:00000053
#08052:00000053
#0815b:13
#08156:13
#08258:00000016
#08458:0000000000000014
#08554:0000001400000000
#08558:0000000000000054
#08854:0000000000000014
#08958:0000001400000000
#08954:0000000000000064
#09058:0000000000000014
#09155:0000001400000000
#09156:0000000000000054
#09252:0056
#09254:00000012
#09358:13
#09455:13
#09558:13
#09655:13
#00452:13
#0055b:13
#00652:13
#0075b:13
#09755:16
#001340:00000012
#002320:26
#003380:0016
#0033a0:00000022
#004380:0013
#004390:00000000000000000033000000000000
#0043a0:0000000000330000
#0043b0:00000000000000000000003333333333
#0053b0:23
#005350:0013
#005340:00000000000000000033000000000000
#005330:0000000000330000
#005320:00000000000000000000003333333333
#006320:23
#006380:0013
#006390:00000000000000000033000000000000
#0063a0:0000000000330000
#0063b0:00000000000000000000003333333333
#0073b0:23
#011380:00132300
#011350:00000013
#012350:23
#015350:00132300
#0193b0:1333
#019380:00000023
#019321:00133300
#019351:00000023
#023321:13
#023351:0023
#0243b1:13
#024371:0033
#0253b1:33
#025371:0033
#0263b1:23
#026320:13
#026360:0033
#027320:33
#027360:0033
#028320:23
#0283b1:13
#028371:0033
#0293b1:23
#029320:13
#029360:0033
#030320:3300000000000033
#030340:0000330000330000
#030350:0033
#030330:00000033
#031320:00000023
#0303b1:1300000000000033
#030391:0000330000330000
#030381:0033
#0303a1:00000033
#0313b1:00000023
#0323b1:0000000000000013
#033381:0023000000000000
#033381:00000013
#0343b1:23
#035381:1323
#0353b1:00330000
#036321:0000000000000013
#037351:0023000000000000
#037351:00000013
#038321:23
#0403b1:13330000
#040381:0023
#040350:00001333
#041320:23
#0413b1:13330000
#041381:0023
#042321:00000000000000000000000000001454
#042331:0000000000000000000000000000000000000000000000000000000000540054
#043321:54545454545454542400000000000000
#043331:0054005400540054005400540054005400000000000000000000000000000000
#044321:13330000
#044351:0023
#044380:00001333
#0453b0:23
#045321:13330000
#045351:0023
#0463a1:00000000000000000000000000001454
#046391:0000000000000000000000000000000000000000000000000000000000540054
#0473a1:54545454545454542400000000000000
#047391:0054005400540054005400540054005400000000000000000000000000000000
#047320:0016
#047340:00000022
#056320:00140000
#056360:00000034
#057340:3434
#057360:00340034
#058340:34000034
#058360:0000005500000000
#059360:34
#059330:00340000
#059350:0034
#059320:00000034
#060340:24
#0603a0:00140000
#060360:00000034
#061380:3434
#061360:00340034
#062380:34000034
#063360:34
#063390:00340000
#063370:0034
#0633a0:00000024
#064320:13
#064330:003300000000000000000000
#064340:003300000000
#064350:00330000
#064360:000000003300340000240000
#064370:000000000033000000000000
#065320:0000000000000013
#066320:0033000000003300
#066330:00000033000000000000000000000000
#066350:0000330033330000
#066340:00000000000000000000003300000000
#067320:23
#0653b1:0000000000000013
#0663b1:0000333300000000
#0663a1:00000000000000330000000000000000
#066381:0000000033003333
#066391:00000000000000000000000000000033
#0673b1:23
#0683b1:00130000
#068361:0034
#068371:00000000000000000034000000000000
#068381:0000000000340000
#068391:00000000000000000000003400000000
#0683a1:00000000000000000000000034343434
#0693a1:24
#069351:0000000000000013
#070321:0023000000000000
#073351:16
#074321:00000024
#079321:0000000000000014
#080361:0024000000000000
#080371:00000013
#0813b1:23
#080320:00000013
#081360:23
#083350:1323
#083320:00330000
#083381:0013
#0833b1:00000033
#084381:23
#084350:1323
#084320:00330000
#085380:0000000000000014
#0863a0:0024
#087380:1323
#0873b0:00330000
#087351:0013
#087321:00000033
#088351:23
#088380:1323
#0883b0:00330000
#089340:0000000000000014
#090320:0024
#091360:0000000000000014
#0923a0:0024
#092321:0016
#092341:00000022
#093351:00000000000000001300000000000033
#093341:00000000000000000033000000003300
#093331:00000000000000000000330000330000
#093321:00000000000000000000003333000000
#094351:23
#094381:00000000000000001300000000000033
#094391:00000000000000000033000000003300
#0943a1:00000000000000000000330000330000
#0943b1:00000000000000000000003333000000
#095381:23
#095351:00000000000000001300000000000033
#095341:00000000000000000033000000003300
#095331:00000000000000000000330000330000
#095321:00000000000000000000003333000000
#096351:23
