This file was generated by Ched 2.7.0.0.
#TITLE ""
#ARTIST ""
#DESIGNER ""
#DIFFICULTY 0
#PLAYLEVEL
#SONGID ""
#WAVE ""
#WAVEOFFSET 0
#JACKET ""
#REQUEST "ticks_per_beat 480"
#00002: 4
#BPM01: 176
#00008: 01
#TIL00: ""
#VOLUME: ""
#HISPEED 00
#MEASUREHS 00
#00514:14
#00618:14
#00714:14
#0081a:14
#00912:14
#0101a:14
#01112:14
#01318:14
#01414:14
#01514:14
#0161a:14
#0171a:14
#01812:14
#01912:14
#02114:14
#02412:14
#0251a:14
#02812:0016
#02818:26
#02810:41
#02918:16
#03012:16
#03018:0016
#03212:16
#03218:0016
#03312:16
#03418:16
#03412:0016
#04012:14
#04114:14
#04218:14
#05418:0016
#05412:26
#0541f:21
#05512:16
#05618:16
#05612:0016
#05610:41
#05818:16
#05812:0016
#05918:16
#06012:16
#06018:0016
#06218:2616
#06312:1616
#06418:16
#06412:0016
#06612:1616
#06718:1616
#06812:16
#06818:0016
#07018:2414
#07010:41
#07214:1414
#0741a:1414
#07612:1414
#07818:14
#07812:0014
#07810:41
#08014:14
#0801a:0014
#08218:14
#08212:0014
#08414:14
#0841a:0014
#0461f:11
#00418:24
#01218:24
#01210:41
#02018:24
#03112:26
#03118:0026
#03518:26
#04318:26
#04312:0026
#04418:26
#04818:24
#05718:26
#05712:0026
#06112:26
#06912:26
#07712:26
#08512:26
#08718:2424
#08714:00240000
#00219:25
#00212:25
#02612:24
#0521a:24
#03610:41
#022380:14
#023380:24
#026320:1400000000000024
#035380:16362600
#036340:14
#037320:24
#038380:14
#0393a0:24
#044380:16
#045380:26
#046340:14
#047340:24
#048380:14
#049380:24
#050340:14
#051340:24
#0523a0:1400000000000024
#061320:16362600
#065380:16362600
#069320:16362600
#071380:1424
#073340:1424
#0753a0:1424
#077320:16362600
#079380:1424
#081340:1424
#083380:1424
#085320:16362600
