This file was generated by Ched 2.7.0.0.
#TITLE ""
#ARTIST ""
#DESIGNER ""
#DIFFICULTY 0
#PLAYLEVEL
#SONGID ""
#WAVE ""
#WAVEOFFSET 0
#JACKET ""
#REQUEST "ticks_per_beat 480"
#00002: 4
#BPM01: 176
#00008: 01
#TIL00: ""
#VOLUME: ""
#HISPEED 00
#MEASUREHS 00
#0871c:00000012
#08712:00250012
#08716:1313
#08717:00130000
#08719:2525
#00212:13
#00215:0013000000130013
#00218:00130013
#0021b:0000001300000000
#00512:13
#00515:0013000013000000
#00518:00130000
#0051b:0000001300001300
#0111b:0000000000130000
#01112:24000013
#0111a:24
#01114:00242400
#01118:00242400
#01212:13130000
#0121b:0013000013000000
#01218:1300001300001313
#01215:0013
#01210:41
#01315:00131300
#01318:0000001300000000
#01312:0013000000001300
#0131b:0013
#0141b:1300001313000000
#01415:0013
#01418:0000000000000013
#01412:0000000000001313
#01515:0013000000000000
#01518:00130000
#0151b:0000001300000000
#01512:0000001300000000
#01514:0000000000232300
#01519:0000000000232300
#02515:1313
#02512:00000013000000000000130000000000
#0251b:1300000000000013
#02518:0000001300001300
#02712:0013000000000000
#02715:00130000
#02718:0000001300000000
#0271b:0013
#02812:00240013
#02815:0000000000000013
#0281b:00000013
#0281a:2424
#02816:24242400
#02810:41
#02918:1300000013000013
#0291b:0013001300001300
#02912:0013000000001300
#02915:0000130000130000
#03015:0000001300001300
#03018:0000000000130013
#0301b:0013130000000000
#03012:13
#03515:0000000000000013
#0351b:00000013
#03512:24
#0351a:24
#03514:00242400
#03518:00242400
#04012:13
#0401b:13
#04018:0000130000001313
#04015:00131300
#04115:0013000000000013
#04118:00130013
#0411b:0000001300000000
#04112:0000001300000000
#04212:1300000013000014
#0421b:1300001313000000
#04215:00000013000000000000000000000000
#04218:00000000000000000000001300000000
#06515:00000013
#06518:0000000000000013
#06512:6414
#06516:00240000
#0651a:0024
#07115:00130000
#07118:0000001300000000
#0711b:13
#07112:0013000024000000
#0711a:0024
#00312:24000014
#0031a:24000014
#00313:00242400
#00319:00242400
#00418:0013001300000013
#00412:23130000
#0041b:2300000000130000
#00419:00000053000000000000000000000000
#0041a:00530000
#0071b:13
#00718:0013000013000000
#00715:00130000
#00712:0000001300001300
#00615:0013001300000013
#0061b:13130000
#00612:1300000000130000
#00614:00000053000000000000000000000000
#00613:00530000
#00912:1313
#00915:0013000000000000
#00918:00130013
#0091b:0000001300000000
#00818:0013001300000013
#00812:13130000
#0081b:1300000000130000
#00819:00000053000000000000000000000000
#0081a:00530000
#01015:0013001300001313
#0101b:13130000
#01012:13
#01018:0013
#01014:00000053000000000000000000000000
#01013:00530000
#0161b:13130000
#01612:0013000013000000
#01615:1300001300001313
#01618:0013
#01718:00131300
#01715:0000001300000000
#0171b:0013000000001300
#01712:0013
#01812:1300001313000000
#01818:0013
#0181b:0000000000001323
#01816:0000000000000023
#01918:0000000000130000
#0191b:0000330000000013
#01912:0023000000006363
#01917:0023000000000000
#01914:0000000000230000
#01916:00330000
#01913:00000000000000000000006300000000
#02012:00000013000000000000000000000000
#02016:0000001313000000
#0201b:1313
#02018:00000013000000000000000000001300
#0211b:00000013000000000000130000000000
#02118:0000001313000000
#02112:1300000000000013
#02115:00000013000000000000000013000000
#0221b:1300001300000000
#02215:0013130000000000
#02218:00000013000000000000130000001300
#02312:13
#02318:00130013000000000000000013000000
#02315:0013000000001300
#0231b:0000001313000000
#0241b:00000013000000000000130000001300
#02412:1300000000130000
#02415:0000001313000000
#02418:0013
#03112:1400000000240000
#03114:0014000024000000
#0311a:1400000000240000
#03118:0014000024000000
#0321b:00000013
#03218:0000000000000013
#03212:24002413
#03216:24242400
#0321a:00240000
#03315:1300000013000013
#03312:0013001300001300
#0331b:0013000000001300
#03318:0000130000130000
#03418:0000001300001300
#03415:0000000000130013
#03412:0013130000000000
#0341b:13
#03618:13
#0361b:0013
#03612:1300000000131300
#03615:0000131300000000
#03610:41
#03718:13
#03715:13
#0371a:0024
#03716:00002424
#03712:00000024
#03815:13
#03812:0013
#0381b:1300000000131300
#03818:0000131300000000
#03915:13
#03918:13
#03912:0024
#03916:00002424
#0391a:00000024
#0531b:0013000000000000
#05318:00130000
#05315:0000001300000000
#05312:0013
#0541b:00000013
#05418:0000000000000013
#05412:24002413
#05416:24242400
#0541a:00240000
#0541f:21
#05515:1300000013000013
#05512:0013001300001300
#0551b:0013000000001300
#05518:0000130000130000
#05615:00000013
#05618:0000000000000013
#05612:0000001300000000
#0561b:0000000000130000
#05610:41
#0571a:1400000000240000
#05718:0014000024000000
#05712:1400000000240000
#05714:0014000024000000
#05812:00240013
#05815:0000000000000013
#0581b:00000013
#0581a:2424
#05816:24242400
#05918:1300000013000013
#0591b:0013001300001300
#05912:0013000000001300
#05915:0000130000130000
#06018:00000013
#06015:0000000000000013
#06012:0000000000130000
#0601b:0000001300000000
#06112:24000013
#0611b:00000013
#0611a:24
#06118:00242400
#06114:00242400
#06212:0000131300000000
#06215:0000000000131300
#06218:2300006300006300
#0621b:0000630000630000
#06312:1313000000000000
#06315:0000001313000000
#0631b:6300006300000000
#06318:0063000063000000
#0631a:00000064
#0641b:0000131300000000
#06419:13
#06418:0000000000131300
#06415:2300006300006300
#06412:0000630000630000
#06612:00240013
#06615:0000000000000013
#0661b:00000013
#0661a:2424
#06616:24242400
#06718:13001313
#0671b:0013001300000013
#06712:0013000013000000
#06715:0000130000130000
#06818:0000001300001300
#06815:0000000000000013
#06812:0000000000130000
#06914:00000013
#06919:00000013
#06912:2424
#06916:24240000
#0691a:00242400
#07012:1300001300000013
#0701b:13
#07018:0013000000000000
#07015:00000013000000000000000000000000
#07010:41
#07318:00132400
#0731b:0000001300000000
#07312:13
#07315:0013000000000000
#07314:0024
#0721b:1300001300000013
#07212:13
#07215:0013000000000000
#07218:00000013000000000000000000000000
#07515:00130000
#07518:0000001300240000
#0751b:13
#07512:0013000024000000
#0751a:0024
#07514:0000000000240000
#07412:1300001300000013
#0741b:13
#07418:0013000000000000
#07415:00000013000000000000000000000000
#07612:1313
#0761b:1300001300000013
#07615:0013000000130000
#07618:00000013000000000000000013000000
#0781b:13
#07812:1300001300000000
#07818:0013130000000013
#07815:00000013000000000000130000000000
#07810:41
#0791b:13
#07916:0014000024240024
#07918:00140000
#0791a:0000001424002400
#07912:00000024
#0801b:1300001300000000
#08015:0013130000000013
#08018:00000013000000000000130000000000
#08112:1300001424002400
#08116:0014000024240024
#08114:00140000
#0811a:00000024
#08212:1300001300000000
#08218:0013130000000013
#08215:00000013000000000000130000000000
#0831b:13
#08316:0014000024240024
#08318:00140000
#0831a:0000001424002400
#08312:00000024
#08314:00340000
#0841b:1300001313000000
#08415:0013130000000013
#08418:00000013000000000000000000001300
#08412:0013
#08512:24000013
#0851b:00000013
#0851a:24
#08514:00242400
#08518:00242400
#08615:12
#08619:12
#00114:0012000000000000
#00117:00120000
#0011a:0000001200000000
#00112:0012
#00115:0000000000120000
#00119:00000012
#0011c:0000000000000012
#04615:0000000000000013
#04612:00000013
#0461f:11
#04718:13
#04715:0013000000000000
#0471b:0013000000000000
#05015:0000000000000013
#05012:00000013
#05118:13
#05115:0013000000000000
#0511b:0013000000000000
#0521b:1300001300000000
#05218:0013000000133300
#05215:0000130000133300
#05212:1300001300000000
#0771a:24000013
#07713:00000013
#07712:24
#07714:00242400
#07718:00242400
#0431a:2400003400000024
#04316:00240024
#04312:0000002424000034
#02612:2400000023000024
#02615:0000240000230000
#02618:00000023
#0261a:0000240000000024
#02617:24
#00012:24
#0001a:24
#04412:24
#0441a:24
#04416:000000000000000000000000000000000000000000000000000000000000000000000000000000000000000000000000000000000000000000000000000000000000000000000000000000000000000000000000000000000000000000000000000000000000000000000000000000000000000000000000000000000000000000000000000000000000000000000000000000000000000000000000000000000000000000000000000000000000000000000000000000000000000000000000000000000000000000000000000000000000000000000000000000000000000000000000000000000000000000000000000000000000000000000000000000000000000000000000000000000000000000000000000000000000000000000000000000000000000000000000000000000000000000000000000000000000000000000000000000000000000000000000000000000000000000000000000000000000000000000000000000000000000000000000000000000000000000000000000000000000000000000000000000000000000000000000000000000000000000000000000000000000000000000000000000000000000000000000000000000000000000000000000000000000000000000000000000000000000000000000000000000000000000000000000000000000000000000000000000000000000000000000000000000000000000000000000000000000000000000000000000000000000000000000000000000000000000000000000000000000000000000000000000000000000000000000000000000000000000000000000000000000000000000000000000000000000000000000000000000000000000000000000000000000000000000000000000000000000000000000000000000000000000000000000000000000000000000000000000000000000000000000000000000000000000000000000000000000000000000000000000000000000000000000000000000000000000000000000000000000000000000000000000000000000000000000000000000000000000000000000000000000000000000000000000000000000000000000000000000000000000000000000000000000000000000000000000000000000000000000000000000000000000000000000000000000000000000000000000000000000000000000000000000000000000000000000000000000000000000000000000000000000000000000000000000000000000000000000000000000000000000000000000000000000000000000000000000000000000000024240000000000000000000000000000000000000000000000000000000000000000000000000000000000000000000000000000000000000000000000000000000000000000000000000000000000000000000000000000000000000000000000000000000000000000000000000000000000000000000000000000000000000000000000000000000000000000000000000000000000000000000000000000000000000000000000000000000000000000000000000000000000000000000000000000000000000000000000000000000000000000000000000000000000000000000000000000000000000000000000000000000000000000000000000000000000000000000000000000000000000000000000000000000000000000000000000000000000000000000000000000000000000000000000000000000000000000000000000000000000000000000000000000000000000000000000000000000000000000000000000000000000000000000000000000000000000000000000000000000000000000000000000000000000000000000000000000000000000000000000000000000000000000000000000000000000000000000000000000000000000000000000000000000000000000000000000000000000000000000000000000000000000000000000000000000000000000000000000000000000000000000000000000000000000000000000000000000000000000000000000000000000000000000000000000000000000000000000000000000000000000000000000000000000000000000000000000000000000000000000000000000000000000000000000000000000000000000000000000000000000000000000000000000000000000000000000000000000000000000000000000000000000000000000000000000000000000000000000000000000000000000000000000000000000000000000000000000000000000000000000000000000000000000000000000000000000000000000000000000000000000000000000000000000000000000000000000000000000000000000000000000000000000000000000000000000000000000000000000000000000000000000000000000000000000000000000000000000000000000000000000000000000000000000000000000000000000000000000000000000000000000000000000000000000000000000000000000000000000000000000000000000000000000000000000000000000000000000000000000000000000000000000000000000000000000000000000000000000000000000
#04812:23
#04818:2300000000000023
#0481b:00000023
#04915:23
#04912:0023000000000000
#04918:0023000000000000
#01255:0053
#01258:0000000000000063
#0285a:1414
#02856:14141400
#02852:00140000
#03552:14
#0355a:14
#03554:00141400
#03558:00141400
#04058:0000630000000063
#04055:0053
#04252:63
#04255:00000023000000000000000000000000
#0425b:0053
#04258:00000000000000000000002300000000
#04356:00240024
#0435a:54
#04352:0064
#03154:0024000054001400
#0315a:6400140000240000
#03152:5400140000240000
#03158:0024000064001400
#06552:1414
#0655a:1414
#06556:00140000
#0665a:1414
#06656:14141400
#06652:00140000
#07154:00000014
#07152:0064
#0715a:0054
#07158:00000014
#07752:14
#0775a:14
#07754:00141400
#07758:00141400
#00052:14
#0005a:14
#0025b:0000005300000000
#00352:00000014
#0035a:00000014
#00552:00000013
#0055b:00000013
#00555:0053
#00752:00000013
#00758:0063
#0075b:00000013
#00952:0063
#00955:00000013
#00958:00000013
#01058:0053
#01152:14
#0115a:14
#01154:00141400
#01158:00141400
#0135b:0053
#01352:00000053
#01658:0063
#01655:0000000000000053
#01752:0063
#0175b:00000063
#01952:0053000000000000
#01957:0053000000000000
#01956:0000001300000000
#0195b:0000001300000000
#02056:0053
#0205b:6363
#02058:00000063000000000000000000000000
#02158:0063
#02152:5300000000000023
#02155:00000053000000000000000053000000
#0215b:0000000000230000
#02358:00000063
#0245b:00000053000000000000230000000000
#02452:5300000000230000
#02458:0063
#02455:0053
#02552:00000063000000000000230000000000
#0255b:6300000000000023
#02555:0053
#02558:00000063
#02652:1400000000000014
#02657:14
#0265a:0000140000000014
#02655:00140000
#02952:0053000000000000
#02955:00230000
#03055:0000005300000000
#03052:53
#03252:1414
#03256:14141400
#0325a:00140000
#0335b:0063000000000000
#03358:00230000
#03458:0000006300000000
#0345b:63
#03658:53
#0365b:0053
#03758:53
#03755:63
#0375a:0014
#03756:00001414
#03752:00000014
#03855:63
#03852:0063
#03955:63
#03958:53
#03952:0014
#03956:00001414
#0395a:00000014
#04452:64
#0445a:64
#04456:000000000000000000000000000000000000000000000000000000000000000000000000000000000000000000000000000000000000000000000000000000000000000000000000000000000000000000000000000000000000000000000000000000000000000000000000000000000000000000000000000000000000000000000000000000000000000000000000000000000000000000000000000000000000000000000000000000000000000000000000000000000000000000000000000000000000000000000000000000000000000000000000000000000000000000000000000000000000000000000000000000000000000000000000000000000000000000000000000000000000000000000000000000000000000000000000000000000000000000000000000000000000000000000000000000000000000000000000000000000000000000000000000000000000000000000000000000000000000000000000000000000000000000000000000000000000000000000000000000000000000000000000000000000000000000000000000000000000000000000000000000000000000000000000000000000000000000000000000000000000000000000000000000000000000000000000000000000000000000000000000000000000000000000000000000000000000000000000000000000000000000000000000000000000000000000000000000000000000000000000000000000000000000000000000000000000000000000000000000000000000000000000000000000000000000000000000000000000000000000000000000000000000000000000000000000000000000000000000000000000000000000000000000000000000000000000000000000000000000000000000000000000000000000000000000000000000000000000000000000000000000000000000000000000000000000000000000000000000000000000000000000000000000000000000000000000000000000000000000000000000000000000000000000000000000000000000000000000000000000000000000000000000000000000000000000000000000000000000000000000000000000000000000000000000000000000000000000000000000000000000000000000000000000000000000000000000000000000000000000000000000000000000000000000000000000000000000000000000000000000000000000000000000000000000000000000000000000000000000000000000000000000000000000000000000000000000000000000000000000024240000000000000000000000000000000000000000000000000000000000000000000000000000000000000000000000000000000000000000000000000000000000000000000000000000000000000000000000000000000000000000000000000000000000000000000000000000000000000000000000000000000000000000000000000000000000000000000000000000000000000000000000000000000000000000000000000000000000000000000000000000000000000000000000000000000000000000000000000000000000000000000000000000000000000000000000000000000000000000000000000000000000000000000000000000000000000000000000000000000000000000000000000000000000000000000000000000000000000000000000000000000000000000000000000000000000000000000000000000000000000000000000000000000000000000000000000000000000000000000000000000000000000000000000000000000000000000000000000000000000000000000000000000000000000000000000000000000000000000000000000000000000000000000000000000000000000000000000000000000000000000000000000000000000000000000000000000000000000000000000000000000000000000000000000000000000000000000000000000000000000000000000000000000000000000000000000000000000000000000000000000000000000000000000000000000000000000000000000000000000000000000000000000000000000000000000000000000000000000000000000000000000000000000000000000000000000000000000000000000000000000000000000000000000000000000000000000000000000000000000000000000000000000000000000000000000000000000000000000000000000000000000000000000000000000000000000000000000000000000000000000000000000000000000000000000000000000000000000000000000000000000000000000000000000000000000000000000000000000000000000000000000000000000000000000000000000000000000000000000000000000000000000000000000000000000000000000000000000000000000000000000000000000000000000000000000000000000000000000000000000000000000000000000000000000000000000000000000000000000000000000000000000000000000000000000000000000000000000000000000000000000000000000000000000000000000000000000000000000000000
#0555b:0063000000000000
#05558:00230000
#05652:0000006300000000
#0575a:6400140000240000
#05758:0024000064001400
#05752:5400140000240000
#05754:0024000054001400
#05952:0053000000000000
#05955:00230000
#05452:1414
#05456:14141400
#0545a:00140000
#0615a:14
#06152:14000053
#06158:00141400
#06154:00141400
#0585a:1414
#05856:14141400
#05852:00140000
#06355:0063
#06352:00000014
#06358:0053
#0635a:00000014
#06458:00000053
#06455:00000053
#06752:0053000000000000
#06755:00230000
#0675b:0000006300000000
#06758:0023
#06858:0000006300000000
#06952:1414
#06956:14140000
#0695a:00141400
#07354:0054
#07352:00000014
#07358:0064
#0735a:00000014
#07552:00006414
#0755a:00005414
#07558:0000000000240000
#07554:0000000000240000
#07652:0053
#07655:0000000000230000
#07858:00530000
#07956:0000000034240024
#0795a:00005444
#07952:00000064
#08055:00630000
#08156:0000000044240024
#08152:00006434
#0815a:00000054
#08258:00530000
#08356:0000000034240024
#0835a:00005444
#08352:00000064
#08455:00630000
#08452:0053
#0845b:0053
#08552:14
#0855a:14
#08554:00141400
#08558:00141400
#08759:4545
#08752:00350000
#0475b:0053000000000000
#04755:0053000000000000
#04952:0053000000000000
#04958:0053000000000000
#05155:0053000000000000
#0515b:0053000000000000
#05252:0000005300000000
#0525b:0000005300000000
#05253:0000000000000015
#05258:0000000000230015
#05255:0000000000230000
#0605b:0000005300000000
#0023b0:0000001300000000
#002380:0000000000230000
#004350:0000000013230000
#004320:0000000000001323
#005350:0013
#005320:0000000000532300
#006380:0000000013230000
#0063b0:0000000000001323
#007380:0013
#0073b0:0000000000532300
#008350:0013
#008320:0000000000230000
#008320:00000013
#008350:0000000000000023
#009320:0013
#009350:0000000000532300
#010380:0013
#0103b0:0000000000005323
#012350:0013
#012320:00000023
#012380:0000000000000013
#0133b0:0023000000000000
#0133b0:0013
#013370:00000023
#013321:00000013
#014361:23
#016381:0013
#0163b1:00000023
#016351:0000000000000013
#017321:0023000000000000
#017321:0013
#017361:00000023
#0173b0:00000013
#018370:23
#019320:0013000000000000
#019360:0000332300000000
#019371:0013000000000000
#0193b1:0000332300000000
#0203b1:1300003333000000
#020381:00000033000000000000000000000000
#020371:00000023
#020360:0013
#020320:00000023
#021320:1300003323000000
#021350:00000033000000000000000000000000
#021381:00001323
#0213b1:0000000000530000
#021350:00000013
#021320:0000000000000053
#022350:23
#022320:0000000013230000
#022350:0000000000001323
#023320:0000133323000000
#023380:00000013
#0243b0:23
#024321:13
#024351:00000023000000000000000000000000
#0243b0:00000013000000000000000000000000
#024380:0000002300000000
#024350:00001323
#024320:0000000000530000
#024381:00001323
#0243b1:0000000000530000
#0253b1:13
#025381:00000023000000000000000000000000
#025320:00000013000000000000000000000000
#025350:0000002300000000
#025350:00001323
#025320:0000000000530000
#025381:00000013
#0253b1:0000000000000053
#026371:24
#027321:0000000014240000
#027380:0000000000142400
#027341:0000000000001424
#0273a0:0000000000000014
#0283a0:24
#029320:0013002300000000
#029350:00530000
#030320:13
#030350:00230000
#030350:0000001300000000
#030320:0000000000230000
#0313a0:14240000
#031380:0054000000000000
#031321:14240000
#031341:0054000000000000
#031341:00001424
#031321:0000000000540000
#031380:00001424
#0313a0:0000000000540000
#0333b0:0013002300000000
#033380:00530000
#0343b0:13
#034380:00230000
#034380:0000001300000000
#0343b0:0000000000230000
#036380:13
#0363b0:0033
#037380:33
#0373b0:00230000
#037351:13
#037321:00230000
#038351:13
#038321:0033
#039351:33
#039321:00230000
#039380:13
#0393b0:00230000
#040380:00130000
#0403b0:0023
#040351:0013
#040321:00000023
#040381:0000000000000013
#0413b1:0023000000000000
#042321:1300002300000000
#042351:00000053000000000000000000000000
#0423b1:0000000013000023
#042381:00000000000000000000005300000000
#0433a1:1400003424000000
#043361:00540000
#043320:0000000014000034
#043360:00000054
#044320:34
#044360:0054
#045320:24
#0443a1:14
#044361:000000000000000000000000000000000000000000000000000000000000000000000000000000000000000000000000000000000000000000000000000000000000000000000000000000000000000000000000000000000000000000000000000000000000000000000000000000000000000000000000000000000000000000000000000000000000000000000000000000000000000000000000000000000000000000000000000000000000000000000000000000000000000000000000000000000000000000000000000000000000000000000000000000000000000000000000000000000000000000000000000000000000000000000000000000000000000000000000000000000000000000000000000000000000000000000000000000000000000000000000000000000000000000000000000000000000000000000000000000000000000000000000000000000000000000000000000000000000000000000000000000000000000000000000000000000000000000000000000000000000000000000000000000000000000000000000000000000000000000000000000000000000000000000000000000000000000000000000000000000000000000000000000000000000000000000000000000000000000000000000000000000000000000000000000000000000000000000000000000000000000000000000000000000000000000000000000000000000000000000000000000000000000000000000000000000000000000000000000000000000000000000000000000000000000000000000000000000000000000000000000000000000000000000000000000000000000000000000000000000000000000000000000000000000000000000000000000000000000000000000000000000000000000000000000000000000000000000000000000000000000000000000000000000000000000000000000000000000000000000000000000000000000000000000000000000000000000000000000000000000000000000000000000000000000000000000000000000000000000000000000000000000000000000000000000000000000000000000000000000000000000000000000000000000000000000000000000000000000000000000000000000000000000000000000000000000000000000000000000000000000000000000000000000000000000000000000000000000000000000000000000000000000000000000000000000000000000000000000000000000000000000000000000000000000000000000000000000000000000000054000000000000000000000000000000000000000000000000000000000000000000000000000000000000000000000000000000000000000000000000000000000000000000000000000000000000000000000000000000000000000000000000000000000000000000000000000000000000000000000000000000000000000000000000000000000000000000000000000000000000000000000000000000000000000000000000000000000000000000000000000000000000000000000000000000000000000000000000000000000000000000000000000000000000000000000000000000000000000000000000000000000000000000000000000000000000000000000000000000000000000000000000000000000000000000000000000000000000000000000000000000000000000000000000000000000000000000000000000000000000000000000000000000000000000000000000000000000000000000000000000000000000000000000000000000000000000000000000000000000000000000000000000000000000000000000000000000000000000000000000000000000000000000000000000000000000000000000000000000000000000000000000000000000000000000000000000000000000000000000000000000000000000000000000000000000000000000000000000000000000000000000000000000000000000000000000000000000000000000000000000000000000000000000000000000000000000000000000000000000000000000000000000000000000000000000000000000000000000000000000000000000000000000000000000000000000000000000000000000000000000000000000000000000000000000000000000000000000000000000000000000000000000000000000000000000000000000000000000000000000000000000000000000000000000000000000000000000000000000000000000000000000000000000000000000000000000000000000000000000000000000000000000000000000000000000000000000000000000000000000000000000000000000000000000000000000000000000000000000000000000000000000000000000000000000000000000000000000000000000000000000000000000000000000000000000000000000000000000000000000000000000000000000000000000000000000000000000000000000000000000000000000000000000000000000000000000000000000000000000000000000000000000000000000000000000000000000000000000000000000
#0453a1:24
#046351:13000000005300002300000000000000
#046321:00530000330000000000000000000000
#0463b0:13000000005300002300000000000000
#046380:00530000330000000000000000000000
#0473b0:0013000000000000
#047380:0000002300000000
#047351:0013000000000000
#047321:0000002300000000
#048381:13000000005300002300000000000000
#0483b1:00530000330000000000000000000000
#048320:13000000005300002300000000000000
#048350:00530000330000000000000000000000
#049320:0013000000000000
#049350:0000002300000000
#049381:0013000000000000
#0493b1:0000002300000000
#050351:13000000005300002300000000000000
#050321:00530000330000000000000000000000
#0503b0:13000000005300002300000000000000
#050380:00530000330000000000000000000000
#0513b0:0013000000000000
#051380:0000002300000000
#051351:0013000000000000
#051321:0000002300000000
#052321:0000001300000000
#052351:0000000000333300
#052331:0000000000000025
#0523b0:0000001300000000
#052380:0000000000333325
#0533a0:0000000014240000
#053341:0000000000142400
#053380:0000000000001424
#053321:0000000000000014
#054321:24
#0553b1:0013002300000000
#055381:00530000
#056381:1323000000000000
#056350:0013230000000000
#056381:0000132300000000
#056320:0000001300000000
#056350:0000000000230000
#057320:14240000
#057340:0054000000000000
#0573a1:14240000
#057381:0054000000000000
#057381:00001424
#0573a1:0000000000540000
#057340:00001424
#057320:0000000000540000
#059320:0013002300000000
#059350:00530000
#060350:1323000000000000
#060381:0013230000000000
#060350:0000132300000000
#0603b1:0000001300000000
#060381:0000000000230000
#061321:00000013
#062351:23
#063351:0013
#063321:00000024
#064381:00000013
#0653a1:24
#067321:0013002300000000
#067351:00530000
#0673b0:0000001300230000
#067380:0053
#068320:13
#068350:0023000000000000
#068381:0013000000000000
#0683b1:00230000
#068350:00130000
#068320:0000002300000000
#068381:0000001300000000
#0683b1:0000000000230000
#070381:0000132300000000
#0703b1:0000000013230000
#070350:0000000000132300
#070381:0000000000001323
#071321:0014
#071341:00000024
#0713a0:0014
#071380:00000024
#072350:0000132300000000
#072320:0000000013230000
#072381:0000000000132300
#072350:0000000000001323
#073340:0014
#073320:00000024
#073381:0014
#0733a1:00000024
#074381:0000132300000000
#0743b1:0000000013230000
#074350:0000000000132300
#074381:0000000000001323
#075321:00001424
#075341:0000000000540000
#0753a0:00001424
#075380:0000000000540000
#076350:0000132300000000
#076320:0000000013003323
#076350:0000000000530000
#078380:00130000
#0783b0:0000002300000000
#0783b0:00001323
#078321:00000013
#079321:23
#079321:0014000000000000
#079341:00340000
#079361:0000003424000000
#0793a0:00001424
#079360:0000000000540000
#079321:00000014
#079361:0000000000000054
#080321:24
#080351:00130000
#080321:0000002300000000
#080321:00001323
#0803b0:00000013
#0813b0:23
#0813a0:0014000000000000
#081380:00340000
#081360:0000003424000000
#081321:00001424
#081361:0000000000540000
#0813a0:00000014
#081360:0000000000000054
#0823a0:24
#082380:00130000
#0823b0:0000002300000000
#0823b0:00001323
#082321:00000013
#083321:23
#083321:0014000000000000
#083341:00340000
#083361:0000003424000000
#0833a0:00001424
#083360:0000000000540000
#083321:00000014
#083361:0000000000000054
#084321:24
#084351:00130000
#084321:0000002300000000
#084321:0013
#084351:00000023
#0843b0:0013
#084380:00000023
#004980:0013000000000000
#0049a0:00230000
#006950:0013000000000000
#006930:00230000
#008980:0013000000000000
#0089a0:00230000
#010950:0013000000000000
#010930:00230000
#019940:0000000000130000
#019920:0000000000005323
#062980:1300005300005300
#0629b0:0000530000530000
#0639b0:5300005300000000
#063980:0053000053000000
#0639a0:000000000000000000000000000000000000000000000000000000000000000000000000000000000000000000000000000000000000000000000000000000000000000000000000000000000000000000000000000000000000000000000000000000000000000000000000000000000000000000000000000000000000000000000000000000000000000000000000000000000000000000000000000000000000000000000000000000000000000000000000000000000000000000000000000000000000000000000000000000000000000000000000000000000000000000000000000000000000000000000000000000000000000000000000000000000000000000000000000000000000000000000000000000000000000000000000000000000000000000000000000000000000000000000000000000000000000000000000000000000000000000000000000000000000000000000000000000000000000000000000000000000000000000000000000000000000000000000000000000000000000000000000000000000000000000000000000000000000000000000000000000000000000000000000000000000000000000000000000000000000000000000000000000000000000000000000000000000000000000000000000000000000000000000000000000000000000000000000000000000000000000000000000000000000000000000000000000000000000000000000000000000000000000000000000000000000000000000000000000000000000000000000000000000000000000000000000000000000000000000000000000000000000000000000000000000000000000000000000000000000000000000000000000000000000000000000000000000000000000000000000000000000000000000000000000000000000000000000000000000000000000000000000000000000000000000000000000000000000000000000000000000000000000000000000000000000000000000000000000000000000000000000000000000000000000000000000000000000000000000000000000000000000000000000000000000000000000000000000000000000000000000000000000000000000000000000000000000000000000000000000000000000000000000000000000000000000000000000000000000000000000000000000000000000000000000000000000000000000000000000000000000000000000000000000000000000000000000000000000000000000000000000000000000000000000000000000000000000000000000000000000000000000000000000000000000000000000000000000000000000000000000000000000000000000000000000000000000000000000000000000000000000000000000000000000000000000000000000000000000000000000000000000000000000000000000000000000000000000000000000000000000000000000000000000000000000000000000000000000000000000000000000000000000000000000000000000000000000000000000000000000000000000000000000000000000000000000000000000000000000000000000000000000000000000000000000000000000000000000000000000000000000000000000000000000000000000000000000000000000000000000000000000000000000000000000000000000000000000000000000000000000000000000000000000000000000000000000000000000000000000000000000000000000000000000000000000000000000000000000000000000000000000000000000000000000000000000000000000000000000000000000000000000000000000000000000000000000000000000000000000000000000000000000000000000000000000000000000000000000000000000000000000000000000000000000000000000000000000000000054240000000000000000000000000000000000000000000000000000000000000000000000000000000000000000000000000000000000000000000000000000000000000000000000000000000000000000000000000000000000000000000000000000000000000000000000000000000000000000000000000000000000000000000000000000000000000000000000000000000000000000000000000000000000000000000000000000000000000000000000000000000000000000000000000000000000000000000000000000000000000000000000000000000000000000000000000000000000000000000000000000000000000000000000000000000000000000000000000000000000000000000000000000000000000000000000000000000000000000000000000000000000000000000000000000000000000000000000000000000000000000000000000000000000000000000000000000000000000000000000000000000000000000000000000000000000000000000000000000000000000000000000000000000000000000000000000000000000000000000000000000000000000000000000000000000000000000000000000000000000000000000000000000000000000000000000000000000000000000000000
#064950:1300005300005300
#064920:0000530000530000
#065920:24
