This file was generated by Ched 2.7.0.0.
#TITLE ""
#ARTIST ""
#DESIGNER ""
#DIFFICULTY 0
#PLAYLEVEL
#SONGID ""
#WAVE ""
#WAVEOFFSET 0
#JACKET ""
#REQUEST "ticks_per_beat 480"
#00002: 4
#BPM01: 176
#00008: 01
#TIL00: ""
#VOLUME: ""
#HISPEED 00
#MEASUREHS 00
#0871b:00000013
#08712:24000013
#0871a:24
#08714:00242400
#08718:00242400
#00215:13130000
#00218:0013000000000000
#0021b:0000001300000000
#0031a:00000014
#00312:00000014
#00318:24
#00314:00242400
#00412:23130000
#00418:00130000
#0041b:00001313
#00415:00000013
#00512:13
#00518:0013000000000000
#00515:00130000
#0051b:0000001300000000
#0061b:13130000
#00615:00130000
#00612:00001313
#00618:00000013
#0071b:13
#00715:0013000000000000
#00718:00130000
#00712:0000001300000000
#00812:00130013
#0081b:00130013
#00818:0013
#00815:13
#00915:13
#00918:0013000000000000
#00912:00130000
#0091b:0000001300000000
#0101b:00130013
#01012:00130013
#01015:0013
#01018:13
#01112:24000013
#0111b:00000013
#0111a:24
#01113:00242400
#01119:00242400
#01215:1313
#0121b:0013000000000000
#01212:00130000
#01218:0000001300000013
#01210:41
#01315:00130013
#01318:0000001300000000
#01312:0013
#01418:0000001300000000
#01412:0013
#0141b:00000013
#01415:0000000000000013
#01518:0013000000000000
#01512:00130000
#0151b:0000001300000000
#01515:0000000000232300
#01618:1313
#01612:0013000000000000
#0161b:00130000
#01615:0000001300000013
#01718:00130013
#01715:0000001300000000
#0171b:0013
#01815:0000001300002300
#0181b:0000000013000033
#01818:00000023
#01812:0000000000000033
#01915:0000000000000013
#01912:0033330000000000
#0191b:0033330000000000
#02018:1300000000000013
#0201b:00000033000033000000000000000000
#02115:13
#0211a:00000014
#02112:00000033000033000000000000000000
#02212:0013001300000000
#02218:00130013
#0221b:0013
#02215:0000000000130013
#0231b:1313
#02315:0013000000000000
#02318:00130000
#02312:0000001300000000
#02314:00000013
#02319:00000013
#02415:1300000000000013
#02412:00000033000033000000000000000000
#02518:13
#02512:00000014
#0251b:00000033000033000000000000000000
#02712:0013000000000000
#02718:00130000
#02713:0000001300000000
#02719:0013
#02714:0000000000130000
#0271a:00000013
#02715:0000000000000013
#02815:00000013
#02818:0000000000000013
#0281a:2424
#02812:00240000
#02810:41
#02912:1300001300000000
#0291b:0013000000000013
#02918:0000001300000000
#03015:1300130000000013
#03018:0013000000001300
#0301b:0000001300000000
#03012:0000000000130000
#03212:00000013
#03218:2400000024000013
#03214:00240000
#03315:13
#0331b:0013000000000000
#03312:0000000000000013
#03418:1300130000000013
#03415:0013000000001300
#03412:0000001300000000
#0341b:0000000000130000
#03618:1300001300000000
#03615:00130000
#03612:0000000000130000
#0361b:00000013
#03610:41
#03512:2400000000000013
#03518:00242400
#03514:0024
#03815:1300001300000000
#03818:00130000
#0381b:0000000000130000
#03812:00000013
#04012:13
#0401b:13
#04018:0000130000000013
#04015:00000013
#04112:0013000000000000
#04118:0000130000000013
#0411b:0000001300000000
#04115:00000013
#04212:13
#04218:0000000000000014
#05215:13
#05218:13
#05212:0033331300333300
#0521b:0033331300333300
#05312:0013000000000000
#05318:00130000
#05313:0000001300000000
#05319:0013
#05314:0000000000130000
#0531a:00000013
#05315:0000000000000013
#05415:00000013
#05418:0000000000000013
#0541a:2424
#05412:00240000
#0541f:21
#05512:1300001300000000
#0551b:0013000000000013
#05518:0000001300000000
#05615:1300130000000013
#05618:0013000000001300
#0561b:0000001300000000
#05612:0000000000130000
#05610:41
#05812:00000013
#05818:2400000024000013
#05814:00240000
#05915:13
#0591b:0013000000000000
#05912:0000000000000013
#06018:1300130000000013
#06015:0013000000001300
#06012:0000001300000000
#0601b:0000000000130000
#05718:14
#05714:0024
#06114:00002413
#06119:00000013
#06112:24
#06118:00242400
#0651b:00000013
#06512:0000000014000013
#06516:00140000
#0651a:14
#06612:00000013
#06618:2400000024000013
#06614:00240000
#06715:13
#0671b:0013000000000013
#06712:0000001300000000
#06718:0000001300000000
#06815:1300130000000013
#06818:0013000000001300
#0681b:0000001300000000
#06812:0000000000130000
#06912:00000013
#0691b:00000013
#0691a:24
#06914:00242400
#06918:0024
#07015:13130013
#0701b:0013000000000013
#07018:0000001300130000
#07012:0013
#07010:41
#07112:0013000000000000
#07118:00130000
#07115:0000001300000000
#0711a:0024
#07218:13130013
#07212:0013000000000013
#07215:0000001300130000
#0721b:0013
#0731b:0013000000000000
#07315:00130000
#07318:0000001300000000
#07312:0024
#07415:1313
#0741b:0013000000000013
#07412:00130013
#07418:0000001300130000
#07512:0013000000000000
#07518:00130000
#07515:0000001300000000
#0751a:0024
#07618:1313
#07612:0013000000000000
#0761b:00130000
#07615:0000001300000000
#0761a:00000034
#07712:00002413
#0771b:00000013
#0771a:2424
#07716:00240000
#07815:1300130000130000
#0781b:0013000000000013
#07818:0000001300001300
#07812:0013
#07810:41
#08018:1300130000130000
#08012:0013000000000013
#08015:0000001300001300
#0801b:0013
#07912:0013000000002400
#07917:0013000000000000
#0791a:0024
#07916:00002424
#07919:00330000
#07914:00330000
#08215:1300130000130000
#0821b:0013000000000013
#08218:0000001300001300
#08212:0013
#0841b:13
#08415:0013000000000000
#08418:00131300
#08412:0000001300000000
#08512:00002413
#0851b:00000013
#0851a:2424
#08516:00240000
#08619:13
#08614:13
#0461a:1353
#0461f:11
#04618:00530053
#04619:0000000000000053
#0501a:1353
#05018:00530053
#05019:0000000000000053
#0621b:13
#06218:0000131300000000
#06215:0000000000131300
#06212:13
#0631b:1313000000000000
#06312:0000001313000000
#06412:13
#06418:0000131300000000
#06415:0000000000131300
#0641b:13
#0811b:0013000000000000
#08116:0013000024002400
#0811a:00000024
#08112:0024
#08114:00330000
#08119:00330000
#08312:0013000000002400
#08317:0013000000000000
#08316:00002424
#0831a:0024
#08319:00330000
#08314:00330000
#04314:2400003400000000
#04312:00240000
#04318:0000000024000034
#0431a:00000024
#04414:24
#04418:24
#02612:24242300
#0261a:24240000
#02618:0000000000230000
#02615:00000023
#0261b:0000000000000023
#03712:0024
#03717:0024
#0391a:0024
#03915:0024
#03112:0024
#04813:2363
#04815:00630063
#04814:0000000000000063
#0471a:53
#0471b:0053005300000000
#0511a:53
#0511b:0053005300000000
#04913:63
#04912:0063006300000000
#0025b:0000005300000000
#00358:14
#00354:00141400
#01255:0053
#01258:0000000000000063
#01352:0053
#01355:00000063
#01658:0063
#01655:0000000000000053
#0175b:0063
#01758:00000053
#01952:0000001400000000
#0195a:0000001400000000
#01855:00000053
#01858:00000063
#02058:53
#0205a:0014
#02155:63
#02152:0014
#0215a:00000014
#02455:63
#02452:0014
#02558:53
#02552:00000014
#0255a:0014
#0285a:1414
#02852:00140000
#03258:1414
#03254:00140000
#0335b:0053000000000000
#03552:14
#03558:00141400
#03554:0014
#0365b:00000053
#03752:00000014
#03757:00000014
#03852:00000063
#0395a:00000014
#03955:00000014
#04058:00630000
#04252:63
#04352:00240000
#04354:54
#04358:0064
#0435a:00000024
#04454:54
#04458:64
#05255:53
#05252:0000002300000015
#05258:63
#05259:0000000000000015
#0525b:0000002300000000
#0595b:0053000000000000
#0545a:1414
#05452:00140000
#06152:14
#06158:00141400
#06154:0014
#05858:1414
#05854:00140000
#05758:54
#0575a:00140000
#05752:00000014
#05754:0054
#03152:00000014
#0315a:00140000
#06552:0014
#06556:00140000
#0655a:14
#0695a:14
#06954:00141400
#06958:0014
#06658:1414
#06654:00140000
#07157:00000014
#0715a:0054
#07352:0064
#07355:00000014
#0755a:0054
#07557:00000014
#07658:0053
#0775a:1414
#07756:00140000
#07752:0014
#0795a:0014
#07956:00001414
#07952:0053000000001400
#07957:0053000000000000
#0815a:00000014
#08156:0063000014001400
#0815b:0063000000000000
#08152:0014
#08352:0053000000001400
#08356:00001414
#08357:0053000000000000
#0835a:0014
#08458:0053
#0855a:1414
#08556:00140000
#08552:0014
#08752:14
#0875a:14
#08754:00141400
#08758:00141400
#06355:00000013
#06352:0053
#0023b0:0000001300000000
#002380:0000000000343434
#003380:24
#005320:00001323
#0073b0:00001323
#009350:00001323
#012350:0013
#012320:00000023
#012380:0000000000000013
#0133b0:0023000000000000
#013320:0013
#013350:00000033
#014320:23
#016380:0013
#0163b0:00000023
#016350:0000000000000013
#017320:0023000000000000
#0173b0:0013
#017380:00000033
#0183b0:23
#018350:00000013
#018320:0000000000000033
#019320:0033332400000000
#018381:00000013
#0183b1:0000000000000033
#0193b1:0033330000000000
#0193a1:0000002400000000
#020381:13
#0203b1:00000033000033000000000000000000
#0203a1:0024
#021351:13
#021321:00000033000033002400000000000000
#024351:13
#024321:00000033000033002400000000000000
#025381:13
#0253b1:00000033000033000000000000000000
#0253a1:0024
#0313a1:14240000
#031321:00001424
#0333b1:0013000000000000
#033381:0000002300000000
#0363b1:00000013
#037381:23
#037321:00001424
#037370:00001424
#038320:00000013
#039350:23
#0393a0:00001424
#039351:00001424
#040381:00130000
#0403b1:0023
#042321:13
#042351:0000003323000000
#043341:1400003424000000
#043321:00540000
#043380:0000000014000034
#0433a0:00000054
#044380:34
#0453b0:23
#044341:14
#045321:23
#052351:13
#052321:0033333300333325
#052380:13
#0523b0:0033333300333300
#052390:0000000000000025
#057380:14
#0573a0:0054240000000000
#057340:0014
#057320:0000000000542400
#0593b0:0013000000000000
#059380:0000002300000000
#063320:0013
#063350:00000023
#0713a0:0014
#071370:0000000000542400
#073320:0014
#073350:0000000000542400
#0753a0:0014
#075370:0000000000542400
#076380:0013
#0763a0:0000000000003434
#0773a0:24
#079370:0013000000000000
#079390:00330000
#0793a0:0000003424000000
#079321:0013000000000000
#079341:00330000
#079361:0000003424000000
#081361:0013000000000000
#081341:00330000
#081321:0000003424000000
#0813b0:0013000000000000
#081390:00330000
#081360:0000003424000000
#083370:0013000000000000
#083390:00330000
#0833a0:0000003424000000
#083321:0013000000000000
#083341:00330000
#083361:0000003424000000
#084381:0013
#0843a1:0000000000003434
#0853a1:24
#0469a0:1353
#046980:00530053
#0479b0:000000000000000000000000000000000000000000000000000000000000000000000000000000000000000000000000000000000000000000000000000000000000000000000000000000000000000000000000000000000000000000000000000000000000000000000000000000000000000000000000000000000000000000000000000000000000000000000000000000000000000000000000000000000000000000000000000000000000000000000000000000000000000000000000000000000000000000000000000000000000000000000000000000000000000000000000000000000000000000000000530000000000000000000000000000000000000000000000000000000000000000000000000000000000000000000000000000000000000000000000000000000000000000000000000000000000000000000000000000000000000000000000000000000000000000000000000000000000000000000000000000000000000000000000000000000000000000000000000000000000000000000000000000000000000000000000000000000000000000000000000000000000000000000000000000000000000000000000000000000000000000000000000000000000000000000000000000000000000000000000000000000000000000000000000000000000000000000000000000000000000000000000000000000000000000000000000000000000000000000000000000000000000000000000000000000000000000000000000000000000000000000000000000000000000000000000000000000000000000000000000000000000000000000000000000000000000000000000000000000000000000000000000000000000000000000000000000000000000000000000000000000000000000000000000000000000000000000000000000000000000000000000000000000000000000000000000000000000000000005353230000000000000000000000000000000000000000000000000000000000000000000000000000000000000000000000000000000000000000000000000000000000000000000000000000000000000000000000000000000000000000000000000000000000000000000000000000000000000000000000000000000000000000000000000000000000000000000000000000000000000000000000000000000000000000000000000000000000000000000000000000000000000000000000000000000000000000000000000000000000000000000000000000000000000000000000000000000000000000000000000000000000000000000000000000000000000000000000000000000000000000000000000000000000000000000000000000000000000000000000000000000000000000000000000000000000000000000000000000000000000000000000000000000000000000000000000000000000000000000000000000000000000000000000000000000000000000000000000000000000000000000000000000000000000000000000000000000000000000000000000000000000000000000000000000000000000000000000000000000000000000000000000000000000000000000000000000000000000000000000000000000000000000000000000000000000000000000000000000000000000000000000000000000000000000000000000000000000000000000000000000000000000000000000000000000000000000000000000000000000000000000000000000000000000000000000000000000000000000000000000000000000000000000000000000000000000000000000000000000000000000000000000000000000000000000000000000000000000000000000000000000000000000000000000000000000000000000000000000000000000000000000000000000000000000000000000000000000000000000000000000000000000000000000000000000000000000000000000000000000000000000000000000000000000000000000000000000000000000000000000000000000000000000000000000000000000000000000000000000000000000000000000000000000000000000000000000000000000000000000000000000000000000000000000000000000000000000000000000000000000000000000000000000000000000000000000000000000000000000000000000000000000000000000000000000000000000000000000000000000000000000000000000000000000000000000000000000000000000000000000000000000000000000000000000000000000000000000000000000000000000000000000000000000000000000000000000000000000000000000000000000000000000000000000000000000000000000000000000000000000000000000000000000000000000000000000000000000000000000000000000000000000000000000000000000000000000000000000000000000000000000000000000000000000000000000000000000000000000000000000000000000000000000000000000000000000000000000000000000000000000000000000000000000000000000000000000000000000000000000
#048930:1353
#048950:00530053
#049920:000000000000000000000000000000000000000000000000000000000000000000000000000000000000000000000000000000000000000000000000000000000000000000000000000000000000000000000000000000000000000000000000000000000000000000000000000000000000000000000000000000000000000000000000000000000000000000000000000000000000000000000000000000000000000000000000000000000000000000000000000000000000000000000000000000000000000000000000000000000000000000000000000000000000000000000000000000000000000000000000530000000000000000000000000000000000000000000000000000000000000000000000000000000000000000000000000000000000000000000000000000000000000000000000000000000000000000000000000000000000000000000000000000000000000000000000000000000000000000000000000000000000000000000000000000000000000000000000000000000000000000000000000000000000000000000000000000000000000000000000000000000000000000000000000000000000000000000000000000000000000000000000000000000000000000000000000000000000000000000000000000000000000000000000000000000000000000000000000000000000000000000000000000000000000000000000000000000000000000000000000000000000000000000000000000000000000000000000000000000000000000000000000000000000000000000000000000000000000000000000000000000000000000000000000000000000000000000000000000000000000000000000000000000000000000000000000000000000000000000000000000000000000000000000000000000000000000000000000000000000000000000000000000000000000000000000000000000000000000005353230000000000000000000000000000000000000000000000000000000000000000000000000000000000000000000000000000000000000000000000000000000000000000000000000000000000000000000000000000000000000000000000000000000000000000000000000000000000000000000000000000000000000000000000000000000000000000000000000000000000000000000000000000000000000000000000000000000000000000000000000000000000000000000000000000000000000000000000000000000000000000000000000000000000000000000000000000000000000000000000000000000000000000000000000000000000000000000000000000000000000000000000000000000000000000000000000000000000000000000000000000000000000000000000000000000000000000000000000000000000000000000000000000000000000000000000000000000000000000000000000000000000000000000000000000000000000000000000000000000000000000000000000000000000000000000000000000000000000000000000000000000000000000000000000000000000000000000000000000000000000000000000000000000000000000000000000000000000000000000000000000000000000000000000000000000000000000000000000000000000000000000000000000000000000000000000000000000000000000000000000000000000000000000000000000000000000000000000000000000000000000000000000000000000000000000000000000000000000000000000000000000000000000000000000000000000000000000000000000000000000000000000000000000000000000000000000000000000000000000000000000000000000000000000000000000000000000000000000000000000000000000000000000000000000000000000000000000000000000000000000000000000000000000000000000000000000000000000000000000000000000000000000000000000000000000000000000000000000000000000000000000000000000000000000000000000000000000000000000000000000000000000000000000000000000000000000000000000000000000000000000000000000000000000000000000000000000000000000000000000000000000000000000000000000000000000000000000000000000000000000000000000000000000000000000000000000000000000000000000000000000000000000000000000000000000000000000000000000000000000000000000000000000000000000000000000000000000000000000000000000000000000000000000000000000000000000000000000000000000000000000000000000000000000000000000000000000000000000000000000000000000000000000000000000000000000000000000000000000000000000000000000000000000000000000000000000000000000000000000000000000000000000000000000000000000000000000000000000000000000000000000000000000000000000000000000000000000000000000000000000000000000000000000000000000000000000000000000000000000000
#0509a0:1353
#050980:00530053
#0519b0:000000000000000000000000000000000000000000000000000000000000000000000000000000000000000000000000000000000000000000000000000000000000000000000000000000000000000000000000000000000000000000000000000000000000000000000000000000000000000000000000000000000000000000000000000000000000000000000000000000000000000000000000000000000000000000000000000000000000000000000000000000000000000000000000000000000000000000000000000000000000000000000000000000000000000000000000000000000000000000000000530000000000000000000000000000000000000000000000000000000000000000000000000000000000000000000000000000000000000000000000000000000000000000000000000000000000000000000000000000000000000000000000000000000000000000000000000000000000000000000000000000000000000000000000000000000000000000000000000000000000000000000000000000000000000000000000000000000000000000000000000000000000000000000000000000000000000000000000000000000000000000000000000000000000000000000000000000000000000000000000000000000000000000000000000000000000000000000000000000000000000000000000000000000000000000000000000000000000000000000000000000000000000000000000000000000000000000000000000000000000000000000000000000000000000000000000000000000000000000000000000000000000000000000000000000000000000000000000000000000000000000000000000000000000000000000000000000000000000000000000000000000000000000000000000000000000000000000000000000000000000000000000000000000000000000000000000000000000000000005353230000000000000000000000000000000000000000000000000000000000000000000000000000000000000000000000000000000000000000000000000000000000000000000000000000000000000000000000000000000000000000000000000000000000000000000000000000000000000000000000000000000000000000000000000000000000000000000000000000000000000000000000000000000000000000000000000000000000000000000000000000000000000000000000000000000000000000000000000000000000000000000000000000000000000000000000000000000000000000000000000000000000000000000000000000000000000000000000000000000000000000000000000000000000000000000000000000000000000000000000000000000000000000000000000000000000000000000000000000000000000000000000000000000000000000000000000000000000000000000000000000000000000000000000000000000000000000000000000000000000000000000000000000000000000000000000000000000000000000000000000000000000000000000000000000000000000000000000000000000000000000000000000000000000000000000000000000000000000000000000000000000000000000000000000000000000000000000000000000000000000000000000000000000000000000000000000000000000000000000000000000000000000000000000000000000000000000000000000000000000000000000000000000000000000000000000000000000000000000000000000000000000000000000000000000000000000000000000000000000000000000000000000000000000000000000000000000000000000000000000000000000000000000000000000000000000000000000000000000000000000000000000000000000000000000000000000000000000000000000000000000000000000000000000000000000000000000000000000000000000000000000000000000000000000000000000000000000000000000000000000000000000000000000000000000000000000000000000000000000000000000000000000000000000000000000000000000000000000000000000000000000000000000000000000000000000000000000000000000000000000000000000000000000000000000000000000000000000000000000000000000000000000000000000000000000000000000000000000000000000000000000000000000000000000000000000000000000000000000000000000000000000000000000000000000000000000000000000000000000000000000000000000000000000000000000000000000000000000000000000000000000000000000000000000000000000000000000000000000000000000000000000000000000000000000000000000000000000000000000000000000000000000000000000000000000000000000000000000000000000000000000000000000000000000000000000000000000000000000000000000000000000000000000000000000000000000000000000000000000000000000000000000000000000000000000000000000000000000000000000
