This file was generated by Ched 2.7.0.0.
#TITLE ""
#ARTIST ""
#DESIGNER ""
#DIFFICULTY 0
#PLAYLEVEL
#SONGID ""
#WAVE ""
#WAVEOFFSET 0
#JACKET ""
#REQUEST "ticks_per_beat 480"
#00002: 4
#BPM01: 158
#00008: 01
#TIL00: ""
#VOLUME: ""
#HISPEED 00
#MEASUREHS 00
#00512:14
#0061a:14
#00712:14
#0091a:14
#01014:14
#01114:14
#01218:14
#01210:41
#01318:14
#01412:14
#01512:14
#0041a:14
#0161a:14
#01614:0014
#0171a:14
#01814:14
#0181a:0014
#01914:14
#02018:14
#02012:0014
#02118:14
#02212:14
#02218:0014
#02312:14
#03212:0016
#03218:26
#03318:16
#03312:0016
#03418:16
#03412:0016
#03618:0016
#03612:16
#03610:41
#03712:16
#03718:0016
#03812:16
#03818:0016
#04018:2616
#04112:1616
#04218:16
#04212:0016
#04412:1616
#04518:1616
#04612:16
#04618:0016
#0521a:14
#05312:14
#0541a:14
#05512:14
#05818:14
#0581f:11
#06014:14
#06218:14
#06618:2616
#0661f:21
#06610:0041
#06818:16
#06812:0016
#07012:1616
#07212:16
#07218:0016
#07612:14
#07618:0014
#07712:1414
#0781a:14
#07814:0014
#0791a:1414
#0081a:24
#06414:24
#06418:0024
#06514:24
#07418:26
#07412:0026
#07518:26
#05710:41
#04710:41
#02410:41
#05858:54
#06054:64
#06258:54
#0003a0:14
#0013a0:24
#002320:14
#003320:24
#0243a0:14
#025380:34
#026380:34
#0273a0:24
#028320:14
#029340:34
#030340:34
#031320:24
#035380:1626
#039320:1626
#043380:1626
#047320:1626
#0483a0:14
#049380:24
#050320:14
#051340:24
#0563a0:14
#058380:34
#0593a0:24
#060340:14
#061320:24
#062380:14
#0633a0:24
#067320:16362600
#069380:1626
#071380:16362600
#073320:16362600
#075380:16362600
