This file was generated by Ched 2.7.0.0.
#TITLE ""
#ARTIST ""
#DESIGNER ""
#DIFFICULTY 0
#PLAYLEVEL
#SONGID ""
#WAVE ""
#WAVEOFFSET 0
#JACKET ""
#REQUEST "ticks_per_beat 480"
#00002: 4
#BPM01: 158
#00008: 01
#TIL00: ""
#VOLUME: ""
#HISPEED 00
#MEASUREHS 00
#0031b:0013
#00312:0013
#00314:00330000000000000000000023000000
#00319:0000000000230000
#00316:00000033000000000000000000000000
#00315:0033000000000000
#00418:2400001300001300
#00415:0013
#0041b:0000000000130000
#00412:00130013
#00517:13
#00512:1300000000530000
#00516:00131353
#0051b:00531313
#00518:00530000000000000000000000000000
#00519:0053000000000000
#0051a:00000053000000000000000000000000
#00514:00000000000000000053005300000000
#00615:0000001300001300
#00618:0013
#00612:0000000000130000
#0061b:00130013
#00614:14
#00818:00130000
#00815:0000001300000000
#0081b:0013
#0081a:24
#00812:2400000000000053
#00814:00000000000000000000000000000000000000000000000000000000000000000000000000000000000000000000000000000000000000000053000000000000
#00915:00131313
#0091b:0013000000130000
#01012:00130000
#01015:0013
#01018:2300001300000053
#0101a:00000000000000000000000000000000000000000000000000000000000000000000000000000000000000000000000000000000000000000053000000000000
#0111b:00130000
#01115:0013000013001300
#01118:0000000000130000
#0141b:00130000
#01415:2300001300230000
#01418:0023
#01615:00130000
#01618:0000001300000000
#0161a:24
#01612:24
#01712:00131300
#01715:0013000000130000
#0171b:00131300
#01718:0000001300000000
#01818:00130000
#01815:2300001300000000
#0191b:0013000000130000
#01915:0000001300001300
#01918:00131300
#02018:00130000
#02015:0000001300000000
#0201b:23
#02012:23
#02217:0000000000240014
#02215:00130000
#02218:2300001300000000
#02214:0024
#0231b:00000000001300000000000000000000
#02314:00240024
#02312:0024
#01215:00130000
#01218:0000001300000000
#01212:2313
#0121b:2300000000000053
#01210:41
#01219:00000000000000000000000000000000000000000000000000000000000000000000000000000000000000000000000000000000000000000053000000000000
#01318:00131313
#01312:0013000000130000
#01519:00000013
#01512:0013000000000000
#01518:0013000000000000
#01513:00000013
#01514:00330000
#0151a:00330000
#02418:13131300
#02412:24
#02410:41
#0251b:13131300
#0211b:00131300
#02118:0013000000130000
#02112:00131300
#02115:0000001300000000
#02618:1313
#02615:00130000
#0261b:00000013
#02612:00000013
#02712:14
#0271a:0014
#02716:00140000
#02815:13131300
#02819:25
#02912:13131300
#02915:00000013
#03114:16000023
#03113:00150000
#03112:0014
#03119:0000000000230000
#03212:0013000000130000
#03218:26130013
#03215:0000001300000013
#0321b:0013
#03418:1300130000130000
#03415:13000013
#03412:0000001300000000
#03517:13
#03518:00130000
#03519:0013
#0351a:00000013
#03512:00333333
#03612:00130000
#03617:0000001300000000
#0361a:00000014
#03616:0000000000000014
#03610:41
#03718:0000000000000013
#03716:00140000
#03712:0014
#0371a:14
#03714:00000023
#03719:0000000000230000
#03815:1300000000130000
#03818:0000131300001300
#03812:0000000000000013
#0391b:13
#03918:0000001300000000
#03915:00000000001300000000000000000000
#0401b:0013000000130000
#04015:00130013
#04018:0000001300000013
#04012:2613
#04215:1300130000130000
#04218:13000013
#0421b:0000001300000000
#04316:13
#04315:00130000
#04314:0013
#04313:00000013
#0431b:00333333
#0441b:00130000
#04416:0000001300000014
#04412:00000014
#04612:1300001300000000
#0461b:1300001300000000
#04618:00000013
#04615:00000013
#04516:0014001400000000
#0451a:1414
#04512:00140000
#04519:00000023
#04514:0000000000230000
#05216:0000000013000013
#05213:00000000000000000000001300000000
#05212:23630000
#05217:23630000
#05219:00000000000000000000000000000000006300000000000000000000000000000000000000000000000000000000000000000000000000000000000000000000
#05214:00000000000000000000000000000000006300000000000000000000000000000000000000000000000000000000000000000000000000000000000000000000
#05612:18000000000000000000000000140000
#05417:0000000013000013
#0541a:00000000000000000000001300000000
#0541b:23630000
#05416:23630000
#05414:00000000000000000000000000000000006300000000000000000000000000000000000000000000000000000000000000000000000000000000000000000000
#05419:00000000000000000000000000000000006300000000000000000000000000000000000000000000000000000000000000000000000000000000000000000000
#05816:0012
#05818:14
#0581c:0012
#0581f:11
#05918:0012
#05914:14
#05912:0012
#06016:0012
#06018:14
#0601c:0012
#06118:0012
#06114:14
#06112:0012
#06216:0012
#06218:1413
#0621c:00120012
#06318:0012
#06314:14
#06312:00120012
#06315:0013
#06412:0014
#06418:24
#0641a:0024
#06514:14
#06513:00140000
#06512:0014
#06518:24
#06519:00240023
#0651a:0024
#06515:0000000000230000
#0661a:0000000014140000
#06615:0000001300001300
#06612:1414000000000000
#06618:0000130000000013
#0661f:21
#06610:0041
#06716:0014001400000000
#0671b:0000000000000013
#0671a:00240000
#06712:2424
#06815:0013000000130013
#06818:1300001300001300
#06812:00130000
#07018:0000001300001300
#07015:0000130000000013
#07012:25
#05712:16
#05710:41
#07615:0000001300140000
#07618:00131300
#0761b:0000000000130000
#07617:00000014
#07612:00130013
#0761a:24
#07712:1300000000640000
#07716:24132464
#0771b:00001313
#07717:00640000000000000000000000000000
#07718:0064000000000000
#07719:00000064000000000000000000000000
#0771a:00640000
#07714:00000000000000000064006400000000
#07818:0000001300000000
#07815:00131314
#07812:2400000000130000
#0781b:00130013
#07817:2700000000140000
#07918:16261682
#07912:26162600
#07916:00000082
#03015:0000001300130000
#03012:13
#0301a:24242424
#04712:1414
#04714:0000140000230000
#04718:00240000
#0471a:2424
#04719:00000023
#04710:41
#07116:0014001400000000
#07112:0000240000000013
#0711a:2424
#0751a:1414
#07518:0000140000230000
#07514:00240023
#07512:2424
#0731a:1414
#07318:0000140000131300
#07315:00000000000000000000001300000000
#07314:00240000
#07312:2424
#07215:1300001300001300
#07218:0013000000130013
#0721b:00130000
#07419:0015
#07418:14
#07414:24
#07412:0025
#0071b:13530000
#00716:23
#00712:00230000
#00715:00002363
#00718:00000053
#0071a:00000000000000000000000000000000000000000000000000000000000000000000000000000000000000000000000000530000000000000000000000000000
#00719:00530053000000000000000000000000
#00717:0053000000000000
#00713:00000000000000000000000000000000000000000000000000000000000000000000000000000000000000000000000000630000000000000000000000000000
#0331a:1414
#03316:0014001400000000
#03312:00140000
#03319:00000023
#03314:0000000000230000
#04112:1414
#04116:0014001400000000
#0411a:00140000
#04114:00000023
#04119:0000000000230000
#05318:0023000000000000
#05315:00230000
#05312:0000002300000024
#0531a:0024
#05316:00000000000000000000002400000000
#05515:0023000000000000
#05518:00230000
#0551b:0000002300000000
#05512:0024
#05516:00000000000000000000002400000000
#0551a:0000000000000024
#06918:2323
#0691b:00230023
#0511b:0023
#05112:0023
#05115:0033000000002600
#05116:00000033000000000000000000000000
#05114:00330000000000000000000000000000
#00114:00000000000000000033000000000000
#00115:0000000000330000
#00116:00000000000000000000003300000000
#00118:00330000000000000000000000000000
#00119:0033000000000000
#0011a:00000033000000000000000000000000
#04914:00000000000000000033000000000000
#04915:0000000000330000
#04916:00000000000000000000003300000000
#04918:00330000000000000000000000000000
#04919:0033000000000000
#0491a:00000033000000000000000000000000
#00458:14
#00654:14
#00955:00000063
#0115b:00130000
#02052:0000000000000013
#0205b:0000000000000013
#02252:0000000000000014
#02257:0000000000000064
#0235b:00000000002300000000000000000000
#01358:00000053
#02458:0013
#0255b:0013
#02752:14
#0275a:0014
#02756:00140000
#02855:0013
#02952:0013
#03258:16
#03455:53000053
#03452:0000006300000000
#03652:16
#03855:53
#03858:0000006300000000
#03852:0000000000000053
#0395b:63
#03958:0000002300000000
#03955:00000000002300000000000000000000
#04258:63000063
#0425b:0000005300000000
#04652:6300006300000000
#0465b:5300005300000000
#04655:00000013
#04658:00000013
#04052:16
#04458:16
#05852:12
#05858:64
#0585c:0022
#05652:58000000000000000000000000240000
#05954:54
#05952:0022
#06058:64
#0605c:0022
#06154:54
#06152:0022
#06258:6463
#0625c:00220022
#06354:54
#06352:00220022
#06355:0053
#06657:17
#07052:15
#05752:56
#07652:17
#07952:1656
#07958:00165600
#01552:0063000000000000
#01558:0063000000000000
#00852:14
#0085a:14
#01455:0000000000000013
#0165a:14
#01652:1400000000000013
#0165b:0000000000000013
#03052:63
#07857:17
#03756:00140000
#0375a:44
#03752:0034
#06752:0054
#0715a:0064
#07454:14
#07459:0015
#07452:0015
#07458:14
#06858:0000006300000000
#07255:0000006300000000
#05155:00000016
#0185b:0000000000000013
#01855:0000000000000013
#000330:1300000000530000
#000360:0053000033000000
#001330:0033
#001340:00000000000000000033000000000000
#001350:0000000000330000
#001360:00000000000000000000003323000000
#000371:1300000000530000
#0003a1:0053000033000000
#001371:33
#001381:00330000000000000000000000000000
#001391:0033000000000000
#0013a1:00000033330000000000000023000000
#002361:1300000000533300
#002331:0053000033000053
#003331:33
#003341:00330000000000000000000000000000
#003351:0033000000000000
#003361:00000033230000000000000000000000
#0023a0:1300000000530000
#002370:0053000033000000
#0033a0:00230000
#007380:00001323
#007351:00001323
#008321:0000000000130023
#009351:00000013
#010321:23
#010381:0000000000130023
#0123b1:0000000000130023
#013381:00000013
#0143b1:23
#014351:0000000000130023
#014380:0000000000000013
#015380:0033000000000000
#0153a0:00330000
#0153b0:0000003300230000
#015321:0013000000000000
#015341:00330000
#015351:0000003300230000
#016321:00000000000000000000000000000000000000000000000000000000000000000013000000000000000000000000000000000000000000002300000000000000
#0163b0:0000000000130023
#017380:00000000000000000000000013535353
#017390:0000000000000000000000000000000000000000000000000053005300530053
#018380:23
#018380:0013
#0183b0:0000000000530023
#018351:0000000000130023
#0203b1:0000000013000023
#020320:0000000000130023
#021350:00000000000000000000000013535353
#021340:0000000000000000000000000000000000000000000000000053005300530053
#022350:23
#022340:0014
#022320:0000000000540024
#022371:0000000000140034
#0233b1:00000000005300000000000000000000
#023381:00000023
#024321:1454
#024361:0000000000540000
#025361:0054
#025321:0000000000540000
#026321:24
#028391:1555
#028361:0000000000550000
#029361:0055
#029391:0000000000552500
#030321:13
#030351:00230000
#0303a1:00000014
#0313a1:0024
#034351:13
#034321:00230000
#034321:0000001300000000
#034351:0000000000230000
#034351:00000013
#035321:33333333
#036321:26
#0363b0:13
#036390:0033000000000000
#036370:00230000
#036320:0014
#036340:0000000000340000
#036360:00000024
#038350:13
#038320:00230000
#038380:0000001300000000
#0383b0:0000000000230000
#038320:0000000000000013
#039350:00000000005300000000000000000000
#039320:00000023
#0393b1:13000023
#039381:0000005300000000
#042381:13
#0423b1:00230000
#0423b1:0000001300000000
#042381:0000000000230000
#042381:00000013
#0433b1:33333333
#044381:26
#044320:13
#044340:0033000000000000
#044360:00230000
#0443a0:0014
#044380:0000000000340000
#044360:00000024
#046320:13
#046350:00230000
#0463b1:13
#046381:00230000
#046321:0000001300000000
#046351:0000000000230000
#0463b0:0000001300000000
#046380:0000000000230000
#048330:1300000000530000
#048360:0053000033000000
#049330:0033
#049340:00000000000000000033000000000000
#049350:0000000000330000
#049360:00000000000000000000003323000000
#048371:1300000000530000
#0483a1:0053000033000000
#049371:33
#049381:00330000000000000000000000000000
#049391:0033000000000000
#0493a1:00000033330000000000000023000000
#050361:1300000000533300
#050331:0053000033000053
#051331:33
#051341:00330000000000000000000000000000
#051351:0033000000000000
#051361:00000033230000000000000000000000
#0503a0:1300000000530000
#050370:0053000033000000
#0513a0:00230000
#052370:13230000
#052321:13230000
#0523b1:0000000013000023
#052381:00000000000000000000003300000000
#054361:13230000
#0543b0:13230000
#054320:0000000013000023
#054350:00000000000000000000003300000000
#056320:18000000000000000000000000540000
#057320:56
#058320:22
#058381:14
#0583c1:0052
#059381:24
#059340:14
#059320:0052
#060340:24
#060381:14
#0603c1:0052
#061381:24
#061340:14
#061320:0052
#062340:24
#062381:1453
#0623c1:00320032
#063381:24
#063340:14
#063320:00320032
#063350:0053
#064340:24
#065390:00000013
#066370:27
#067320:0014
#067350:00000024
#068380:0000001300000000
#0683b0:0000000000230000
#069320:1334
#069350:00340035
#070320:25
#0703a1:14240000
#070371:0034000000000000
#070321:00001424
#070351:0000000000340000
#0713a1:0014
#071371:00000024
#072351:0000001300000000
#072321:0000000000230000
#075341:00000013
#076321:27
#079381:00001622
#079320:0016
#079360:00000022
#005970:13
#0059b0:00230000
#005960:00001323
#005920:0000000000530000
#0079b0:13230000
#007970:0053000000000000
#007980:00000013
#0079a0:00000000000000000000000000000000000000000000000000000000000000000000000000000000000000000000000000230000000000000000000000000000
#007951:00000013
#007931:00000000000000000000000000000000000000000000000000000000000000000000000000000000000000000000000000230000000000000000000000000000
#008921:0000000000000013
#008941:00000000000000000000000000000000000000000000000000000000000000000000000000000000000000000000000000000000000000000023000000000000
#010981:0000000000000013
#0109a1:00000000000000000000000000000000000000000000000000000000000000000000000000000000000000000000000000000000000000000023000000000000
#0129b1:0000000000000013
#012991:00000000000000000000000000000000000000000000000000000000000000000000000000000000000000000000000000000000000000000023000000000000
#052921:00130000
#052941:00000000000000000000000000000000002300000000000000000000000000000000000000000000000000000000000000000000000000000000000000000000
#052970:00130000
#052990:00000000000000000000000000000000002300000000000000000000000000000000000000000000000000000000000000000000000000000000000000000000
#054960:00130000
#054940:00000000000000000000000000000000002300000000000000000000000000000000000000000000000000000000000000000000000000000000000000000000
#0549b1:00130000
#054991:00000000000000000000000000000000002300000000000000000000000000000000000000000000000000000000000000000000000000000000000000000000
#077961:14
#0779a1:00240000
#077961:00001424
#077921:0000000000540000
