This file was generated by Ched 2.7.0.0.
#TITLE ""
#ARTIST ""
#DESIGNER ""
#DIFFICULTY 0
#PLAYLEVEL
#SONGID ""
#WAVE ""
#WAVEOFFSET 0
#JACKET ""
#REQUEST "ticks_per_beat 480"
#00002: 4
#BPM01: 158
#00008: 01
#TIL00: ""
#VOLUME: ""
#HISPEED 00
#MEASUREHS 00
#0011b:13535353530000000000000000000000
#00115:00000000000000001353535353000000
#00418:0013
#00415:00130000
#00412:00000013
#0041a:24
#00618:0013
#0061b:13
#00615:00130000
#00612:00000013
#01715:00001313
#01712:00130000
#0171b:00130000
#01718:0000000000130000
#02215:0000000013000013
#02218:0000130000000013
#02212:24
#0221a:24
#0261b:13000013
#02615:0013
#02618:00130000
#02612:00000013
#02718:14
#0271a:0014
#02714:00140000
#03015:00130000
#03018:0013
#03012:13000013
#0301b:00000013
#03113:14141400
#03119:24242400
#03212:00140000
#03218:00001313
#03215:0000000000130000
#0321a:24
#03412:14
#03417:00140014
#03414:0014
#0341a:14
#0351a:14
#03516:0000001500000000
#03812:13
#03818:0000140000140000
#03814:0000001400001400
#03712:14
#03716:00140000
#0371a:0014
#03918:14
#05218:14
#05214:0014
#05318:1313
#05315:00130000
#0531a:0000000000000053
#05319:00000000000000000000005300000000
#05618:13
#0561b:0013
#0001b:13
#00015:0013
#00318:13535353530000000000240000000000
#00312:0013
#00314:00000024
#00218:13
#00212:0013
#0051b:13535353530000000000000000000000
#00512:00000000000000001353535353000000
#00516:00140014
#0071b:13535353530000000000000023000000
#00716:00141400
#01918:00001313
#0191b:00130000
#01912:00130000
#01915:0000000000130000
#02015:00130000
#02018:0013
#02012:24
#0201a:24
#02114:0013
#02112:00130000
#0211b:00130000
#02119:0000000000130000
#02116:00000013
#0241a:24141400
#02410:41
#02812:14141400
#0291a:14141400
#03312:1414
#03315:00140000
#03615:13
#03618:0013
#03610:41
#04912:13535353530000000000000000000000
#04918:00000000000000001353535353000000
#04812:13
#04818:0013
#05015:13
#0501b:0013
#0511b:0013
#05115:13535353530000000000000013000000
#05518:00130000
#05515:1313
#05513:0000000000000053
#05514:00000000000000000000005300000000
#06412:14
#06415:0014
#06417:24
#0641a:0024
#06512:1414
#06515:00140000
#06517:2424
#0651a:00240000
#0671a:1414
#06712:00140000
#06714:0000000000240000
#06718:00000024
#06618:00001313
#06612:00140000
#06615:0000000000130013
#0661a:24
#0661f:21
#06610:0041
#0711a:14
#07112:0014
#07116:00140000
#07118:0000000000240000
#07114:00000024
#0681b:13
#06815:13
#06817:0000140000140000
#06812:0000001400001400
#0681a:0000000000000014
#05414:14
#05418:0014
#05918:13
#06115:13
#07018:13
#07015:0013
#07212:13
#0721b:13
#07218:0000130000130013
#07215:0000001300001300
#07618:0013
#07615:00130000
#07612:00000013
#0761a:24
#07818:0013
#0781b:13
#07815:00130000
#07812:00000013
#0771b:13535353530000000000000000000000
#07712:00000000000000001353535353000000
#07716:00240024
#0791b:13535353530000002300000000000000
#07912:0023
#07916:00240000
#07315:13
#05719:13
#05717:0013
#05710:41
#05815:0013
#0581f:11
#06015:13
#06018:0013
#06318:13
#06218:13
#06215:0013
#02512:14141400
#00915:00001313
#0091b:00130000
#00918:0000000000130000
#01012:00130000
#01018:2313
#0101b:0000000000330000
#01118:00001313
#01112:00130000
#01115:0000000000130000
#01315:00001313
#0131b:00130000
#01318:0000000000130000
#0121b:00130000
#01215:2313
#01212:0000000000330000
#01210:41
#00816:0000000012000052
#00818:00130000
#00812:24
#01415:00130000
#0141b:2323
#01418:0000000000330000
#01515:0000001300000000
#01518:00000013
#01618:00130000
#01615:0013
#01612:24
#01815:00130000
#01818:0013
#0181a:24
#04712:14141400
#0471a:24242400
#04710:41
#07519:14140000
#0751a:0014
#07513:24240000
#07512:0024
#0401a:00140000
#04015:00001313
#04018:0000000000130000
#04012:24
#0421a:14
#04215:00140014
#04218:0014
#04212:14
#04312:14
#04315:0000001500000000
#0461b:13
#04614:0000140000140000
#04618:0000001400001400
#0451a:14
#04516:00140000
#04512:0014
#0411a:1414
#04117:00140000
#04418:13
#04415:0013
#06912:0000001400000000
#06915:24
#07418:25
#07413:0025
#0045a:14
#02352:0014
#0235a:0014
#02255:0000000000000053
#02258:0000000000000063
#0325a:14
#0355a:54
#03556:0000002500000000
#03558:00000016
#03958:64
#0395b:0013
#05258:14
#05254:0014
#05658:63
#0565b:0023
#01652:14
#0165b:0000000000000013
#0245a:0054
#02758:14
#0275a:0014
#02754:00140000
#02852:0014
#0295a:0014
#03352:6464
#03355:00640000
#03655:53
#03658:0063
#0665a:14
#05454:14
#05458:0014
#05958:63
#06155:53
#07058:63
#07055:0053
#0705b:00130000
#07052:00000013
#07458:15
#07453:0015
#07355:53
#07352:0013
#05759:53
#05757:0023
#0585a:13
#06358:63
#02055:0000000000000013
#01058:0053
#0105b:0000000000000013
#00852:14
#01255:0063
#01252:0000000000000013
#01458:0000000000000013
#0145b:0063
#01555:0000005300000000
#01852:0000000000000013
#0375a:0054
#04754:00000014
#0475a:0064
#04758:00000014
#04752:0054
#02552:0064
#0755a:0064
#07552:0054
#07558:00000014
#07554:00000014
#04352:64000016
#04355:0000002500000000
#0415a:5454
#04157:00540000
#04458:63
#04455:0053
#04552:0064
#04052:14
#04658:00000014
#06953:00000016
#06955:54
#06952:0000002400000000
#010380:0013
#0103b0:0000000000330023
#012350:0013
#012320:0000000000330023
#0143b0:0013
#014380:0000000000330023
#015350:0013333300000000
#015320:0000000000230000
#0163b0:0000000000130023
#018320:0000000000130023
#020350:0000000000130023
#022380:0000000000130033
#0233a0:0024
#022351:0000000000000013
#023321:0024
#0243a1:0014
#024371:00000024
#025321:0014
#025351:00000024
#033321:1434
#033351:00340024
#0353a1:14
#035361:0000005500000000
#035381:00000026
#036351:13
#036321:00230000
#036381:0013
#0363b1:00000023
#0373a1:0014
#037371:00000024
#039381:14
#0393b1:0023
#0413a1:1434
#041371:00340024
#043321:14000026
#043351:0000005500000000
#044381:13
#0443b1:00230000
#044351:0013
#044321:00000023
#045321:0014
#045351:00000024
#047321:0014
#047341:00000024
#0473a0:0014
#047380:00000024
#056380:13
#0563b0:0053
#057390:53
#057370:0053
#0583a0:23
#059380:13
#0593b0:0023
#061350:13
#061320:0023
#063380:13
#0633b0:0023
#069350:14
#069320:0000005400000000
#069330:00000026
#070380:13
#0703b0:00230000
#070350:0013
#070320:00000023
#073350:13
#073320:0023
#0753a0:0014
#075380:00000024
#075321:0014
#075341:00000024
#0019b0:13230000
#001950:00001323
#003980:13230000
#0059b0:13230000
#005920:00001323
#0079b0:13230000
#008960:0000000012000022
#049920:13230000
#049980:00001323
#051950:13230000
#053980:0013
#0539a0:0000000000000023
#055950:0013
#055930:0000000000000023
#0779b0:13230000
#077920:00001323
#0799b0:13230000
