This file was generated by Ched 2.7.0.0.
#TITLE ""
#ARTIST ""
#DESIGNER ""
#DIFFICULTY 0
#PLAYLEVEL
#SONGID ""
#WAVE ""
#WAVEOFFSET 0
#JACKET ""
#REQUEST "ticks_per_beat 480"
#00002: 4
#BPM01: 143
#00008: 01
#TIL00: ""
#VOLUME: ""
#HISPEED 00
#MEASUREHS 00
#0021a:14
#0031a:14
#00412:14
#00410:41
#00512:14
#00814:14
#00818:0014
#00914:14
#00918:0014
#01212:2616
#01318:1616
#0511a:1414
#05212:1414
#05512:1414
#0561a:1414
#05610:41
#05714:1414
#06118:0016
#06212:16
#06218:0016
#06714:14
#06918:14
#03718:16
#03712:0016
#05318:1414
#01612:1616
#01718:1616
#04312:0016
#04318:26
#0431f:21
#04418:1616
#04410:41
#04712:16
#04718:0016
#02012:1414
#02118:1414
#02412:1414
#02410:41
#02518:1414
#02614:1414
#02214:1414
#03114:0014
#0311a:24
#03312:14
#03318:0014
#03310:41
#02812:0016
#02813:24
#04812:1616
#06014:16
#06414:16
#06518:0016
#06612:16
#06618:0016
#07014:14
#07018:0014
#0351f:11
#03818:26
#05912:26
#06312:26
#01410:41
#02853:54
#02852:0056
#06054:26
#05952:56
#06454:26
#06352:56
#006380:14
#007380:24
#014320:1626
#015380:1626
#018320:1626
#019380:1626
#0233a0:14342400
#0273a0:14342400
#028330:14
#028320:0056
#029330:0024
#0323a0:1424
#034320:1424
#035380:1626
#036320:1626
#039320:15
#039330:0035
#040340:35
#040330:0035
#041320:35
#041330:0035
#042340:25
#045320:1626
#046380:1626
#049380:1626
#050320:1626
#054340:14342400
#058380:14342400
#059320:16
#060340:36
#061320:26
#063320:16
#064340:36
#065320:26
