This file was generated by Ched 2.7.0.0.
#TITLE ""
#ARTIST ""
#DESIGNER ""
#DIFFICULTY 0
#PLAYLEVEL
#SONGID ""
#WAVE ""
#WAVEOFFSET 0
#JACKET ""
#REQUEST "ticks_per_beat 480"
#00002: 4
#BPM01: 143
#00008: 01
#TIL00: ""
#VOLUME: ""
#HISPEED 00
#MEASUREHS 00
#00215:0000131300000000
#00212:2414
#0021b:00000013
#00218:00000000000013000000000000000053
#0021a:24000000000000000000000000530000
#00219:0000000000000053
#0031a:00000000000000130000000000000000
#00315:0000001300002300
#00319:00000000001300000000000000000000
#00314:00130000
#00318:00000013000000000000000000002300
#00313:0013000000000000
#00317:53130000000000000000000000000000
#00312:1314
#00612:13000000130000000013000000000000
#0061b:00130000000000001300000000000000
#00615:00001300000000130000001300001300
#00618:00000013000013000000130013000013
#00712:1300000000130000
#00715:00000053000000001300000000000000
#0071b:0000130000222200
#00716:00000000531300000000000000000000
#00718:0000001300000000
#00713:00530000000000000000000000000000
#00714:0053000000000000
#01018:13535300000000001454540000000000
#01015:00001353530000000000000000000000
#0101b:00000000135353000000000000000000
#01012:00000000000013535300000000001555
#01014:00000000000000000000145454000000
#01019:00000000000000000000000015555500
#01118:1656565656565656560000000000000000000000000000000000000000000000
#01118:00560000000000000000000000000000
#01112:5500000000000000165656565656565656000000000000000000000000000000
#01112:00000000005600000000000000000000
#01212:28000014000000000000000014000000
#0121a:0014141414000000
#01214:00000000001400000000000000000000
#01216:00000000000000140000000000000000
#01215:0000000000130000
#01218:00000000000000000000001300000000
#01418:1313130000000000
#01415:00130013000000000000000000000000
#01414:0000001300000000
#01419:0000001300000000
#01412:0000000000000014
#0141a:0000000000000014
#01410:41
#01512:0014000000140000
#01514:1414
#01514:0024
#01518:14141400
#0151a:0000001400000000
#01516:0000000000140000
#01612:28000014001400140000000014000000
#0161a:0014000014000000
#01618:00000000140000000000001300000000
#01616:0000001400000000
#01615:0000000000130000
#0181a:14
#01815:00001300130000000000000000000013
#01818:00000013000000000000000000001300
#0181b:0013
#01812:0000001313000000
#01918:00000000000000160000001600000000
#01912:00000000240000000016000000160000
#0191a:2400002262226200
#01916:0024000000000000
#01914:0000000022622262
#02212:13000000001300000000130000000000
#02215:00001300000000130000000000000000
#02218:0000001300000000
#02216:0000000000141400
#0221a:24000000240000002400000000140014
#02812:15
#02819:15
#03112:1313
#0311b:1313
#03117:0013000000000013
#03115:0000131300000000
#03118:00000000001300000000000000000000
#03315:00000000130000000000000000130000
#03318:13000000001300000000000013001300
#0331b:00000000000000130000000000000000
#03312:00000000000000130000000000000000
#03310:41
#03812:16
#03818:16
#0391b:13
#03919:00130013
#03917:0013
#04014:00130013
#04016:0013
#04118:00130013
#0411b:0013
#04215:00000000130000000013000000000000
#0421b:0013
#04212:0013
#04218:00000000000000000013000000000000
#04515:0013000000000000
#04518:00130000000000000000000000000000
#0451b:00000013000000000000000000000000
#04516:0000001400000000
#0451a:0000000024000014
#04512:2400240024000014
#05312:24000000240000002400000000140014
#0531a:14000000001400000000140000000000
#05316:0014000000141400
#05314:0000001400000000
#05318:00000000000000140000000000000000
#05816:0000000000000018
#05818:0000001400001600
#0581a:0014000000000000
#05812:28000014000000000000000026000000
#05819:00140000
#05813:00000000001400000000000000000000
#05814:00000000000000140000000000370037
#05912:00161514
#05918:26
#06012:1414
#0601a:0000141400000000
#06016:00000000541400000000000000000000
#06019:0000000000242400
#06013:00540000000000000000240024000000
#06014:0054000000000000
#06015:00000054000000000000000000000000
#06112:00140000001400000000000000000000
#06118:0014001400000000
#06114:00000014000000140000240000000000
#0611a:24242424
#0651a:00140000001400000000000000000000
#06514:0014001400000000
#06518:00000014000000140000240000000000
#06512:24242424
#00016:0000001400000014
#00014:14141414
#00012:0014000000140000
#0231a:0014000000000000
#02312:28000014000000000000000000000000
#02318:0000141414000000
#02314:00000000001400140000000000000000
#04312:0014141414000000
#04316:28000014000000000000000000000000
#04318:00000000001400000000130000000000
#0431a:00000000000000140000000024000000
#04315:00000000000000000000001300000000
#0431f:21
#04712:0014000000000000
#0471a:00000014000000000000000024000000
#04713:00140000
#04719:00000000001400000000000000000000
#04714:0000001400000000
#04718:00000000000000140000130000000000
#04715:00000000000000001400001300000000
#04716:28
#05412:0014000024240000
#0541a:00000014000000000000240000000000
#05413:00140000
#05419:00000000001400000000000000000000
#05414:0000001400000000
#05418:00000000000000140000000000000000
#05416:28
#02012:00000013000000130000130014000000
#02018:0013001300000000
#02016:0000000000140000
#02015:00130000001300000000000000000000
#0201a:24242400
#03218:00000000001300000000130013000000
#03215:00001300130000000013001300001300
#03212:00000000000000130000000000000000
#0321b:0000000013000013
#0351b:13535300000000000000000000000000
#0351a:00000000145454000000000000000000
#03518:00000000000000001656560026000000
#0351f:11
#03512:00535400
#03612:13535300145454001656560026000000
#0361a:0054
#0361b:00530000
#0511a:00000000000000140000140014000000
#05115:0000001400000000
#05119:00000014000000000000000000000000
#05114:0014000000000000
#05116:0000000000140000
#05118:00000000001400000000000000000000
#05117:00140000000000000000000000000000
#05112:2424
#05113:00240000
#05212:00000014000014001400000000000000
#05214:00140000000000000000000000000000
#05216:0000001400000000
#05218:0014000000000000
#0521a:24240000
#05213:0000000000242400
#05219:0000000000242400
#00116:0000001400000000
#00114:14145400
#00112:0014000000000000
#00118:00000023
#00115:0000000000000023
#00418:0000131300000000
#0041a:2414
#00415:00000000000013000000000000000053
#00412:24000013
#00410:41
#00413:00000000000000000000000000530000
#00414:0000000000000053
#00513:00000000000000130000000000000000
#00518:0000001300002323
#00514:00000000001300000000000000000000
#00519:00130000
#00515:00000013000000000000000000230000
#0051a:0013000014000000
#00516:53130000000000000000000000000000
#0051b:13
#0131a:00000014000000000000000014000000
#01312:0014141414000013
#01318:00000000001400000000130000000000
#01316:28000000000000140000000000000000
#01315:00000000000000000000001300000000
#0171a:00000014001400140000000014000000
#01712:00001400000000000013000000001400
#01714:00140000
#01716:2800001400000000
#01718:0000000000130000
#01715:00000000000000000000001300000000
#0211a:0014
#02116:0000001400000000
#0211b:00000013000013000000000000000000
#02115:0013000000000000
#02118:00130000000000000000000000000000
#02112:24240000
#02113:0000000000242400
#02119:0000000000242400
#0241b:00000013000000130000130000000000
#02415:0013001300000000
#0241a:00000014
#02416:0000000000140000
#02418:00130000001300000000000000000000
#02412:24242400
#02410:41
#02512:00000013000013001400000000000000
#02516:0000001400000000
#02518:0013000000000000
#02515:00130000000000000000000000000000
#0251a:24240000
#02519:0000000000242400
#02513:0000000000242400
#0261b:13000000001300000000130000000000
#02618:00001300000000130000000000000000
#02615:0000001300000000
#02616:0000000000141400
#02612:24000000240000002400000000140014
#02712:0014000000000000
#0271a:00000014000000000000000000000000
#02714:0000141414000000
#02718:00000000001400140000000000000000
#02716:28
#0301a:14
#03012:1413000000000000
#0301b:0013000000000000
#0341a:0014000000000000
#03412:28000014000000000000000000000000
#03418:0000141414000000
#03414:00000000001400140000000000000000
#0441a:0014141414000024
#04416:00000014000000000000000000000000
#04414:00000000001400000000000000000000
#04412:28000000000000140000000024000000
#04415:0000000000130000
#04418:00000000000000000000001300000000
#04410:41
#0461a:0014001400140000
#04618:1414
#04618:0024
#04614:14141400
#04612:0014001400000000
#04616:0000000000140000
#0481a:0014000000240000
#04812:28000014000000000000000024000000
#04819:00140000
#04813:00000000001400000000000000000000
#04818:0000001400000024
#04814:00000000000000140000000000000000
#04817:0014
#04815:00000000000000000014000000000000
#04912:1413
#04918:0013130000130013
#04915:00000013000000000000130000000000
#0491b:0000001313000000
#05012:24000000000000160000001600000000
#05018:00000000000000000016000000160000
#05016:0024000000000000
#0501a:0000240022622262
#05014:0000002262226200
#05512:00000000000000140000140014000000
#05517:0000001400000000
#05513:00000014000000000000000000000000
#05518:0014000000000000
#05516:0000000000140000
#05514:00000000001400000000000000000000
#05515:00140000000000000000000000000000
#0551a:2424
#05519:00240000
#0561a:00000014000014001400000000000000
#05618:00140000000000000000000000000000
#05616:0000001400000000
#05614:0014000000000000
#05612:24240000
#05619:0000000000242400
#05613:0000000000242400
#05610:41
#0571a:24000000240000002400000000140014
#05712:14000000001400000000140000000000
#05716:0014000000141400
#05718:0000001400000000
#05714:00000000000000140000000000000000
#06212:0014000000001618
#0621a:00000014000000000000000000000000
#06213:00140000
#06219:00000000001400000000000000000000
#06214:0000001400000000
#06218:00000000000000140000000026000000
#06216:28
#06215:00000000000000000000000000370037
#06318:00160000
#06319:0015
#0631a:00000014
#06312:26
#0641a:1414
#06412:0000141400000000
#06416:00000000541400000000000000000000
#06413:0000000000242400
#06419:00540000000000000000240024000000
#06418:0054000000000000
#06417:00000054000000000000000000000000
#0671a:0000001400000014
#06718:14141414
#06716:0014000000140000
#0681a:0000001400000000
#06818:14145453
#06816:0014000000000000
#06815:0000000000530053
#06912:0000001400000014
#06914:14141414
#06916:0014000000140000
#06918:53
#07012:0000001400000000
#07014:14141400
#07016:0014000000000000
#02912:00000000000000002c8c000000000000
#02916:24
#06618:24000000000000260000000000000000
#06612:0024252626240000
#06619:00000000002500000000000000000000
#0661a:00000024000000000000240000000000
#00912:0000000024242400
#0091a:00000000000000000024002400000000
#00916:24
#03718:26666600260000000000260000000000
#03712:00002600000000002666660026000000
#07115:73
#0025a:4444
#00258:0000005300000000
#00252:3434
#01552:0024000000240000
#0155a:0000002400000000
#01554:54005444
#01558:00645444
#01556:0000000000240000
#01852:0063
#0185b:0053
#01952:00000000000000000056000000560000
#01958:00000000000000560000005600000000
#01954:00002222
#0195a:0000002200220000
#02256:0000000000240000
#0225a:0054
#02352:00000034
#0235a:00000044
#03157:0023000000000000
#0315b:5353
#03858:66
#03852:56
#0425b:0053
#04252:00006336
#04258:00000000000000000023000046000000
#04255:00000000000000000023000000000000
#05852:00000066
#05856:0000000000000028
#05952:36
#05958:66
#0615a:00000044
#06552:00000034
#01156:00000014
#0545a:00000044
#05452:00000034
#01252:00000034
#01652:00000034
#0305a:54000044
#03052:5423000000003400
#0305b:0023000000000000
#00755:00005313
#00752:0000000000230000
#00758:0000005300000000
#00056:0000002400000024
#00054:54645464
#00052:0024000000240000
#0205a:00005444
#02056:0000000000240000
#02052:00000034
#03558:00000016
#03552:00000016
#03652:00000016
#03658:00000016
#03752:00160016
#03758:00160016
#05356:0000000000240000
#05352:0054
#05256:0000002400000000
#0525a:00544400
#05252:0034
#05156:0000000000240000
#05152:00006434
#0515a:00000044
#00156:0000002400000000
#00154:54640000
#00152:0024000000000000
#0045a:4444
#00452:3434
#00455:0000006300000000
#00856:00180000
#00852:00000018
#0135a:00000044
#01352:0000000000000053
#0175a:00000044
#01752:0000000000000034
#0215a:0044
#02156:0000002400000000
#02152:00643400
#0245a:00000044
#02456:0000000000240000
#02452:00006434
#02552:0034
#02556:0000002400000000
#0255a:00544400
#02656:0000000000240000
#02652:0064
#0275a:00000044
#02752:00000034
#03258:00000000005300000000000000000000
#0335b:00000000000000530000000000000000
#03452:00000034
#0345a:00000044
#0435a:00000044
#04452:00000034
#0445a:0000000000000044
#0465a:0024000000240000
#04658:64006434
#04654:00546434
#04652:0000002400000000
#04656:0000000000240000
#0475a:00000044
#0485a:0000000000440000
#04852:00000034
#04858:0000000000000044
#04952:0063
#0495b:0053
#04955:0000000000230000
#04958:0000000000230000
#05052:00000000000000660000006600000000
#05058:00000000000000000066000000660000
#05054:0000002200220000
#0505a:00002222
#05552:00000034
#05556:0000000000240000
#0555a:00005444
#05656:0000002400000000
#0565a:0044
#05652:00643400
#05756:0000000000240000
#0575a:0054
#06056:0014
#0605a:0000005400000000
#06053:00000014
#06059:00000014
#06252:0000000000000028
#06258:00000056
#06452:0000006400000000
#06453:00000014
#06459:00000014
#06456:0014
#06352:56
#06358:46
#0665a:00000044
#06652:00000034
#0675a:0000002400000024
#06758:54645464
#06756:0024000000240000
#0685a:0000002400000000
#06858:54640000
#06856:0024000000000000
#06952:0000002400000024
#06954:64546454
#06956:0024000000240000
#07052:0000002400000000
#07054:64545400
#07056:0024000000000000
#000340:14545454
#000320:0054000000540000
#000360:0000005400000054
#001340:54542400
#001320:0054000000000000
#001360:0000005400000000
#002380:0000133300000000
#0023a0:0024
#004350:0000133300000000
#004320:0024
#007380:0000001300000000
#0073b0:0023
#007351:00001323
#007321:0000000000530000
#008361:18280000
#008321:00001828
#009361:14000054000000000000000000000000
#009341:000000000000000000000000000000000000000000000000000000000000000000000000000000000000000000000000000000000000000000000000000000000000000000000000000000000000000000000000000000000000000000000000000000000000000000000000000000000000000000000000000000000000000000000000000000000000000000000000000000000000000000000000000000000000000000000000000000000000000000000000000000000000000000000000000000000000000000000000000000000000000000000000000000000000000000000000000000000000000000000000000000000000000000000000000000000000000000000000000000000000000000000000000000000000000000000000000000000000000000000000000000000000000000000000000000000000000000000000000000000000000000000000000000000000000000000000000000000000000000000000005800000000000000000000000000000000000000000000000000000000000000000000000000000000000000000000000000000000000000000000000000000000000000000000000000000000000000000000000000000000000000000000000000000000000000000000000000000000000000000000280000000000000000000000000000000000000000000000000000000000000000000000000000000000000000000000000000000000000000000000000000000000000000000000000000000000000000000000000000000000000000000000000000000000000000000000000000000000000000000000000000000000000000000000000000000000000000000000000000000000000000000000000000000000000000000000000000000000000000000000000000000000000000000000000000000000000000000000000000000000000000000000000000000000000000000000000000000000000000000000000000000000000000000000000000000000000000000000000000000000000000000000000000000000000000000000000000000000000000000000000000000000000000000000000000000000000000000000000000000000000000000000000000000000000000000000000000000000000000000000000000000000000000000000000000000000000000000000000000000000000000000000000000000000000000000000000000000000000000000000000000000000000000000000000000000000000000000000000000000000000000000000000000000000000000000000000000000000000000000000000000000000000000000000000000000000000000000000000000000000000000000000000000000000000000000000000000000000000000000000000000000000000000000000000000000000000000000000000000000000000000000000000000000000000000000000000000000000000000000000000000000000000000000000000000000000000000000000000000000000000000000000000000000000000000000000000000000000000000000000000000000000000000000000000000000000000000000000000000000000000000000000000000000000000000000000000000000000000000000000000000000000000000000000000000000000000000000000000000000000000000000000000000000000000000000000000000000000000000000000000000000000000000000000000000000000000000000000000000000000000000000000000000000000000000000000000000000000000000000000000000000000000000000000000000000000000000000000000000000000000000000000000000000000000000000000000000000000000000000000000000000000000000000000000000000000000000000000000000000000000000000000000000000000000000000000000000000000000000000000000000000000000000000000000000000000000000000000000000000000000000000000000000000000000000000000000000000000000000000000000000000000000000000000000000000000000000000000000000000000000000000000000000000000000000000000000000000000000000000000000000000000000000000000000000000000000000000000000000000000000000000000000000000000000000000000000000000000000000000000000000000000000000000000000000000000000000000000000000000000000000000000000000000000000000000000000000000000000000000000000000000000000000000000000000000000000000000000000000000000000000000000000000000000000000000000000000000000000000000000000000000000000000000000000000000000000000000000000000000000000000000000000000000000000000000000000000000000000000000000000000000000000000000000000000000000000000000000000000000000000000000000000000000000000000000000000000000000000000000000000000000000000000000000000000000000000000000000000000000000000000000000000000000000000000000000000000000000000000000000
#011381:0016
#011361:0000000000000000000000000000000000540000000000002400000000000000
#012321:1828000000000000
#013361:1828000000000000
#013321:0000000000000013
#014351:23
#0143a1:00001424
#014371:000000000000000000000000000000000000000000000000000000000000000000000000000000000000000000000000000000000000000000000000000000000000000000000000000000000000000000000000000000000000000000000000000000000000000000000000000000000000000000000000000000000000000000000000000000000000000000000000000000000000000000000000000000000000000000000000000000000000000000000000000000000000000000000000000000000000000000000000000000000000000000000000000000000000000000000000000000000000000000000000000000000000000000000000000000000000000000000000000000000000000000000000000000000000000000000000000000000000000000000000000000000000000000000000000000000000000000000000000000000000000000000000000000000000000000000000000000000000000000000000000000000000000000000000000000000000000000000000000000000000000000000000000000000000000000000000000000000000000000000000000000000000000000000000000000000000000000000000000000000000000000000000000000000000000000000000000000000000000000000000000000000000000000000000000000000000000000000000000000000000000000000000000000000000000000000000000000000000000000000000000000000000000000000000000000000000000000000000000000000000000000000000000000000000000000000000000000000000000000000000000000000000000000000000000000000000000000000000000000000000000000000000000000000000000000000000000000000000000000000000000000000000000000000000000000000000000000000000000000000000000000000000000000000000000000000000000000000000000000000000000000000000000000000000000000000000000000000000000000000000000000000000000000000000000000000000000000000000000000000000000000000000000000000000000000000000000000000000000000000000000000000000000000000000000000000000000000000000000000000000000000000000000000000000000000000000000000000000000000000000000000000000000000000000000000000000000000000000000000000000000000000000000000000000000000000000000000000000000000000000000000000000000000000000000000000000000000000000000000000000000000000000000000000000000000000000000000000000000000000000000000000000000000000000000000000000000000000000000000000000000000000000000000000000000000000000000000000000000000000000000000000000000000000000000000000000000000000000000000000000000000000000000000000000000000000000000000000000000000000000000000000000000000000000000000000000000000000000000000000000000000000000000000000000000000000000000000000000000000000000000000000000000000000000000000000000000000000000000000000054000000000000000000000000000000000000000000000000000000000000000000000000000000000000000000000000000000000000000000000000000000000000000000000000000000000000000000000000000000000000000000000000000000000000000000000000000000000000000000000000000000000000000000000000000000000000000000000000000000000000000000000000000000000000000000000000000000000000000000000000000000000000000000000000000000000000000000000000000000000000000000000000000000000000000000000000000000000000000000000000000000000000000000000000000000000000000000000000000000000000000000000000000000000000000000000000000000000000000000000000000000000000000000000000000000000000000000000000000000000000000000000000000000000000000000000000000000000000000000000000000000000000000000000000000000000000000000000000000000000000000000000000000000000000000000000000000000000000000000000000000000000000000000000000000000000000000000000000000000000000000000000000000000000000000000000000000000000000000000000000000000000000000000000000000000000000000000000000000000000000000000000000000000000000000000000000000000000000000000000000000000000000000000000000000000000000000000000000000000000000000000000000000000000000000000000000000000000000000000000000000000000000000000000000000000000000000000000000000000000000000000000000000000000000000000000000000000000000000000000000000000000000000000000000000000000000000000000000000000000000000000000000000000000000000000000000000000000000000000000000
#014320:00001424
#014350:0000000000540000
#015340:14240000
#015320:0034000000000000
#015381:00143424
#0153a1:0000003400000000
#015361:0000000000340000
#015340:00001424
#015320:0000000000340000
#016320:1828000000000000
#017360:1828000000000000
#0183b0:0000001353000000
#018380:00000023
#018321:0013
#018351:00000023
#0193a1:0000001222000000
#019381:00000000000000560000000000000000
#019340:0000000012220000
#019320:00000000000000000056000000000000
#0193a1:0000000000122200
#019381:00000000000000000000005600000000
#019340:0000000000001222
#019320:00000000000000000000000000560000
#0203a0:00001424
#020360:0000000000540000
#021320:00142400
#021360:0000005400000000
#0223a0:00001424
#022360:0000000000540000
#023320:1828000000000000
#023320:0000000000142400
#023350:000000000000000000000000000000000000000000000000000000000000000000000000000000000000000000000000000000000000000000000000000000000000000000000000000000000000000000000000000000000000000000000000000000000000000000000000000000000000000000000000000000000000000000000000000000000000000000000000000000000000000000000000000000000000000000000000000000000000000000000000000000000000000000000000000000000000000000000000000000000000000000000000000000000000000000000000000000000000000000000000000000000000000000000000000000000000000000000000000000000000000000000000000000000000000000000000000000000000000000000000000000000000000000000000000000000000000000000000000000000000000000000000000000000000000000000000000000000000000000000000000000000000000000000000000000000000000000000000000000000000000000000000000000000000000000000000000000000000000000000000000000000000000000000000000000000000000000000000000000000000000000000000000000000000000000000000000000000000000000000000000000000000000000000000000000000000000000000000000000000000000000000000000000000000000000000000000000000000000000000000000000000000000000000000000000000000000000000000000000000000000000000000000000000000000000000000000000000000000000000000000000000000000000000000000000000000000000000000000000000000000000000000000000000000000000000000000000000000000000000054000000000000000000000000000000000000000000000000000000000000000000000000000000000000000000000000000000000000000000000000000000000000000000000000000000000000000000000000000000000000000000000000000000000000000000000000000000000000000000000000000000000000000000000000000000000000000000000000000000000000000000000000000000000000000000000000000000000000000000000000000000000000000000000000000000000000000000000000000000000000000000000000000000000000000000000000000000000000000000000000000000000000000000000000000000000000000000000000000000000000000000000000000000000000000000000000000000000000000000000000
#0233a1:0000000000142400
#023371:000000000000000000000000000000000000000000000000000000000000000000000000000000000000000000000000000000000000000000000000000000000000000000000000000000000000000000000000000000000000000000000000000000000000000000000000000000000000000000000000000000000000000000000000000000000000000000000000000000000000000000000000000000000000000000000000000000000000000000000000000000000000000000000000000000000000000000000000000000000000000000000000000000000000000000000000000000000000000000000000000000000000000000000000000000000000000000000000000000000000000000000000000000000000000000000000000000000000000000000000000000000000000000000000000000000000000000000000000000000000000000000000000000000000000000000000000000000000000000000000000000000000000000000000000000000000000000000000000000000000000000000000000000000000000000000000000000000000000000000000000000000000000000000000000000000000000000000000000000000000000000000000000000000000000000000000000000000000000000000000000000000000000000000000000000000000000000000000000000000000000000000000000000000000000000000000000000000000000000000000000000000000000000000000000000000000000000000000000000000000000000000000000000000000000000000000000000000000000000000000000000000000000000000000000000000000000000000000000000000000000000000000000000000000000000000000000000000000000000000000000000000000000000000000000000000000000000000000000000000000000000000000000000000000000000000000000000000000000000000000000000000000000000000000000000000000000000000000000000000000000000000000000000000000000000000000000000000000000000000000000000000000000000000000000000000000000000000000000000000000000000000000000000000000000000000000000000000000000000000000000000000000000000000000000000000000000000000000000000000000000000000000000000000000000000000000000000000000000000000000000000000000000000000000000000000000000000000000000000000000000000000000000000000000000000000000000000000000000000000000000000000000000000000000000000000000000000000000000000000000000000000000000000000000000000000000000000000000000000000000000000000000000000000000000000000000000000000000000000000000000000000000000000000000000000000000000000000000000000000000000000000000000000000000000000000000000000000000000000000000000000000000000000000000000000000000000000000000000000000000000000000000000000000000000000000000000000000000000000000000000000000000000000000000000000000000000000000000000000000000000000000000000000000000000000000000000000000000000000000000000000000000000000000000000000000000000000000000000000000000000000000000000000000000000000000000000000000000000000000000000000000000000000000000000000000000000000000000000000000054005400000000000000000000000000000000000000000000000000000000000000000000000000000000000000000000000000000000000000000000000000000000000000000000000000000000000000000000000000000000000000000000000000000000000000000000000000000000000000000000000000000000000000000000000000000000000000000000000000000000000000000000000000000000000000000000000000000000000000000000000000000000000000000000000000000000000000000000000000000000000000000000000000000000000000000000000000000000000000000000000000000000000000000000000000000000000000000000000000000000000000000000000000000000000000000000000000000000000000000000000000000000000000000000000000000000000000000000000000000000000000000000000000000000000000000000000000000000000000000000000000000000000000000000000000000000000000000000000000000000000000000000000000000000000000000000000000000000000000000000000000000000000000000000000000000000000000000000000000000000000000000000000000000000000000000000000000000000000000000000000000000000000000000000000000000000000000000000000000000000000000000000000000000000000000000000000000000000000000000000000000000000000000000000000000000000000000000000000000000000000000000000000000000000000000000000000000000000000000000000
#023351:00000000000000000000003600000000
#024321:00001424
#024361:0000000000540000
#0253a1:00142400
#025361:0000005400000000
#026321:00001424
#026361:0000000000540000
#027361:1828000000000000
#0273a1:0000000000142400
#027371:000000000000000000000000000000000000000000000000000000000000000000000000000000000000000000000000000000000000000000000000000000000000000000000000000000000000000000000000000000000000000000000000000000000000000000000000000000000000000000000000000000000000000000000000000000000000000000000000000000000000000000000000000000000000000000000000000000000000000000000000000000000000000000000000000000000000000000000000000000000000000000000000000000000000000000000000000000000000000000000000000000000000000000000000000000000000000000000000000000000000000000000000000000000000000000000000000000000000000000000000000000000000000000000000000000000000000000000000000000000000000000000000000000000000000000000000000000000000000000000000000000000000000000000000000000000000000000000000000000000000000000000000000000000000000000000000000000000000000000000000000000000000000000000000000000000000000000000000000000000000000000000000000000000000000000000000000000000000000000000000000000000000000000000000000000000000000000000000000000000000000000000000000000000000000000000000000000000000000000000000000000000000000000000000000000000000000000000000000000000000000000000000000000000000000000000000000000000000000000000000000000000000000000000000000000000000000000000000000000000000000000000000000000000000000000000000000000000000000000000054000000000000000000000000000000000000000000000000000000000000000000000000000000000000000000000000000000000000000000000000000000000000000000000000000000000000000000000000000000000000000000000000000000000000000000000000000000000000000000000000000000000000000000000000000000000000000000000000000000000000000000000000000000000000000000000000000000000000000000000000000000000000000000000000000000000000000000000000000000000000000000000000000000000000000000000000000000000000000000000000000000000000000000000000000000000000000000000000000000000000000000000000000000000000000000000000000000000000000000000000
#027320:0000000000142400
#027350:000000000000000000000000000000000000000000000000000000000000000000000000000000000000000000000000000000000000000000000000000000000000000000000000000000000000000000000000000000000000000000000000000000000000000000000000000000000000000000000000000000000000000000000000000000000000000000000000000000000000000000000000000000000000000000000000000000000000000000000000000000000000000000000000000000000000000000000000000000000000000000000000000000000000000000000000000000000000000000000000000000000000000000000000000000000000000000000000000000000000000000000000000000000000000000000000000000000000000000000000000000000000000000000000000000000000000000000000000000000000000000000000000000000000000000000000000000000000000000000000000000000000000000000000000000000000000000000000000000000000000000000000000000000000000000000000000000000000000000000000000000000000000000000000000000000000000000000000000000000000000000000000000000000000000000000000000000000000000000000000000000000000000000000000000000000000000000000000000000000000000000000000000000000000000000000000000000000000000000000000000000000000000000000000000000000000000000000000000000000000000000000000000000000000000000000000000000000000000000000000000000000000000000000000000000000000000000000000000000000000000000000000000000000000000000000000000000000000000000000000000000000000000000000000000000000000000000000000000000000000000000000000000000000000000000000000000000000000000000000000000000000000000000000000000000000000000000000000000000000000000000000000000000000000000000000000000000000000000000000000000000000000000000000000000000000000000000000000000000000000000000000000000000000000000000000000000000000000000000000000000000000000000000000000000000000000000000000000000000000000000000000000000000000000000000000000000000000000000000000000000000000000000000000000000000000000000000000000000000000000000000000000000000000000000000000000000000000000000000000000000000000000000000000000000000000000000000000000000000000000000000000000000000000000000000000000000000000000000000000000000000000000000000000000000000000000000000000000000000000000000000000000000000000000000000000000000000000000000000000000000000000000000000000000000000000000000000000000000000000000000000000000000000000000000000000000000000000000000000000000000000000000000000000000000000000000000000000000000000000000000000000000000000000000000000000000000000000000000000000000000000000000000000000000000000000000000000000000000000000000000000000000000000000000000000000000000000000000000000000000000000000000000000000000000000000000000000000000000000000000000000000000000000000000000000000000000000000000000000000054365400000000000000000000000000000000000000000000000000000000000000000000000000000000000000000000000000000000000000000000000000000000000000000000000000000000000000000000000000000000000000000000000000000000000000000000000000000000000000000000000000000000000000000000000000000000000000000000000000000000000000000000000000000000000000000000000000000000000000000000000000000000000000000000000000000000000000000000000000000000000000000000000000000000000000000000000000000000000000000000000000000000000000000000000000000000000000000000000000000000000000000000000000000000000000000000000000000000000000000000000000000000000000000000000000000000000000000000000000000000000000000000000000000000000000000000000000000000000000000000000000000000000000000000000000000000000000000000000000000000000000000000000000000000000000000000000000000000000000000000000000000000000000000000000000000000000000000000000000000000000000000000000000000000000000000000000000000000000000000000000000000000000000000000000000000000000000000000000000000000000000000000000000000000000000000000000000000000000000000000000000000000000000000000000000000000000000000000000000000000000000000000000000000000000000000000000000000000000000000000
#029360:14000054000000000000000000000000
#029340:000000000000000000000000000000000000000000000000000000000000000000000000000000000000000000000000000000000000000000000000000000000000000000000000000000000000000000000000000000000000000000000000000000000000000000000000000000000000000000000000000000000000000000000000000000000000000000000000000000000000000000000000000000000000000000000000000000000000000000000000000000000000000000000000000000000000000000000000000000000000000000000000000000000000000000000000000000000000000000000000000000000000000000000000000000000000000000000000000000000000000000000000000000000000000000000000000000000000000000000000000000000000000000000000000000000000000000000000000000000000000000000000000000000000000000000000000000000000000000000000005800000000000000000000000000000000000000000000000000000000000000000000000000000000000000000000000000000000000000000000000000000000000000000000000000000000000000000000000000000000000000000000000000000000000000000000000000000000000000000000280000000000000000000000000000000000000000000000000000000000000000000000000000000000000000000000000000000000000000000000000000000000000000000000000000000000000000000000000000000000000000000000000000000000000000000000000000000000000000000000000000000000000000000000000000000000000000000000000000000000000000000000000000000000000000000000000000000000000000000000000000000000000000000000000000000000000000000000000000000000000000000000000000000000000000000000000000000000000000000000000000000000000000000000000000000000000000000000000000000000000000000000000000000000000000000000000000000000000000000000000000000000000000000000000000000000000000000000000000000000000000000000000000000000000000000000000000000000000000000000000000000000000000000000000000000000000000000000000000000000000000000000000000000000000000000000000000000000000000000000000000000000000000000000000000000000000000000000000000000000000000000000000000000000000000000000000000000000000000000000000000000000000000000000000000000000000000000000000000000000000000000000000000000000000000000000000000000000000000000000000000000000000000000000000000000000000000000000000000000000000000000000000000000000000000000000000000000000000000000000000000000000000000000000000000000000000000000000000000000000000000000000000000000000000000000000000000000000000000000000000000000000000000000000000000000000000000000000000000000000000000000000000000000000000000000000000000000000000000000000000000000000000000000000000000000000000000000000000000000000000000000000000000000000000000000000000000000000000000000000000000000000000000000000000000000000000000000000000000000000000000000000000000000000000000000000000000000000000000000000000000000000000000000000000000000000000000000000000000000000000000000000000000000000000000000000000000000000000000000000000000000000000000000000000000000000000000000000000000000000000000000000000000000000000000000000000000000000000000000000000000000000000000000000000000000000000000000000000000000000000000000000000000000000000000000000000000000000000000000000000000000000000000000000000000000000000000000000000000000000000000000000000000000000000000000000000000000000000000000000000000000000000000000000000000000000000000000000000000000000000000000000000000000000000000000000000000000000000000000000000000000000000000000000000000000000000000000000000000000000000000000000000000000000000000000000000000000000000000000000000000000000000000000000000000000000000000000000000000000000000000000000000000000000000000000000000000000000000000000000000000000000000000000000000000000000000000000000000000000000000000000000000000000000000000000000000000000000000000000000000000000000000000000000000000000000000000000000000000000000000000000000000000000000000000000000000000000000000000000000000000000000000000000000000000000000000000000000000000000000000000000000000000000000000000000000000000000000000000000000
#029320:00000000000000001c2c000000000000
#0303a0:1400000000000000343434003454000034000000000000002400000000000000
#0303b0:0053000000000000
#030380:00000000000000000000000000000000005600560000000000560000000000000000000000000000000000000000000000000000000000000000000000000000
#030370:000000000000000000000000000000000000000000000000000000000000000000000000000000000000000000000000000000000000000000000000000000000000000000000000000000000000000000000000000000000000000000000000000000000000000000000000000000000000000000000000000000000000000000000000000000000000000000000000000000000000000000000000000000000000000000000000000000000000000000000000000000000000000000000000000000000000000000000000000000000000000000000000000000000000000000000000000000000000000000000000000000000000000000000000000000000000000000000000000000000000000000000000000000000000000000000000000000000000000000000000000000000000000000000000000000000000000000000000000000000000000000000000000000000000000000000000000000000000000000000000000000000000000000000000000000000000000000000000000000000000000000000000000000000000000000000000000000000000000000000000000000000000000000000000000000000000000000000000000000000000000000000000000000000000000000000000000000000000000000000000000000000000000000000000000000000000000000000000000000000000000000000000000000000000000000000000000000000000000000000000000000000000000000000000000000000000000000000000000000000000000000000000000000000000000000000000000000000000000000000000000000000000000000000000000000000000000000000000000000000000000000000000000000000000000000000000000000000000000000000000000000000000000000000000000000000000000000000000000000000000000000000000000000000000000000000000000000000000000000000000000000000000000000000000000000000000000000000000000000000000000000000000000000000000000000000000000000000000000000000000000000000000000000000000000000000000000000000000000000000000000000000000000000000000000000000000000000000000000000000000000000000000000000000000000000000000000000000000000000000000000000000000000000000000000000000000000000000000000000000000000000000000000000000000000000000000000000000000000000000000000000000000000000000000000000000000000000000000000000000000000000000000000000000000000000000000000000000000000000000000000000000000000000000000000000000000000000000000000000000000000000000000000000000000000000000000000000000000000000000000000000000000000000000000000000000000000000000000000000000000000000000000000000000000000000000000000000000000000000000000000000000000000000000000000000000000000000000000000000000000000000000000000000000000000000000000000000000000000000000000000000000000000000000000000000000000000000000000000000000054005400000000000000000000000000000000000000000000000000000000000000000000000000000000000000000000000000000000000000000000000000000000000000000000000000000000000000000000000000000000000000000000000000000000000000000000000000000000000000000000000000000000000000000000000000000000000000000000000000000000000000000000000000000000000000000000000000000000000000000000000000000000000000000000000000000000000000000000000000000000000000000000000000000000000000000000000000000000000000000000000000000000000000000000000000000000000000000000000000000000000000000000000000000000000000000000000000000000000000000000000000000000000000000000000000000000000000000000000000000000000000000000000000000000000000000000000000000000000000000000000000000000000000000000000000000000000000000000000000000000000000000000000000000000000000000000000000000000000000000000000000000000000000000000000000000000000000000000000000000000000000000000000000000000000000000000000000000000000000000000000000000000000000000000000000000000000000000000000000000000000000000000000000000000000000000000000000000000000000000000000000000000000000000000000000000000000000000000000000000000000000000000000000000000000000000000000000000000000000000000000000000000000000000000000000000000000000000000000000000000000000000000000000000000000000000000000000000000000000000000000000000000000000000000000000000000000000000000000000000000000000000000000000000000000000000000000000000000000000000000
#030350:0000000000360000
#030321:14000000000000005300000000000000340000003456345634000000000054563400000000000000000000000000000024000000000000000000000000000000
#030351:000000000000000000000000000000000000000000000000000000000000000000000000000000000000000000000000000000000000000000000000000000000000000000000000000000000000000000000000000000000000000000000000000000000000000000000000000000000000000000000000000000000000000000000000000000000000000000000000000000000000000000000000000000000000000000000000000000000000000000000000000000000000000000000000000000000000000000000000000000000000000000000000000000000000000000000000000000000000000000000000000000000000000000000000000000000000000000000000000000000000000000000000000000000000000000000000000000000000000000000000000000000000000000000000000000000000000000000000000000000000000000000000000000000000000000000000000000000000000000000000000000000000000000000000000000000000000000000000000000000000000000000000000000000000000000000000000000000000000000000000000000000000000000000000000000000000000000000000000000000000000000000000000000000000000000000000000000000000000000000000000000000000000000000000000000000000000000000000000000000000000000000000000000000000000000000000000000000000000000000000000000000000000000000000000000000000000000000000000000000000000000000000000000000000000000000000000000000000000000000054000000000000000000000000000000000000000000000000000000000000000000000000000000000000000000000000000000000000000000000000000000000000000000000000000000000000000000000000000000000000000000000000000000000000000000000000000000000000000000000000000000000000000000000000000000000000000000000000000000000000000000000000000000000000000000000000000000000000000000000000000000000000000000000000000000000000000000000000000000000000000000000000000000000000000000000000000000000000000000000000000000000000000000000000000000000000000000000000000000000000000000000000000000000000000000000000000000000000000000000000000000000000000000000000000000000000000000000000000000000000000000000000000000000000000000000000000000000000000000000000
#0313b1:13230000
#031371:0053000000000000
#0313b1:0013
#031371:00000023
#031320:0000000000001323
#032380:0013230000000000
#032380:00000000001300000000000000000000
#0323b0:00000000000000230000000000000000
#033320:1323000000000000
#0333b1:0013230000000000
#0333b1:00000000000000130000000000000000
#033381:0000000000230000
#033350:0000000000132300
#034320:1828000000000000
#034320:0000000000142400
#034350:000000000000000000000000000000000000000000000000000000000000000000000000000000000000000000000000000000000000000000000000000000000000000000000000000000000000000000000000000000000000000000000000000000000000000000000000000000000000000000000000000000000000000000000000000000000000000000000000000000000000000000000000000000000000000000000000000000000000000000000000000000000000000000000000000000000000000000000000000000000000000000000000000000000000000000000000000000000000000000000000000000000000000000000000000000000000000000000000000000000000000000000000000000000000000000000000000000000000000000000000000000000000000000000000000000000000000000000000000000000000000000000000000000000000000000000000000000000000000000000000000000000000000000000000000000000000000000000000000000000000000000000000000000000000000000000000000000000000000000000000000000000000000000000000000000000000000000000000000000000000000000000000000000000000000000000000000000000000000000000000000000000000000000000000000000000000000000000000000000000000000000000000000000000000000000000000000000000000000000000000000000000000000000000000000000000000000000000000000000000000000000000000000000000000000000000000000000000000000000000000000000000000000000000000000000000000000000000000000000000000000000000000000000000000000000000000000000000000000000000054000000000000000000000000000000000000000000000000000000000000000000000000000000000000000000000000000000000000000000000000000000000000000000000000000000000000000000000000000000000000000000000000000000000000000000000000000000000000000000000000000000000000000000000000000000000000000000000000000000000000000000000000000000000000000000000000000000000000000000000000000000000000000000000000000000000000000000000000000000000000000000000000000000000000000000000000000000000000000000000000000000000000000000000000000000000000000000000000000000000000000000000000000000000000000000000000000000000000000000000000
#0343a1:0000000000142400
#034371:000000000000000000000000000000000000000000000000000000000000000000000000000000000000000000000000000000000000000000000000000000000000000000000000000000000000000000000000000000000000000000000000000000000000000000000000000000000000000000000000000000000000000000000000000000000000000000000000000000000000000000000000000000000000000000000000000000000000000000000000000000000000000000000000000000000000000000000000000000000000000000000000000000000000000000000000000000000000000000000000000000000000000000000000000000000000000000000000000000000000000000000000000000000000000000000000000000000000000000000000000000000000000000000000000000000000000000000000000000000000000000000000000000000000000000000000000000000000000000000000000000000000000000000000000000000000000000000000000000000000000000000000000000000000000000000000000000000000000000000000000000000000000000000000000000000000000000000000000000000000000000000000000000000000000000000000000000000000000000000000000000000000000000000000000000000000000000000000000000000000000000000000000000000000000000000000000000000000000000000000000000000000000000000000000000000000000000000000000000000000000000000000000000000000000000000000000000000000000000000000000000000000000000000000000000000000000000000000000000000000000000000000000000000000000000000000000000000000000000000000000000000000000000000000000000000000000000000000000000000000000000000000000000000000000000000000000000000000000000000000000000000000000000000000000000000000000000000000000000000000000000000000000000000000000000000000000000000000000000000000000000000000000000000000000000000000000000000000000000000000000000000000000000000000000000000000000000000000000000000000000000000000000000000000000000000000000000000000000000000000000000000000000000000000000000000000000000000000000000000000000000000000000000000000000000000000000000000000000000000000000000000000000000000000000000000000000000000000000000000000000000000000000000000000000000000000000000000000000000000000000000000000000000000000000000000000000000000000000000000000000000000000000000000000000000000000000000000000000000000000000000000000000000000000000000000000000000000000000000000000000000000000000000000000000000000000000000000000000000000000000000000000000000000000000000000000000000000000000000000000000000000000000000000000000000000000000000000000000000000000000000000000000000000000000000000000000000000000000000000000000000000000000000000000000000000000000000000000000000000000000000000000000000000000000000000000000000000000000000000000000000000000000000000000000000000000000000000000000000000000000000000000000000000000000000000000000000000000000000000054005400000000000000000000000000000000000000000000000000000000000000000000000000000000000000000000000000000000000000000000000000000000000000000000000000000000000000000000000000000000000000000000000000000000000000000000000000000000000000000000000000000000000000000000000000000000000000000000000000000000000000000000000000000000000000000000000000000000000000000000000000000000000000000000000000000000000000000000000000000000000000000000000000000000000000000000000000000000000000000000000000000000000000000000000000000000000000000000000000000000000000000000000000000000000000000000000000000000000000000000000000000000000000000000000000000000000000000000000000000000000000000000000000000000000000000000000000000000000000000000000000000000000000000000000000000000000000000000000000000000000000000000000000000000000000000000000000000000000000000000000000000000000000000000000000000000000000000000000000000000000000000000000000000000000000000000000000000000000000000000000000000000000000000000000000000000000000000000000000000000000000000000000000000000000000000000000000000000000000000000000000000000000000000000000000000000000000000000000000000000000000000000000000000000000000000000000000000000000000000000
#034351:00000000000000000000003600000000
#035321:00001333230000000000000000000000
#035321:00000000000014342400000000000000
#035321:00000000000000000000163626000000
#0363b1:00001333230000000000000000000000
#0363a1:00000000000014342400000000000000
#036381:00000000000000000000163626000000
#037321:00001636260000000000000000000000
#037381:00000000000000000000163626000000
#038321:16000033
#039321:33333333
#040321:23
#038380:16
#0383b0:00000023
#0403b0:13333333
#0413b0:23
#041321:1333
#041351:00330033
#042321:23
#0423b0:1333
#042380:00000000330000000053000026000000
#042321:00001326
#042351:00000000000000000053000000000000
#043361:1828000000000000
#044321:1828000000000000
#045321:00001424
#045351:000000000000000000000000000000000000000000000000000000000000000000000000000000000000000000000000000000000000000000000000000000000000000000000000000000000000000000000000000000000000000000000000000000000000000000000000000000000000000000000000000000000000000000000000000000000000000000000000000000000000000000000000000000000000000000000000000000000000000000000000000000000000000000000000000000000000000000000000000000000000000000000000000000000000000000000000000000000000000000000000000000000000000000000000000000000000000000000000000000000000000000000000000000000000000000000000000000000000000000000000000000000000000000000000000000000000000000000000000000000000000000000000000000000000000000000000000000000000000000000000000000000000000000000000000000000000000000000000000000000000000000000000000000000000000000000000000000000000000000000000000000000000000000000000000000000000000000000000000000000000000000000000000000000000000000000000000000000000000000000000000000000000000000000000000000000000000000000000000000000000000000000000000000000000000000000000000000000000000000000000000000000000000000000000000000000000000000000000000000000000000000000000000000000000000000000000000000000000000000000000000000000000000000000000000000000000000000000000000000000000000000000000000000000000000000000000000000000000000000000000000000000000000000000000000000000000000000000000000000000000000000000000000000000000000000000000000000000000000000000000000000000000000000000000000000000000000000000000000000000000000000000000000000000000000000000000000000000000000000000000000000000000000000000000000000000000000000000000000000000000000000000000000000000000000000000000000000000000000000000000000000000000000000000000000000000000000000000000000000000000000000000000000000000000000000000000000000000000000000000000000000000000000000000000000000000000000000000000000000000000000000000000000000000000000000000000000000000000000000000000000000000000000000000000000000000000000000000000000000000000000000000000000000000000000000000000000000000000000000000000000000000000000000000000000000000000000000000000000000000000000000000000000000000000000000000000000000000000000000000000000000000000000000000000000000000000000000000000000000000000000000000000000000000000000000000000000000000000000000000000000000000000000000000000000000000000000000000000000000000000000000000000000000000000000000000000000000000000000000000054000000000000000000000000000000000000000000000000000000000000000000000000000000000000000000000000000000000000000000000000000000000000000000000000000000000000000000000000000000000000000000000000000000000000000000000000000000000000000000000000000000000000000000000000000000000000000000000000000000000000000000000000000000000000000000000000000000000000000000000000000000000000000000000000000000000000000000000000000000000000000000000000000000000000000000000000000000000000000000000000000000000000000000000000000000000000000000000000000000000000000000000000000000000000000000000000000000000000000000000000000000000000000000000000000000000000000000000000000000000000000000000000000000000000000000000000000000000000000000000000000000000000000000000000000000000000000000000000000000000000000000000000000000000000000000000000000000000000000000000000000000000000000000000000000000000000000000000000000000000000000000000000000000000000000000000000000000000000000000000000000000000000000000000000000000000000000000000000000000000000000000000000000000000000000000000000000000000000000000000000000000000000000000000000000000000000000000000000000000000000000000000000000000000000000000000000000000000000000000000000000000000000000000000000000000000000000000000000000000000000000000000000000000000000000000000000000000000000000000000000000000000000000000000000000000000000000000000000000000000000000000000000000000000000000000000000000000000000000000000000
#0453a0:00001424
#045370:0000000000540000
#046380:14240000
#0463a0:0034000000000000
#046341:00143424
#046321:0000003400000000
#046361:0000000000340000
#046380:00001424
#0463a0:0000000000340000
#047360:1828000000000000
#048320:1828000000000000
#049320:0000001353002300
#049350:0000000000530000
#0493b1:00001323
#049381:0000000000530000
#050341:0000001222000000
#050321:00000000000000560000000000000000
#0503a0:0000000012220000
#050380:00000000000000000056000000000000
#050341:0000000000122200
#050321:00000000000000000000005600000000
#0503a0:0000000000001222
#050380:00000000000000000000000000560000
#051320:00001424
#051360:0000000000540000
#0523a0:00142400
#052360:0000005400000000
#053320:00001424
#053360:0000000000540000
#054360:1828000000000000
#0543a0:0000000000142400
#054370:000000000000000000000000000000000000000000000000000000000000000000000000000000000000000000000000000000000000000000000000000000000000000000000000000000000000000000000000000000000000000000000000000000000000000000000000000000000000000000000000000000000000000000000000000000000000000000000000000000000000000000000000000000000000000000000000000000000000000000000000000000000000000000000000000000000000000000000000000000000000000000000000000000000000000000000000000000000000000000000000000000000000000000000000000000000000000000000000000000000000000000000000000000000000000000000000000000000000000000000000000000000000000000000000000000000000000000000000000000000000000000000000000000000000000000000000000000000000000000000000000000000000000000000000000000000000000000000000000000000000000000000000000000000000000000000000000000000000000000000000000000000000000000000000000000000000000000000000000000000000000000000000000000000000000000000000000000000000000000000000000000000000000000000000000000000000000000000000000000000000000000000000000000000000000000000000000000000000000000000000000000000000000000000000000000000000000000000000000000000000000000000000000000000000000000000000000000000000000000000000000000000000000000000000000000000000000000000000000000000000000000000000000000000000000000000000000000000000000000000000000000000000000000000000000000000000000000000000000000000000000000000000000000000000000000000000000000000000000000000000000000000000000000000000000000000000000000000000000000000000000000000000000000000000000000000000000000000000000000000000000000000000000000000000000000000000000000000000000000000000000000000000000000000000000000000000000000000000000000000000000000000000000000000000000000000000000000000000000000000000000000000000000000000000000000000000000000000000000000000000000000000000000000000000000000000000000000000000000000000000000000000000000000000000000000000000000000000000000000000000000000000000000000000000000000000000000000000000000000000000000000000000000000000000000000000000000000000000000000000000000000000000000000000000000000000000000000000000000000000000000000000000000000000000000000000000000000000000000000000000000000000000000000000000000000000000000000000000000000000000000000000000000000000000000000000000000000000000000000000000000000000000000000000000000000000000000000000000000000000000000000000000000000000000000000000000000000000000000000000000000000000000000000000000000000000000000000000000000000000000000000000000000000000000000000000000000000000000000000000000000000000000000000000000000000000000000000000000000000000000000000000000000000000000000000000000000000000000000000000054005400000000000000000000000000000000000000000000000000000000000000000000000000000000000000000000000000000000000000000000000000000000000000000000000000000000000000000000000000000000000000000000000000000000000000000000000000000000000000000000000000000000000000000000000000000000000000000000000000000000000000000000000000000000000000000000000000000000000000000000000000000000000000000000000000000000000000000000000000000000000000000000000000000000000000000000000000000000000000000000000000000000000000000000000000000000000000000000000000000000000000000000000000000000000000000000000000000000000000000000000000000000000000000000000000000000000000000000000000000000000000000000000000000000000000000000000000000000000000000000000000000000000000000000000000000000000000000000000000000000000000000000000000000000000000000000000000000000000000000000000000000000000000000000000000000000000000000000000000000000000000000000000000000000000000000000000000000000000000000000000000000000000000000000000000000000000000000000000000000000000000000000000000000000000000000000000000000000000000000000000000000000000000000000000000000000000000000000000000000000000000000000000000000000000000000000000000000000000000000000
#054350:00000000000000000000003600000000
#054321:0000000000142400
#054351:000000000000000000000000000000000000000000000000000000000000000000000000000000000000000000000000000000000000000000000000000000000000000000000000000000000000000000000000000000000000000000000000000000000000000000000000000000000000000000000000000000000000000000000000000000000000000000000000000000000000000000000000000000000000000000000000000000000000000000000000000000000000000000000000000000000000000000000000000000000000000000000000000000000000000000000000000000000000000000000000000000000000000000000000000000000000000000000000000000000000000000000000000000000000000000000000000000000000000000000000000000000000000000000000000000000000000000000000000000000000000000000000000000000000000000000000000000000000000000000000000000000000000000000000000000000000000000000000000000000000000000000000000000000000000000000000000000000000000000000000000000000000000000000000000000000000000000000000000000000000000000000000000000000000000000000000000000000000000000000000000000000000000000000000000000000000000000000000000000000000000000000000000000000000000000000000000000000000000000000000000000000000000000000000000000000000000000000000000000000000000000000000000000000000000000000000000000000000000000000000000000000000000000000000000000000000000000000000000000000000000000000000000000000000000000000000000000000000000000000054000000000000000000000000000000000000000000000000000000000000000000000000000000000000000000000000000000000000000000000000000000000000000000000000000000000000000000000000000000000000000000000000000000000000000000000000000000000000000000000000000000000000000000000000000000000000000000000000000000000000000000000000000000000000000000000000000000000000000000000000000000000000000000000000000000000000000000000000000000000000000000000000000000000000000000000000000000000000000000000000000000000000000000000000000000000000000000000000000000000000000000000000000000000000000000000000000000000000000000000000
#0553a1:00001424
#055361:0000000000540000
#056321:00142400
#056361:0000005400000000
#0573a1:00001424
#057361:0000000000540000
#058321:1828000000000000
#058321:00000016
#058341:00000000000000000000000000370037
#058361:0000000000000038
#059321:26
#059380:16
#0603b0:23
#0603a0:0000001400000000
#060360:0024
#0613a0:0014
#061380:0000000000240000
#061341:0000000000140000
#061321:00000024
#062361:1828000000000000
#062381:00000016
#062351:00000000000000000000000000370037
#062321:0000000000000038
#063381:26
#063320:16
#064320:23
#064320:0000001400000000
#064360:0024
#065320:0014
#065340:0000000000240000
#065381:0000000000140000
#0653a1:00000024
#066381:140000000000000000000000000000000000000000000000000000000000000000000000000000000000000000000000000000000000000000000000000000000000000000000000000000000000000000000000000000000000000000000000000000000000000000000000000000000000000000000000000000000000000000000000000000000000000000000000000000000000000000000000000000000000000000000000000000000000000000000054000000000000000000000000000000000000000000000000000000000000000000000000000000000000000000000000000000000000000000000000000000000000000000000000000000000000000000000000000000000000000000000000000000000000000000000000000000000000000000000000000000000000000000000000000000000000000000000000000000000000000000000000000000000000000000000000000000000000000000000000000000000000000000000000000000000000000000000000000000000000000000000000000000000000000000000000000000000000000000000000000000000000000000000000000000000000000000000000000000000000000000000000000000000000000000000000000000000000000000000000000000000000000000000000000000000000000000000000000000000000000000000000000000000000000000000000000000000000000000000000000000000000000000000000000000000000000000000000000000000000000000000000000000000000000000000000000000000000000000000000000000000000000000000000000000000000000000000000000000000000000000000000000000000000000000000000000000000000000000000000000000000000000000000000000000000000000000000000000000000000000000000000000000000000000000000000000000000000000000000000000000000000000000000000000000000000000000000000000000000000000000000000000000000000000000000000000000000000000000000000000000000000000000000000000000000000000000000000000000000000000000000000000000000000000000000000000000000000000000000000000000000000000000000000000000000000000000000000000000000000000000000000000000000000000000000000000000000000000000000000000000000000000000000000000000000000000000000000000000000000000000000000000000000000000000000000000000000000000000000000000000000000000000000000000000000000000000000000000000000000000000000000000000000000000000000000000000000000000000000000000000000000000000000000000000000000000000000000000000000000000000000000000000000000000000000000000000000000000000000000000000000000000000000000000000000000000000000000000000000000000000000000000000000000000000000000000000000000000000000000000000000000000000000000000000000000000000000000000000000000000000000000000000000000000000000000000000000000000000000000000000000000000000000000000000000000000000000000000000000000000000000000000000000000000000000000000000000000000000000000000000000000000000000000000000000000000000000000000000000000000000000000000000000000000000000000000000000000000000000000000000000000000000000000000000000000000000000000000000000000000000000000000000000000000000000000000000000000000000000000000000000000000000000000000000000000000000000000000000000000000000000000000000000000000000000000000000000000000000000000000000000000000000000000000000000000000000000000000000000000000000000000000000000000000000000000000000000000000000000000000000000000000000000000000000000000000000000000000000000000000000000000000000000000000000000000000000000000000000000000000000000000000000000000000000000000000000000000000000000000000000000000000000000000000000000000000000000000000000000000000000000000000000000000000000000000000000000000000000000000000000000000000000000000000000000000000000000000000000000000000000000000000000000000000000000000000000000000000000000000000000000000000000000000000000000000000000000000000000000000000000000000000000000000000000000000000000000000000000000000000000000000000000000000000000000000000000000000000000000000000000000000000000000000000000000000000000000000000000000000000000000000000000000000000000000000000000000000000000000000000000000000000000000000000000000000000000000000000000000000000000000000000000000000000000000000000000000000000000000000
#066361:0000005828000000000000000000000000000000000000000000000000000000
#0663a1:0000000000142400
#066371:000000000000000000000000000000000000000000000000000000000000000000000000000000000000000000000000000000000000000000000000000000000000000000000000000000000000000000000000000000000000000000000000000000000000000000000000000000000000000000000000000000000000000000000000000000000000000000000000000000000000000000000000000000000000000000000000000000000000000000000000000000000000000000000000000000000000000000000000000000000000000000000000000000000000000000000000000000000000000000000000000000000000000000000000000000000000000000000000000000000000000000000000000000000000000000000000000000000000000000000000000000000000000000000000000000000000000000000000000000000000000000000000000000000000000000000000000000000000000000000000000000000000000000000000000000000000000000000000000000000000000000000000000000000000000000000000000000000000000000000000000000000000000000000000000000000000000000000000000000000000000000000000000000000000000000000000000000000000000000000000000000000000000000000000000000000000000000000000000000000000000000000000000000000000000000000000000000000000000000000000000000000000000000000000000000000000000000000000000000000000000000000000000000000000000000000000000000000000000000000000000000000000000000000000000000000000000000000000000000000000000000000000000000000000000000000000000000000000000000000000000000000000000000000000000000000000000000000000000000000000000000000000000000000000000000000000000000000000000000000000000000000000000000000000000000000000000000000000000000000000000000000000000000000000000000000000000000000000000000000000000000000000000000000000000000000000000000000000000000000000000000000000000000000000000000000000000000000000000000000000000000000000000000000000000000000000000000000000000000000000000000000000000000000000000000000000000000000000000000000000000000000000000000000000000000000000000000000000000000000000000000000000000000000000000000000000000000000000000000000000000000000000000000000000000000000000000000000000000000000000000000000000000000000000000000000000000000000000000000000000000000000000000000000000000000000000000000000000000000000000000000000000000000000000000000000000000000000000000000000000000000000000000000000000000000000000000000000000000000000000000000000000000000000000000000000000000000000000000000000000000000000000000000000000000000000000000000000000000000000000000000000000000000000000000000000000000000000000000000000000000000000000000000000000000000000000000000000000000000000000000000000000000000000000000000000000000000000000000000000000000000000000000000000000000000000000000000000000000000000000000000000000000000000000000000000000000000000000000000000054005400000000000000000000000000000000000000000000000000000000000000000000000000000000000000000000000000000000000000000000000000000000000000000000000000000000000000000000000000000000000000000000000000000000000000000000000000000000000000000000000000000000000000000000000000000000000000000000000000000000000000000000000000000000000000000000000000000000000000000000000000000000000000000000000000000000000000000000000000000000000000000000000000000000000000000000000000000000000000000000000000000000000000000000000000000000000000000000000000000000000000000000000000000000000000000000000000000000000000000000000000000000000000000000000000000000000000000000000000000000000000000000000000000000000000000000000000000000000000000000000000000000000000000000000000000000000000000000000000000000000000000000000000000000000000000000000000000000000000000000000000000000000000000000000000000000000000000000000000000000000000000000000000000000000000000000000000000000000000000000000000000000000000000000000000000000000000000000000000000000000000000000000000000000000000000000000000000000000000000000000000000000000000000000000000000000000000000000000000000000000000000000000000000000000000000000000000000000000000000000
#066351:00000000000000000000003600000000
#066320:0000000000142400
#066350:000000000000000000000000000000000000000000000000000000000000000000000000000000000000000000000000000000000000000000000000000000000000000000000000000000000000000000000000000000000000000000000000000000000000000000000000000000000000000000000000000000000000000000000000000000000000000000000000000000000000000000000000000000000000000000000000000000000000000000000000000000000000000000000000000000000000000000000000000000000000000000000000000000000000000000000000000000000000000000000000000000000000000000000000000000000000000000000000000000000000000000000000000000000000000000000000000000000000000000000000000000000000000000000000000000000000000000000000000000000000000000000000000000000000000000000000000000000000000000000000000000000000000000000000000000000000000000000000000000000000000000000000000000000000000000000000000000000000000000000000000000000000000000000000000000000000000000000000000000000000000000000000000000000000000000000000000000000000000000000000000000000000000000000000000000000000000000000000000000000000000000000000000000000000000000000000000000000000000000000000000000000000000000000000000000000000000000000000000000000000000000000000000000000000000000000000000000000000000000000000000000000000000000000000000000000000000000000000000000000000000000000000000000000000000000000000000000000000000000000054000000000000000000000000000000000000000000000000000000000000000000000000000000000000000000000000000000000000000000000000000000000000000000000000000000000000000000000000000000000000000000000000000000000000000000000000000000000000000000000000000000000000000000000000000000000000000000000000000000000000000000000000000000000000000000000000000000000000000000000000000000000000000000000000000000000000000000000000000000000000000000000000000000000000000000000000000000000000000000000000000000000000000000000000000000000000000000000000000000000000000000000000000000000000000000000000000000000000000000000000
#067380:14545454
#067360:0054000000540000
#0673a0:0000005400000054
#068380:54542400
#068360:0054000000000000
#0683a0:0000005400000000
#068321:0013
#068351:0000000000230000
#0683b0:0000000000130000
#068380:00000023
#068321:00000013
#068351:0000000000000023
#0683b0:0000000000000013
#069380:23
#069341:14545454
#069361:0054000000540000
#069321:0000005400000054
#070341:54543400
#070361:0054000000000000
#070321:0000005400000000
#071351:23
#0029b0:00000013
#003970:23
#004920:00000013
#005960:23
#007920:13
#007960:00230000
#010980:1323000000000000
#010951:0013230000000000
#0109b0:0000132300000000
#010921:0000001323000000
#010980:0000000014240000
#010941:0000000000142400
#010990:0000000000001525
#010921:0000000000000015
#011921:25
#011980:16260000
#011921:00162600
#0359b1:1323000000000000
#0359a1:0000142400000000
#035981:0000000016260000
#036921:1323000000000000
#036921:0000142400000000
#036921:0000000016260000
#037981:1626000000000000
#037921:0000000016260000
#060921:14
#060961:00240000
#0649a1:14
#064961:00240000
