This file was generated by Ched 2.7.0.0.
#TITLE ""
#ARTIST ""
#DESIGNER ""
#DIFFICULTY 0
#PLAYLEVEL
#SONGID ""
#WAVE ""
#WAVEOFFSET 0
#JACKET ""
#REQUEST "ticks_per_beat 480"
#00002: 4
#BPM01: 143
#00008: 01
#TIL00: "0'0:1"
#VOLUME: ""
#HISPEED 00
#MEASUREHS 00
#00215:0000001300001300
#0021b:00131300
#00218:0000000000000013
#00212:13
#00312:1323
#0031b:0013000000001300
#00315:0000130000000013
#00318:0000001300000000
#0081a:14
#00812:0014
#01012:1414000015150000
#0101a:0000141400000000
#01019:0000000000001515
#0041b:13
#00412:00131300
#00415:0000000000000013
#00418:0000001300001300
#00410:41
#0051b:1323
#00515:0000001300000000
#00518:00130000
#00512:0013000000000000
#03912:13131300
#03918:0013001300000000
#04218:13132300
#04215:0013001300000000
#0611a:14000024
#06114:0014000000140000
#06118:00241400
#06112:0000001400000000
#05914:0014
#05918:0014
#0591a:24
#05912:24
#0601a:14
#06012:14
#0141b:13
#01416:0013000000000000
#01419:00130000
#01414:0000001300000000
#01417:0013
#01410:41
#02812:14
#0281a:0014
#04512:1414
#04514:00140000
#04518:0014000000000000
#0451a:0000001400000000
#04515:0000000000140000
#04614:0014000000000000
#04612:0000001400000000
#0461a:1414
#04618:00140000
#04617:0000000000140000
#04912:1414
#04914:00140000
#04918:0014000000000014
#0491a:0000001400000000
#04915:0000000000140000
#00612:13
#0061b:0013
#00712:13
#00718:0000000000230000
#00715:00000023
#06814:00001414
#06818:0000000000140014
#06212:24000014
#0621a:0000001400001400
#06218:0014000000000000
#06214:00140000
#06216:0014
#01115:00160000
#01112:16363636003636360000000000000000
#00112:00000013
#00118:0000000000000013
#03114:00140000
#03118:00000014
#03318:00140000
#03314:00000014
#03310:41
#0371a:14003434000000000000000024000000
#03715:14003434000000000000000024000000
#03712:00000000240000001434343400000000
#03717:00000000240000001434343400000000
#02112:0014
#0211a:00140000
#02116:0000001400000000
#01215:0013000000000000
#01218:00131300
#01212:0000001300000000
#0121b:23
#01318:0013000000000000
#01315:00131300
#0131b:0000001300000000
#01312:23
#01512:13
#01517:0013000000000000
#01514:00130000
#01519:0000001300000000
#01516:0013
#01614:0013000000000000
#01619:00130000
#01612:0000001300000000
#01617:0013
#0161b:23
#01719:0013000000000000
#01714:00130000
#0171b:0000001300000000
#01716:0013
#01712:23
#0181b:1313
#01815:0013001300000000
#01818:00130000
#01912:13
#01918:0013000000000000
#01915:00130000
#01919:0000002424000000
#01913:0000000000242400
#02012:1414
#02016:0000000000140000
#0201a:00000014
#02212:0014
#02216:0000000000140000
#0221a:00000014
#02319:0013000000000000
#02314:00140000
#0231b:0000001300000000
#02316:0014
#02312:24
#0251a:0014
#02512:00140000
#02516:0000001400000000
#0241a:1414
#02416:0000000000140000
#02412:00000014
#02410:41
#0261a:0014
#02616:0000000000140000
#02612:00000014
#02714:0013000000000000
#02718:00140000
#02712:0000001300000000
#02716:0014
#0271a:24
#03218:00001414
#03214:0000000000140000
#03419:0013000000000000
#03414:00140000
#0341b:0000001300000000
#03416:0014
#03412:24
#0401b:13131300
#04015:0013001300000000
#04118:0013001300000000
#04115:13131300
#04317:0014000000000000
#04314:00140000
#04319:0000001400000000
#04316:0014
#04312:24
#0431f:21
#04415:0014000000000000
#04418:00140000
#04413:0000001400000000
#04416:0014
#0441a:24
#04410:41
#0471a:0014000000000000
#04714:00140000
#04718:0000001400000000
#04712:2414
#04812:0014000000000000
#04818:00140000
#04814:0000001400000000
#0481a:2414
#05014:14
#0501a:0014000000000000
#05012:00140000
#05019:0000002424000000
#05013:0000000000242400
#0521a:0014
#05212:00140000
#05216:0000001400000000
#05116:0000000000140000
#05112:14000014
#0511a:0014
#05418:0014000000000000
#05414:00140000
#0541a:0000001400000000
#05416:0014
#05412:24
#05316:0000000000140000
#0531a:14000014
#05312:0014
#05612:0014
#0561a:00140000
#05616:0000001400000000
#05610:41
#05516:0000000000140000
#0551a:14000014
#05512:0014
#05716:0000000000140000
#05712:14000014
#0571a:0014
#05814:0014000000000000
#05818:00140000
#05812:0000001400001400
#05816:0014
#0581a:24000014
#06314:0014
#06318:0014
#0631a:24
#06312:24
#0641a:14
#06412:14
#06512:14000024
#06518:0014000000140000
#06514:00241400
#0651a:0000001400000000
#06618:00140000
#06612:0014000000000000
#06614:0000001400000000
#0661a:24
#06712:13
#0671b:13
#06912:13
#0691b:13
#07015:13131300
#07018:0013001300000000
#07012:00000053
#0351f:11
#03517:00000024
#0351a:00343434000000000034343400000000
#03518:00000000003434340000000000000000
#03012:24000064
#0301a:24000064
#0381a:24
#03812:24
#02912:002c
#02916:24
#00916:24
#03615:00000024
#03612:00343434000000000034343400000000
#03614:00000000003434340000000000000000
#01953:00000014
#0665a:00000014
#06652:00000014
#05954:0024
#05958:0024
#05952:54
#0595a:54
#0605a:54
#06052:54
#06058:0014
#06054:0014
#0385a:54
#03852:64
#0615a:00000014
#04258:00006315
#05053:00000014
#00652:53
#0065b:0063
#00752:63
#01152:6636
#01155:00260000
#00252:13
#0025b:0013
#0045b:13
#00452:0013
#0085a:14
#00852:0014
#01457:0063
#0375a:64000014
#03755:64000014
#03752:00145400
#03757:00145400
#04952:0054
#04955:0000000000240000
#0465a:00006444
#04657:0000000000240000
#04552:0054
#04555:0000000000240000
#01258:0053
#0125b:00000013
#01355:0063
#01352:00000013
#01556:0053
#01552:00000013
#01657:0053
#0165b:00000013
#01756:0063
#01752:00000013
#0185b:0063
#0205a:00000014
#02152:0014
#0225a:00000014
#02356:0064
#02352:00000014
#0255a:0014
#02452:00000014
#02652:00000014
#02756:0054
#0275a:00000014
#03456:0064
#03452:00000014
#03557:00000014
#03655:00000014
#03952:0053
#03955:00000013
#0405b:0063
#04058:00000013
#04155:0063
#04152:00000013
#04352:00000014
#04356:0054
#04456:0064
#0445a:00000014
#04752:0054
#04756:00000014
#0485a:0064
#04856:00000014
#0525a:0014
#05152:00000014
#05456:0064
#05452:00000014
#0535a:00000014
#05652:0014
#0555a:00000014
#05752:00000014
#06354:0024
#06358:0024
#0635a:54
#06352:54
#0645a:54
#06452:54
#06454:0014
#06458:0014
#06552:00000014
#07055:0053
#006320:13
#006350:0023
#0063b1:0013
#007381:23
#007320:13
#007350:0023
#009360:140000000000000000000000000000000000000000000000000000000000000000000000000000000000000000000000000000000000000000000000000000000000000000000000000000000000000000000000000000000000000000000000000000000000000000000000000000000000000000000000000000000000000000000000000000000000000000000000000000000000000000000000000000000000000000000000000000000000000000000000000000000000000000000000000000000000000000000000000000000000000000000000000000000000000000000000000000000000000000000000000000000000000000000000000000000000000000000000000000000000000000000000000000000000000000000000000000000000000000000000000000000000000000000000000000000000000000000000000000000000000000000000000000000000000000000000000000000000000000000000000000000000000000000000000000000000000000000000000000000000000000000000000000000000000000000000000000000000000000000000000000000000000000000000000000000000000000000000000000000000000000000000000000000000000000000000000000000000000000000000000000000000000000000000000000000000000000000000000000000000000000000000000000000000000000000000000000000000000000000000000000000000000000000000000000000000000000000000000000000000000000000000000000000000000000000000000000000000000000000000000000000000000000000000000000000000000000000000000000000000000000000000000000000000000000000000000000000000000000000000000000000000000000000000000000000000000000000000000000000000000000000000000000000000000000000000000000000000000000000054000000000000000000000000000000000000000000000000000000000000000000000000000000000000000000000000000000000000000000000000000000000000000000000000000000000000000000000000000000000000000000000000000000000000000000000000000000000000000000000000000000000000000000000000000000000000000000000000000000000000000000000000000000000000000000000000000000000000000000000000000000000000000000000000000000000000000000000000000000000000000000000000000000000000000000000000000000000000000000000000000000000000000000000000000000000000000000000000000000000000000000000000000000000000000000000000000000000000000000000000000000000000000000000000000000000000000000000000000000000000000000000000000000000000000000000000000000000000000000000000000000000000000000000000000000000000000000000000000000000000000000000000000000000000000000000000000000000000000000000000000000000000000000000000000000000000000000000000000000000000000000000000000000000000000000000000000000000000000000000000000000000000000000000000000000000000000000000000000000000000000000000000000000000000000000000000000000000000000000000000000000000000000000000000000000000000000000000000000000000000000000000000000000000000000000000000000000000000000000000000000000000000000000000000000000000000000000000000000000000000000000000000000000000000000000000000000000000000000000000000000000000000000000000000000000000000000000000000000000000000000000000000000000000000000000000000000000000000000000000000000000000000000000000000000000000000000000000000000000000000000000000000000000000000000000000000000000000000000000000000000000000000000000000000000000000000000000000000000000000000000000000000000000000000000000000000000000000000000000000000000000000000000000000000000000000000000000000000000000000000000000000000000000000000000000000000000000000000000000000000000000000000000000000000000000000000000000000000000000000000000000000000000000000000000000000000000000000000000000000000000000000000000000000000000000000000000000000000000000000000000000000000000000000000000000000000000000000000000000000000000000000000000000000000000000000000000000000000000000000000000000000000000000000000000000000000000000000000000000000000000000000000000000000000000000000000000000000000000000000000000000000000000000000000000000000000000000000000000000000000000000000000000000000000000000000000000000000000000000000000000000000000000000000000000000000000000000000000000000000000
#009320:0000005c2c000000
#011320:16363636003636362600000000000000
#011350:00360000
#012380:0013
#0123b0:0000000000332300
#013350:0013
#013320:0000000000332300
#014370:0013
#0143b0:00000023
#015360:0013
#015320:00000023
#016370:0013
#0163b0:0000000000332300
#017360:0013
#017320:0000000000332300
#0183b0:0013
#018370:00000023
#0203a0:1424
#020390:00340000000000340000000000000000
#020380:0034003400000000
#020370:00000034003400000000000000000000
#020360:00340000
#021320:14
#021330:00340000000000000000000000000000
#021340:0034000000000000
#021350:00000034000000000000000000000000
#021360:00240000
#0223a0:1424
#022390:00340000000000340000000000000000
#022380:0034003400000000
#022370:00000034003400000000000000000000
#022360:00340000
#023360:0014
#023320:0000000000342400
#024320:1424
#024330:00340000000000340000000000000000
#024340:0034003400000000
#024350:00000034003400000000000000000000
#024360:00340000
#0253a0:14
#025390:00340000000000000000000000000000
#025380:0034000000000000
#025370:00000034000000000000000000000000
#025360:00240000
#026320:1424
#026330:00340000000000340000000000000000
#026340:0034003400000000
#026350:00000034003400000000000000000000
#026360:00340000
#027360:0014
#0273a0:0000000000342400
#029360:140000000000000000000000000000000000000000000000000000000000000000000000000000000000000000000000000000000000000000000000000000000000000000000000000000000000000000000000000000000000000000000000000000000000000000000000000000000000000000000000000000000000000000000000000000000000000000000000000000000000000000000000000000000000000000000000000000000000000000000000000000000000000000000000000000000000000000000000000000000000000000000000000000000000000000000000000000000000000000000000000000000000000000000000000000000000000000000000000000000000000000000000000000000000000000000000000000000000000000000000000000000000000000000000000000000000000000000000000000000000000000000000000000000000000000000000000000000000000000000054000000000000000000000000000000000000000000000000000000000000000000000000000000000000000000000000000000000000000000000000000000000000000000000000000000000000000000000000000000000000000000000000000000000000000000000000000000000000000000000000000000000000000000000000000000000000000000000000000000000000000000000000000000000000000000000000000000000000000000000000000000000000000000000000000000000000000000000000000000000000000000000000000000000000000000000000000000000000000000000000000000000000000000000000000000000000000000000000000000000000000000000000000000000000000000000000000000000000000000000000000000000000000000000000000000000000000000000000000000000000000000000000000000000000000000000000000000000000000000000000000000000000000000000000000000000000000000000000000000000000000000000000000000000000000000000000000000000000000000000000000000000000000000000000000000000000000000000000000000000000000000000000000000000000000000000000000000000000000000000000000000000000000000000000000000000000000000000000000000000000000000000000000000000000000000000000000000000000000000000000000000000000000000000000000000000000000000000000000000000000000000000000000000000000000000000000000000000000000000000000000000000000000000000000000000000000000000000000000000000000000000000000000000000000000000000000000000000000000000000000000000000000000000000000000000000000000000000000000000000000000000000000000000000000000000000000000000000000000000000000000000000000000000000000000000000000000000000000000000000000000000000000000000000000000000000000000000000000000000000000000000000000000000000000000000000000000000000000000000000000000000000000000000000000000000000000000000000000000000000000000000000000000000000000000000000000000000000000000000000000000000000000000000000000000000000000000000000000000000000000000000000000000000000000000000000000000000000000000000000000000000000000000000000000000000000000000000000000000000000000000000000000000000000000000000000000000000000000000000000000000000000000000000000000000000000000000000000000000000000000000000000000000000000000000000000000000000000000000000000000000000000000000000000000000000000000000000000000000000000000000000000000000000000000000000000000000000000000000000000000000000000000000000000000000000000000000000000000000000000000000000000000000000000000000000000000000000000000000000000000000000000000000000000000000000000000000000000000000000000000000000000000000000000000000000000000000000000000000000000000000000000000000000000000000000000000000000000000000000000000000000000000000000000000000000000000000000000000000000000000000000000000000000000000000000000000000000000000000000000000000000000000000000000000000000000000000000000000000000000000000000000000000000000000000000000000000000000000000000000000000000000000000000000000000000000000000000000000000000000000000000000000000000000000000000000000000000000000000000000000000000000000000000000000000000000000000000000000000000000000000000000000000000000000000000000000000000000000000000000000000000000000000000000000000000000000000000000000000000000000000000000000000000000000000000000000000000000000000000000000
#029340:00000058280000000000000000000000
#030320:14000000545454000000000024000000
#030330:0000000000000000005400540000000000000000000000000000000000000000
#0303a1:14000000545454000000000024000000
#030391:0000000000000000005400540000000000000000000000000000000000000000
#0313a1:1424
#031320:0014
#032320:24
#0323a1:14240000
#032340:00142400
#033320:1424
#0333a1:0014
#0343a1:24
#034361:0014
#034321:0000000000342400
#0353a1:14343434000000003434343400000000
#035371:00340024
#035381:00000000003434340000000000000000
#036321:14343434000000003434343400000000
#036351:00340024
#036341:00000000003434340000000000000000
#0373a1:14003434000000000000000000000000
#037371:00240000
#037350:14003434000000000000000000000000
#037320:00240000
#037320:00000000000000001434343400000000
#037350:00000024
#037371:00000000000000001434343400000000
#0373a1:00000024
#0383a1:14
#038381:00000026
#038320:14000026
#039320:0013
#039350:00000023
#0403b0:0013
#040380:00000023
#041350:0013
#041320:00000023
#042380:00001325
#043360:0014
#043320:0000000000342400
#044360:0014
#0443a0:0000000000342400
#045320:00001424
#045350:0000000000540000
#0463a0:00001424
#046370:0000000000540000
#047320:0014
#047360:0000000000342400
#0483a0:0014
#048360:0000000000342400
#049320:00001424
#049350:0000000000540000
#0513a0:14
#051390:00340000000000000000000000000000
#051380:0034000000000000
#051370:00000034000000000000000000000000
#051360:00240000
#051321:00140000
#051331:00000000003400000000000000000000
#051341:0000003400000000
#051351:00000000000000340000000000000000
#051361:0024
#0523a1:14
#052391:00340000000000000000000000000000
#052381:0034000000000000
#052371:00000034000000000000000000000000
#052361:00240000
#053321:14
#053331:00340000000000000000000000000000
#053341:0034000000000000
#053351:00000034000000000000000000000000
#053361:00240000
#0533a0:00140000
#053390:00000000003400000000000000000000
#053380:0000003400000000
#053370:00000000000000340000000000000000
#053360:0024
#054360:0014
#054320:0000000000342400
#055320:14
#055330:00340000000000000000000000000000
#055340:0034000000000000
#055350:00000034000000000000000000000000
#055360:00240000
#0553a1:00140000
#055391:00000000003400000000000000000000
#055381:0000003400000000
#055371:00000000000000340000000000000000
#055361:0024
#056321:14
#056331:00340000000000000000000000000000
#056341:0034000000000000
#056351:00000034000000000000000000000000
#056361:00240000
#0573a1:14
#057391:00340000000000000000000000000000
#057381:0034000000000000
#057371:00000034000000000000000000000000
#057361:00240000
#057320:00140000
#057330:00000000003400000000000000000000
#057340:0000003400000000
#057350:00000000000000340000000000000000
#057360:0024
#059320:14
#059340:0054
#060320:34
#060340:0000343424000000
#0593a1:14
#059381:0054
#0603a1:34
#060381:0000343424000000
#063321:14
#063341:0054
#064321:34
#064341:0000343424000000
#0633a0:14
#063380:0054
#0643a0:34
#064380:0000343424000000
#066320:00001424
#066340:0000000000340000
#0663a1:00001424
#066381:0000000000340000
#070351:0013
#070321:0000000000332300
#070920:00000013
#071920:22
