This file was generated by Ched 2.7.0.0.
#TITLE ""
#ARTIST ""
#DESIGNER ""
#DIFFICULTY 0
#PLAYLEVEL
#SONGID ""
#WAVE ""
#WAVEOFFSET 0
#JACKET ""
#REQUEST "ticks_per_beat 480"
#00002: 4
#BPM01: 143
#00008: 01
#TIL00: ""
#VOLUME: ""
#HISPEED 00
#MEASUREHS 00
#00312:1424
#00318:00140000
#0021a:1414
#00214:00140000
#00814:0014
#01018:1414
#01014:00140014
#01212:2414
#01218:00140000
#0131a:1414
#01314:00140000
#0201a:14
#02014:00140000
#02018:0014
#02012:00000014
#0211a:14
#02114:00140000
#02118:0014
#03512:14140024
#03518:0014
#0351f:11
#03712:14
#0371a:0014
#03714:00240000
#03718:00000024
#04318:0014
#04314:00140000
#04312:00000014
#0431a:24
#0431f:21
#0441a:14
#04418:0014
#04414:00140000
#04412:00000014
#04410:41
#0511a:14140000
#05114:00001414
#05218:14140000
#05212:0014
#0531a:14
#05314:00140000
#05318:0014
#05312:00000014
#05512:14140000
#05518:00001414
#05614:14140000
#0561a:0014
#05610:41
#05912:1400000000000016
#0591a:14
#05918:0000000000000016
#06118:00140000
#06114:0014
#0611a:00000014
#06112:14
#06715:13
#06918:13
#00718:14
#03112:14
#0331a:14
#03310:41
#0321a:14
#03214:00140000
#03218:0014
#03212:00000014
#03412:14
#03418:00140000
#03414:0014
#0341a:00000014
#04114:14
#04018:14
#04218:14
#04214:0014
#00512:1424
#00518:00140000
#0041a:1414
#00414:00140000
#00410:41
#00918:14
#00912:0014
#02212:14
#02218:00140000
#02214:0014
#0221a:00000014
#02312:14
#02318:00140000
#02314:0024
#0241a:14
#02414:00140000
#02418:0014
#02412:00000014
#02410:41
#0251a:14
#02514:00140000
#02518:0014
#02612:14
#02618:00140000
#02614:0014
#0261a:00000014
#02712:14
#02718:00140000
#02714:0024
#02818:14
#02814:0014
#0361a:14140024
#03614:0014
#04718:0014
#04714:00140000
#04712:00000014
#0471a:24
#0481a:14
#04818:0014
#04814:00140000
#04812:00000014
#05712:14
#05718:00140000
#05714:0014
#0571a:00000014
#06514:00140000
#06518:0014
#06512:00000014
#0651a:14
#06818:0013
#06815:00000013
#01614:2414
#0161a:00140000
#01718:1414
#01712:00140000
#0631a:14
#06318:0000000000000016
#06312:1400000000000016
#0111a:2424
#01112:00240000
#0061a:24
#0191a:24
#01918:0024
#01914:00000024
#01912:00240000
#0291a:24
#05418:24002424
#05414:0000240000240000
#05814:2424
#05818:00240000
#06214:24
#06218:00240000
#06212:0024
#06614:0000240000240000
#06618:24000024
#0661a:0024
#07014:00343400
#07018:00343400
#01410:41
#05952:5400000000000056
#0595a:64
#05958:0000000000000066
#00758:64
#0065a:64
#01252:14
#0135a:14
#02158:0014
#0435a:14
#0445a:14
#03152:54
#0335a:54
#0565a:0014
#05252:0014
#02354:0014
#02558:0014
#02754:0014
#0485a:14
#0475a:14
#01758:14
#01654:14
#0085a:14
#03952:18
#0635a:64
#06358:0000000000000066
#06352:5400000000000056
#0063a0:14
#007380:34
#0083a0:24
#014320:14
#014330:00340000
#014340:0024
#0153a0:14
#015390:00340000
#015380:0024
#018320:14
#018330:00340000
#018340:0024
#0293a0:14
#0303a0:0024
#031320:14
#031340:0024
#0333a0:14
#033380:0024
#038330:16
#039320:28
#0453a0:14
#045390:00340000
#045380:0024
#046320:14
#046330:00340000
#046340:0024
#0493a0:14
#049390:00340000
#049380:0024
#050320:14
#050330:00340000
#050340:0024
#059320:1400000000000056
#060320:00000024
#0593a1:14
#059381:0000000000000056
#0603a1:00000024
#0633a1:14
#063381:0000000000000056
#0643a1:00000024
#063320:1400000000000056
#064320:00000024
#070320:14000024
#070340:0000545454000000
#0703a1:14000024
#070381:0000545454000000
