This file was generated by Ched 2.7.0.0.
#TITLE ""
#ARTIST ""
#DESIGNER ""
#DIFFICULTY 0
#PLAYLEVEL
#SONGID ""
#WAVE ""
#WAVEOFFSET 0
#JACKET ""
#REQUEST "ticks_per_beat 480"
#00002: 4
#BPM01: 214
#00008: 01
#TIL00: ""
#VOLUME: ""
#HISPEED 00
#MEASUREHS 00
#0011a:14
#0021a:14
#00312:14
#00412:14
#0051a:14
#00614:14
#00718:14
#0091a:14
#00910:41
#01014:14
#01118:14
#0211a:14
#02110:41
#02214:14
#02318:14
#08012:14
#08214:14
#08412:14
#08914:14
#11318:14
#11414:14
#01212:14
#02412:14
#02718:0016
#02712:26
#02918:16
#02912:0016
#03112:0016
#03212:16
#03218:0016
#03318:16
#03312:0016
#03310:41
#03512:1616
#03718:1616
#03912:16
#03918:0016
#04012:16
#04018:0016
#04312:16
#04318:0016
#04412:16
#04418:0016
#04718:16
#04712:0016
#04710:41
#04818:16
#04812:0016
#05718:14
#05714:0014
#05818:14
#05918:0014
#05912:24
#05910:41
#06012:14
#06114:0014
#0611a:24
#0621a:14
#06318:0014
#06312:24
#06412:14
#06514:0014
#0651a:24
#0661a:14
#06614:0014
#07313:14
#07419:14
#07814:14
#09018:14
#09118:0016
#09112:26
#0911f:21
#09318:0016
#09418:16
#09412:0016
#09512:16
#09518:0016
#09718:1616
#09912:1616
#10118:16
#10112:0016
#10218:16
#10212:0016
#10518:16
#10512:0016
#10618:16
#10612:0016
#10912:16
#10918:0016
#11012:16
#11018:0016
#0771f:11
#0771a:24
#00812:24
#07918:24
#0811a:24
#08318:24
#11518:26
#02518:0034
#09210:41
#013390:14
#014390:24
#015330:14
#016330:24
#0173a0:14
#018380:24
#019320:14
#020340:24
#0253a0:14
#025380:0034
#026380:24
#028320:1626
#030380:1636
#031380:26
#034380:1626
#036320:1626
#038380:1626
#041320:1626
#042380:1626
#045320:1636
#046320:26
#049380:16
#050380:26
#051320:14
#051330:00000034
#052340:0024
#0533a0:14
#053390:00000034
#054380:0024
#055340:14
#055330:00000034
#056320:0024
#0673a0:14
#068380:24
#069320:14
#069330:0034
#070340:24
#0713a0:14
#071390:0034
#072380:24
#075330:14
#076330:24
#0853a0:14
#087380:34
#088370:26
#092320:1636
#093320:26
#096320:1626
#098380:1626
#100320:1626
#103380:1626
#104320:1626
#107380:1636
#108380:26
#111320:16
#112320:26
#115380:16
#116380:26
