This file was generated by Ched 2.7.0.0.
#TITLE ""
#ARTIST ""
#DESIGNER ""
#DIFFICULTY 0
#PLAYLEVEL
#SONGID ""
#WAVE ""
#WAVEOFFSET 0
#JACKET ""
#REQUEST "ticks_per_beat 480"
#00002: 4
#BPM01: 214
#00008: 01
#TIL00: ""
#VOLUME: ""
#HISPEED 00
#MEASUREHS 00
#00118:13000013
#00115:1300000000000013
#0011b:0013
#00212:13
#0021b:13
#00215:0013
#00218:00000013
#0031b:1300000000000013
#00312:1300000000000013
#00318:0000131300000000
#00315:0000000000130000
#00418:00000000000000130000000000000000
#00512:13
#00518:00001313
#00515:0000000000000013
#00612:13000013
#00618:13000013
#00615:0013
#0071b:13
#00715:1300000000131300
#00718:0000131300000013
#00812:1313000000000000
#00819:0000000013130000
#0081b:2323000000000000
#00814:0000000023230000
#0091a:00130013
#0091b:0013
#00912:13330033
#00916:0013
#00917:23
#00910:41
#01017:13
#0101b:00331333
#01015:00130013
#01016:0013
#01112:1300000000130000
#0111b:0000131300000013
#01116:0000001300000013
#01117:0000000000130000
#01212:00130013
#01218:0013
#01318:23000013
#01315:2300000000000013
#01412:1300000000130023
#0141b:1300000000130023
#01415:00130000
#01418:0000001300000000
#01518:00130000
#0151b:0000001300130000
#01512:0000001300000013
#01516:0000000000130000
#01517:0000000000000013
#0161b:00130000
#01612:0024
#01616:000024
#0161a:000000000000000000000000000000530000000000000000000000000000000000000000000000002400000000000000
#01619:0000005300000000
#01618:00000000000000530000000000000000
#01617:0053
#01713:12
#01716:0012
#0171b:0012
#0181b:12
#01818:0012
#01813:0012
#01916:12
#01913:0012
#0191b:0012
#02018:12
#02013:0022
#02112:13000013
#02116:0000131300000000
#02110:41
#02214:130000000024
#02216:000000130000000024000000
#02218:0024
#02315:00130013
#02318:00130013
#02312:23
#0231b:2323
#02717:00130013
#02712:00130013
#02716:0013
#0271b:1333003323000000
#0281b:13000013
#02817:0000131300000000
#02812:0000001300000000
#02816:1300000000131300
#0291b:0000130013330000
#02917:13000023
#02912:1333000000001300
#02916:00231300
#03012:13
#0301b:1300000000130000
#03015:0000132300000013
#03018:0000231300001300
#03112:1300130000330000
#0311b:1300000000000033
#03118:0013
#03312:14000014
#03316:0000140000000014
#0331a:0000000014000014
#03310:41
#03412:00000014000000000000000023000000
#0341a:0014
#03417:00000013
#03516:13000013
#03514:0013000000000000
#03512:00132300
#03517:00131300
#03519:0000000000130000
#0351b:23000013
#03616:13
#03612:0000131300000000
#0361b:13
#03614:00000013
#03619:00000013
#03717:00130000
#03716:13000013
#03712:00131300
#0371b:13000013
#03719:0000000000000013
#03817:13
#03812:0024
#03816:000024
#0381a:000000000024
#03912:14000013
#0391a:0014
#0391b:00130000
#04012:1313
#04016:00141414
#0401b:00130013
#04112:14000013
#04116:14140014
#0411b:00130000
#0411a:0014
#04216:14
#04212:00140000
#0421b:00131300
#04219:00000013
#04214:00000013
#04312:1313
#0431b:1300000000001313
#04316:0000000000001313
#04412:00000000001300000000000000000000
#04417:00130000
#04419:0013
#0441b:00000013
#04512:1300000000001313
#04517:1300000000001313
#04519:00130000
#04514:00130000
#04516:0013
#0451b:0013
#04616:000000130000000024000000
#0461a:0024
#04612:000000000024
#04716:0000131300000000
#04717:1300000000130000
#04712:0000000000130000
#04710:41
#0481b:1300000000001323
#04818:00130000
#04815:0013
#04812:0000000000001323
#04918:00000000000000130000000000000000
#04915:00000000000000130000000000000000
#05112:13
#0511b:23
#05118:00000023000000000000000023000000
#05115:00000000000023000000000000000023
#0521b:0013
#05216:0013
#05212:0023000000000000
#0531b:13
#05312:23
#05315:00000023000000000000000023000000
#05318:00000000000023000000000000000023
#05412:0013
#05417:0013
#0541b:0023000000000000
#05516:13
#0551a:24
#05517:00000024000000000000000000000000
#05514:0000002400000000
#05518:00000024
#05515:00000000000000000000000000000024
#05712:13
#0571b:23
#05718:0000002323000000
#05715:0000000000000023
#0591b:1313
#05912:0000130000000013
#05918:00000053000000000000130000000000
#05915:00000000000000530000000013000000
#05910:41
#0591a:00530000000000000000000000000000
#05919:0053000000000000
#05917:00530000
#05913:00000000005300000000000000000000
#05914:0000005300000000
#05916:0053
#06015:13130013
#06018:0000000013000000000000000000000000000053005300000000000013000000
#06012:0000001300000000
#0601b:13001353
#0601a:0000000000000000000000000000000000530000000000530000000000000000
#06019:00000000000000000053005300000000
#06017:0000000000530000
#06112:1313000013131300
#06118:00130013000000000013001300000000
#06115:00000000130013000000000000000053
#0611b:00000000001300130000000000000000
#06113:00000000000000000000000000530000
#06114:0000000000000053
#0621b:00131313
#06212:0000001300130013
#06216:53005353
#06219:00000000005300000053000000530000
#06217:0000005300530053
#06214:00000000000000530000005300000053
#0631b:13000000000000130000000013000000
#06312:00131300
#06318:00000000001300000000000000000053
#06315:00000000000013000000005300000000
#06316:53000053
#06313:00000000000000000053000000000000
#06314:0000000000530000
#0631a:00000000000000000000000000530000
#06319:0000000000000053
#06412:13000000000000130000000013000000
#0641b:00131300
#06415:00000000001300000000000000000053
#06418:00000000000013000000005300000000
#06417:53000053
#0641a:00000000000000000053000000000000
#06419:0000000000530000
#06413:00000000000000000000000000530000
#06414:0000000000000053
#06512:0000142424240000
#06518:00000000001300130000000000000000
#0651a:2424000000001424
#06515:00000000000000000000000000130013
#06516:53
#0661a:2424000000001424
#06615:00000000000000000000000000130013
#06612:0000142424240000
#06618:00000000001300130000000000000000
#06915:13
#06918:1300333300003300
#0691b:0013
#06912:0013
#07015:1300333300003300
#07012:0013
#0701b:0013
#07118:1300333300003300
#0711b:0013
#07112:0013
#07215:1300333300003300
#07212:0013
#0721b:0013
#07316:00000014
#07318:23
#0731a:0024
#07312:0024
#07416:0014
#07412:24
#07514:001400000014001400000014
#07518:001414001414
#0751a:2424
#07512:00240024
#07612:00000013
#07617:00000013
#0761a:24
#07716:13
#0771b:2313130000001300
#07712:0000131313001300
#07717:0013
#07719:0000000000130000
#07714:0000000000000013
#0771f:11
#07816:13130000
#0781b:1313130000000000
#07814:0000001300000000
#07812:0000000013001313
#07817:0000000013131300
#07912:1313
#0791b:1313
#07918:00000000000000000000000000000000130000000000000000000000000000000000005300000000000000000000000000000000000000001300000000000000
#07915:00000053000000000000000000000000000000000000000013000000000000000000000000000000000000000000000013000000000000000000000000000000
#07913:00530000000000000000000000000000000000000000000000000000000000000000000000000000000000000000000000000000000000000000000000000000
#07914:0053000000000000000000000000000000000000000000000000000000000000
#0791a:00000000000000000000000000000000000000000000000000000000000000000053000000000000000000000000000000000000000000000000000000000000
#07919:0000000000000000000000000000000000530000000000000000000000000000
#08012:130000130013
#0801b:130013
#08018:00130000
#08015:00000053000000000000000000000000000000000000000013000000000000000000000000000000000000000000000000000000000000000000000000000000
#08016:000000242424
#08013:00530000000000000000000000000000000000000000000000000000000000000000000000000000000000000000000000000000000000000000000000000000
#08014:0053000000000000000000000000000000000000000000000000000000000000
#0811b:13
#08117:0013
#08113:00130013
#08112:0013
#08116:24
#08212:13
#08216:0013
#0821a:00130013
#0821b:0013
#08315:0013000000140000
#0831b:00131313
#08312:00131313
#08318:0000001300000000
#08317:2300000000000014
#08412:13131313
#0841b:13131313
#08415:0015000000160016
#08416:0000001500000000
#08516:0014
#08512:2400131313001300
#0851a:24340034
#08616:0014
#0861b:0000131313001300
#08612:24340034
#08716:0014001400140014
#0871a:24242424
#08712:00242424
#0881a:14
#08812:14
#09112:0000130013330000
#09116:14241424
#0911b:1333000000001300
#0911f:21
#0921b:13
#09212:1300001400130000
#09218:0000140000000013
#09215:00000013
#09214:00240000
#0921a:0000002400000000
#09210:41
#0931b:1300130000330000
#09316:13
#09315:0013
#09312:0013000000000033
#09318:00000023
#09516:0000140000000024
#0951a:24000014
#09512:0000000024000014
#09515:24
#0961a:00000014000000000000000000000000
#09612:0014
#09616:00000014
#0961b:00000023
#09716:14141414
#09719:0013000000000000
#0971b:00132300
#09714:0000000000130000
#09712:23000013
#09816:14
#0981b:0000131300000000
#09812:13
#09819:00000013
#09814:00000013
#09916:00130000
#09917:13000013
#0991b:00131300
#09912:13000013
#09914:0000000000000013
#10016:130024
#1001a:0024
#10012:000000000024
#1011a:1414
#10112:00140014
#1021b:1313
#10216:00141414
#10212:00130013
#10316:14140014
#10312:00132400
#1031b:00000013
#1031a:24
#1041a:00140000
#10412:00131300
#10414:00000013
#10419:00000013
#10416:24
#1051b:1313
#10516:0000000000001424
#10512:2400000000001313
#1061a:00000000001400000000000000000000
#10616:00130000
#10614:0013
#10612:00000013
#1071b:1300000000001313
#10714:00130000
#10719:00130000
#10712:0013
#10716:2400000024002424
#10817:00130000
#10812:0024
#10816:000024
#1081a:000000000024
#1091b:0000131300130000
#10916:0000000000140000
#10912:23
#11012:1300000000001323
#11015:00130000
#11018:0013
#1101b:0000000000001323
#11115:00000000000000130000000000000000
#11118:00000000000000130000000000000000
#11315:1300131300000000
#11318:0000000000130000
#1131b:23
#11312:0000000000230000
#02412:2333000000330000
#02418:0000233300000033
#02415:0023
#0241b:00000023
#02512:2424
#0251a:00240024
#02513:006400000000006400000000
#02514:006400006400
#02515:00640064
#02519:000064000064
#02518:000000000064000000000064
#02517:0064
#02612:00000023
#0261b:00000023
#02617:64
#05612:0024000000000000
#05615:0023
#05618:00000023
#05815:23
#05812:0000002323000000
#0671a:2424
#06712:00000000240000000000000024646464
#06719:00640000000000000064000000000000
#06718:0064000000640000
#06717:00000064000000000000006400000000
#06716:00646464
#06713:00000000006400000000000000000000
#06714:0000006400000000
#06715:00000000000000640000000000000000
#0891b:23
#08918:0023000023000000
#08915:00230023
#08912:0000002300000000
#09012:2400002400002400
#0901a:2400002400002400
#09019:0024000000240000
#09013:0024000000240000
#09415:2324
#09417:00240024
#0941b:0033000000330000
#09412:0000003300000033
#11212:0023
#11215:000023
#11218:000000000023
#1141b:23
#11418:0000230000000023
#11415:0023
#11412:00000023
#11515:2323
#11518:00230023
#11514:006300000000006300000000
#11513:006300006300
#11512:00630063
#11519:000063000063
#1151a:000000000063000000000063
#1151b:0063
#11615:23
#1161b:63
#03212:0033000000330000
#0321b:0000003300000033
#06812:64
#00155:53
#0025b:53
#00352:53
#0035b:0000000000000053
#00458:00000000000000230000000000000000
#00552:63
#00658:53
#00956:0023
#00952:53
#01057:53
#0105b:0023
#01156:0000001300000013
#01157:0000000000130000
#0115b:0000000000000063
#01358:13
#01355:13
#01252:00530053
#01258:0063
#0145b:13
#01452:0000000000000053
#01552:0000000000000053
#01753:52
#01756:0022
#0185b:62
#01858:0022
#01956:62
#01953:0022
#02058:52
#02355:00230000
#02358:00000023
#02352:53
#0235b:0053
#02152:13
#02156:0000001300000000
#02657:14
#02652:00000053
#02756:13
#02757:00530000
#0275b:5313
#02852:0000001300000000
#02857:0000001300000000
#02856:53000013
#0285b:00000013
#0295b:0053
#02952:63
#02956:00130000
#02957:00000013
#03055:0000001300000000
#03058:0000001300000000
#0315b:53
#03155:00000013
#03258:13
#03255:00140014
#03257:0014
#03357:14
#03352:54
#03356:0000240000000054
#0335a:0054
#03452:00000024000000000000000000000000
#03557:00130000
#03556:00000013
#03657:0000001300000000
#03652:0000001300000000
#0365b:53
#03757:00230000
#0375b:53
#03756:00000023
#03752:0063
#03857:53
#03952:54
#0395a:0064
#04052:1313
#0405b:00130013
#04152:54
#04156:00240024
#0415a:0064
#04256:64
#04252:00240000
#0435b:53
#04356:0000000000000053
#04452:00000000002300000000000000000000
#04557:0000000000000063
#04757:53
#0475b:0000001300000000
#04756:0000001300000000
#04752:0000000000530000
#0485b:0000000000000053
#04852:0000000000000063
#04958:00000000000000230000000000000000
#04955:00000000000000230000000000000000
#0505a:44
#05052:34
#05155:0000001300000000
#05252:0013000000000000
#0525b:0013
#05452:0013
#0545b:0013000000000000
#05358:0000001300000000
#05554:0000001400000000
#05652:0014000000000000
#05852:0053
#06256:13
#0635b:13
#06452:13
#06958:53
#0695b:0023
#07055:63
#07052:0023
#07158:53
#0715b:0023
#07255:63
#07252:0023
#07356:00000024
#0735a:0054
#07456:0024
#07452:64
#0765a:14
#08157:0023
#0815b:53
#08252:63
#08256:0023
#0855a:54
#08556:0024
#08656:0024
#08652:64
#0905a:00000014
#09052:00000014
#09152:0063
#0915b:53
#09156:00140014
#09252:0000001400000000
#0925a:0000001400000000
#09356:63
#09358:00000013
#09352:0023000000000000
#09556:0000240000000054
#0955a:54
#09552:0054
#09555:14
#0965a:00000024000000000000000000000000
#09756:00140014
#0985b:0000001300000000
#09852:63
#09856:0000001400000000
#09956:00230000
#09952:63
#09957:00000023
#0995b:0053
#10056:63
#1015a:6464
#10152:00540054
#1025b:1313
#10252:00130013
#10356:00240024
#1035a:54
#10352:0054
#1045a:00240000
#10456:54
#09457:00140014
#09455:1314
#1065a:00000000002400000000000000000000
#1095b:0000001300630000
#10952:53
#10956:0000001400000000
#11155:00000000000000230000000000000000
#11158:00000000000000230000000000000000
#11052:0000000000000063
#1105b:0000000000000053
#11252:34
#1125a:44
#10556:0000000000000054
#10552:54
#10756:0000000000000054
#11352:0000000000530000
#11655:13
#1165b:13
#06852:14
#001350:13
#001320:0023
#0023b0:13
#002380:0023
#003320:13
#003350:00230000
#0033b0:0000000000000013
#004380:00000000000000530000000000000000
#0053b0:23
#005321:13
#005351:0023
#006381:13
#0063b1:0023
#009321:13330033
#009361:0033
#010321:23
#010370:13
#0103b0:00333333
#011370:23
#0113b0:0000000000000013
#012370:00230000
#012321:00130000
#012351:0023
#012380:0013
#0123b0:00000023
#012321:00000013
#013351:23
#014321:0000000000000013
#015351:00230000
#015321:0000000000000013
#016361:00230000
#017331:12
#017361:0052
#018331:22
#0183b0:12
#018380:0052
#0193b0:22
#019361:12
#019331:0052
#020361:22
#020380:12
#0203b0:0022
#0213b0:13333333
#0223b0:33230000
#023320:1323
#023350:00330000
#0233b1:0013
#023381:00000033
#0243b1:23
#024320:1333000000000000
#024350:00230000
#024381:0000133300000000
#0243b1:0023
#024350:0013
#024320:0000000000332300
#0243b1:00000013
#024381:0000000000000033
#025381:23
#026321:00000013
#027361:23
#0273b0:1333003323000000
#027370:00330000
#028360:13
#028320:00230000
#029320:1333000000000000
#029360:00230000
#0293b0:0000000013330000
#029370:00000023
#0313b0:13
#031370:00230000
#031320:0000000015330000
#031350:00000023
#031391:00000015
#0313b1:0000000000000033
#032381:23
#032320:1533000000000000
#032350:00240000
#032391:00150000
#0323b1:0000003300000000
#032371:0024
#032320:0000000015330000
#032350:00000024
#032391:00000015
#0323b1:0000000000000033
#033371:24
#033320:1424
#033360:00540000
#0333a1:0014
#033361:00000024
#033361:0000000000000014
#034321:00000054000000000000000000000000
#034361:0024
#0363b1:13
#036371:0000332300000000
#0373b1:1323
#037371:00330000
#037320:0013
#037360:00000033
#038320:23
#038371:13
#0383b1:0023
#039321:14
#039361:00342400
#0393a0:0014
#039360:00000034
#040360:24
#041320:1424
#041360:00340000
#0413a1:0014
#041361:00000034
#0423a1:24
#042360:1424
#042320:00340000
#0433b0:13
#043370:0023
#043360:0000000000000013
#044320:00000000005300000000000000000000
#044360:00000023
#045370:0000000000000013
#0463b0:00230000
#047370:13
#0473b0:0000332300000000
#047320:0000000000130000
#048360:23
#0483b0:0000000000000013
#049380:00000000000000530000000000000000
#0503a0:24
#048321:0000000000000013
#049351:00000000000000530000000000000000
#050321:24
#0573b1:13230000
#057381:00001323
#058351:13230000
#058321:0013
#059351:23
#069381:1300333300003300
#0693b1:0053
#070381:23
#070350:1300333300003300
#070320:0053
#071350:23
#071381:1300333300003300
#0713b1:0053
#072381:23
#072350:1300333300003300
#072320:0053
#073350:23
#0733a0:0014
#073360:00000054
#0743a0:24
#074321:14
#074361:0054
#075321:24
#079351:00000013000000000000000000000000230000000000000000000000000000000000000000000000000000000000000000000000000000000000000000000000
#079381:00000000000000000000000000000000000000000000000000000000000000000000001300000000000000000000000023000000000000000000000000000000
#080351:00000013000000000000000000000000230000000000000000000000000000000000000000000000000000000000000000000000000000000000000000000000
#0813b1:13
#081371:0053
#0823b1:23
#082320:13
#082360:0053
#083320:23
#0853a0:14340034
#085360:0034
#0863a0:24
#086321:14340034
#086361:0034
#087321:24
#0913b1:1333000000000000
#091361:00240000
#091321:0000000013330000
#091361:00000024
#093361:13230000
#093321:0053000000000000
#093391:0015
#0933b1:0000000000330000
#093381:00000023
#093320:0000000000001533
#094350:23
#094391:15
#0943b1:0033000000000000
#094371:00240000
#094320:0000153300000000
#094350:0024
#094391:0015
#0943b1:0000000000330000
#094371:00000024
#094320:0000000000001533
#095350:24
#0953a1:1424
#095361:00540000
#095320:0014
#095360:00000024
#095360:0000000000000014
#0963a0:00000054000000000000000000000000
#096360:0024
#098320:13
#098360:0000342400000000
#099320:1323
#099360:00330000
#0993b1:0013
#099371:00000033
#1003b1:23
#100360:13
#100320:0023
#1013a0:14
#101360:0034240000000000
#101321:00140000
#101361:0000003424000000
#1013a0:0014
#101360:0000000000342400
#101321:00000014
#101361:0000000000000034
#102361:24
#1033a1:1424
#103361:00340000
#103320:0014
#103360:00000034
#104320:24
#104361:1424
#1043a1:00340000
#105321:14
#105361:0024
#105361:0000000000000014
#1063a1:00000000005400000000000000000000
#106361:00000024
#107361:0000000000000014
#108321:00240000
#109321:13
#109361:0000342400000000
#1093b1:0000000000130000
#110361:24
#110321:0000000000000013
#111351:00000000000000530000000000000000
#112321:24
#1103b0:0000000000000013
#111380:00000000000000530000000000000000
#1123a0:24
#1133b0:1300332300000000
#113320:0000000000130000
#114350:23
#0169b0:00130000
#016970:0023
#025920:14
#025950:00240000
#0259a1:00140000
#025971:0024
#025920:0014
#025950:00000024
#0259a1:00000014
#026971:24
#0599b1:13
#059971:00230000
#059920:00130000
#059960:0023
#0609b0:00001323
#060970:0000000000530000
#061920:00000013
#062960:23
#0629b0:00130000
#062970:0000002300000000
#062921:0000001300000000
#062961:0023
#0629b0:0013
#062970:0000000000230000
#062921:0000000000130000
#062961:00000023
#0629b0:00000013
#062970:0000000000000023
#062921:0000000000000013
#063961:23
#063921:0013
#063961:00000023
#0639b0:00000013
#064970:23
#0649b0:0013
#064970:00000023
#064921:00000013
#065961:23
#0679a1:14
#067961:00240000
#067920:00140000
#067960:0024
#0679a1:0014
#067961:00000024
#067920:00000014
#068920:24
#079920:13
#079950:00000023000000000000000000000000000000000000000000000000000000000000000000000000000000000000000000000000000000000000000000000000
#0799b0:0013
#079980:00000000000000000000000000000000000000000000000000000000000000000000002300000000000000000000000000000000000000000000000000000000
#080920:13
#080950:00000023000000000000000000000000000000000000000000000000000000000000000000000000000000000000000000000000000000000000000000000000
#115950:13
#115920:00230000
#115981:00130000
#1159b1:0023
#115950:0013
#115920:00000023
#115981:00000013
#1169b1:23
