This file was generated by Ched 2.7.0.0.
#TITLE ""
#ARTIST ""
#DESIGNER ""
#DIFFICULTY 0
#PLAYLEVEL
#SONGID ""
#WAVE ""
#WAVEOFFSET 0
#JACKET ""
#REQUEST "ticks_per_beat 480"
#00002: 4
#BPM01: 214
#00008: 01
#TIL00: ""
#VOLUME: ""
#HISPEED 00
#MEASUREHS 00
#00112:13
#00118:00000013
#00215:13
#00218:00000013
#00315:1300001300000000
#00318:00130000
#0031b:0000000000130000
#00312:0000000000000013
#00715:0000130000130000
#00718:0000001300001300
#00712:0000000000000013
#0071b:13
#00915:00000013
#00918:1300000000000013
#00910:41
#01118:00130000
#0111b:0000000000130000
#01112:0000000000000013
#01115:1300001300000000
#01218:00130013
#0121b:0013
#01315:00000013
#01318:0000000000000013
#0131b:23
#01412:1300000000000023
#01418:00130000
#01415:0000001300000000
#0141b:0000000000130000
#01518:0000001300000000
#01515:0000000000130000
#0151b:0000000000000013
#01713:12
#0181b:12
#02018:12
#02312:00130000
#02315:00000013
#0231b:0023
#02712:00000013
#02715:1313
#02718:00130000
#0271b:23
#0281b:13000013
#02815:0000000000130000
#0301b:0000000000130000
#03015:13000013
#03018:0000000000000013
#03112:13
#0311b:0013
#03118:00000013
#03415:00000013000000000000000013000000
#0341b:00000023
#03518:2313
#0351b:00000013
#03512:13
#03515:00130000
#03612:13000013
#0361b:00000013
#04318:00000013
#04315:0000000000000013
#04312:13
#0451b:13
#04518:0000130000000013
#04515:0013
#04512:00000013
#04718:0000130000130000
#04715:0000001300000000
#04710:41
#04815:00130000
#04818:0013
#04812:00000014
#0481a:0000000000000024
#04917:00000000000000140000000000000000
#05215:0013
#05418:0013
#05915:0013000000130000
#05918:00130013
#05912:0000001300000013
#0591b:0013
#05910:41
#06015:0013001300000000
#0601b:13130000
#06112:13
#06118:0013000000130000
#06115:00131300
#0611b:0000001300000000
#06315:00000000130000000000005300530000
#06318:0000001300000000
#06312:0013
#06313:00000000000000000053000000000053
#06314:0000000000530053
#06316:00000053
#07618:00000013
#0051b:13
#00515:00000013
#00618:13
#00615:00000013
#01015:13
#01018:00000013
#01916:12
#02112:13000013
#0211b:13
#02118:00130000
#02115:0000001300000000
#02110:41
#02218:130000003333
#02215:00130000
#0221b:0023
#02415:0013000000130000
#0241b:00130013
#02412:0000001300000013
#02418:2323
#02612:00000013
#02618:00000023
#02912:13
#02915:00130000
#02918:0013
#0291b:00000013
#03215:13
#03212:00130000
#03218:0013
#0321b:00000013
#03312:1300000000003313
#03315:0013
#03310:41
#03718:1300000013000013
#03715:00130000
#03712:00000013
#0391b:00130000
#03915:0013
#03918:00000013
#04012:13
#04018:00130000
#04015:0013
#0401b:00000013
#04112:13
#0411b:0013
#04215:13
#04218:00000013
#04412:00000000001300000000000000000000
#04415:00333300
#05715:0014
#05712:24
#05817:0014
#0581a:24
#06415:0000001300000000
#06418:00000000130000000000005300530000
#0641b:0013
#06412:53
#0641a:00000000000000000053000000000053
#06419:0000000000530053
#06417:00000053
#0691b:13
#06918:0013
#06915:13
#0701b:13
#07018:0013
#07015:13
#07112:13
#07115:0013
#07212:13
#07215:0013
#07218:13
#07718:00130000
#07715:0000001300000013
#0771b:0000000000130000
#0771f:11
#07712:23
#0781b:13
#07818:00130000
#07812:00000013
#07815:0013
#0791b:13
#07912:0013
#0801b:13
#08012:0024
#0811a:00140000
#08116:0014
#08112:00000014
#08212:00140000
#08216:0014
#0821a:24000014
#08312:13
#08318:0013000000000000
#08313:00130000
#08319:0000001300000000
#08314:0013
#0831a:0000000000130000
#08315:00000013
#0831b:0000000000000013
#08414:13
#0841a:0013000000000000
#08413:00130000
#08419:0000001300000000
#08412:0013
#08516:13
#08512:0000000000000013
#0851b:13
#08517:0000000000000013
#08712:14
#08717:14
#08715:0034343414343434
#0871a:0034343414343434
#09212:0000000000130000
#09218:23000013
#09215:0000000000000013
#09210:41
#09618:00000013000000000000000013000000
#09612:00000023
#09715:2313
#09712:00000013
#0971b:13
#09718:00130000
#0981b:23000013
#09812:00000013
#10515:00000013
#10518:0000000000000013
#1051b:13
#10712:13
#10715:0000130000000013
#10718:0013
#1071b:00000013
#10915:0000130000130000
#10918:0000001300000000
#11018:00130000
#11015:0013
#1101a:00000014
#11012:0000000000000024
#11115:00000000000000140000000000000000
#0911b:13
#09118:00130000
#09115:0013
#09112:00000013
#0911f:21
#09312:0013
#09315:00000013
#0931b:23
#09418:13
#0941b:00130000
#09415:0013
#09412:00000013
#09518:0013
#0951b:2300000000003313
#09915:1300000013000023
#09918:00130000
#0991b:00000013
#10112:00130000
#10118:0013
#10115:00000013
#1021b:13
#10215:00130000
#10218:0013
#10212:00000013
#1031b:13
#10312:0013
#10418:13
#10415:00000013
#1061b:00000000001300000000000000000000
#10618:00333300
#11315:00130000
#11318:0000001300000000
#11312:0000000000130000
#05615:0023
#05618:00000023
#06512:0024000000000000
#06518:0000002300000000
#06515:0000000023000023
#0651a:0000000000240000
#0651b:53
#06615:0000000023000023
#06618:2300002300000000
#06612:0024000000000000
#0661a:0000000000240000
#07313:0024
#07318:23
#07319:0024
#0891b:23
#08915:00230023
#08918:0023
#08912:23
#09012:23000024
#0901b:23
#0901a:0000000000240000
#09018:00230000
#09015:0000002300000000
#1141b:00230000
#11418:0000000023000023
#11415:00000023
#0251a:243434003434000000000000
#02512:000000000000243434003434
#03812:0024
#04615:0024
#05112:23
#05118:00000023
#0531b:23
#05315:00000023
#05512:24
#0551a:00000024
#0671b:2323
#06712:00230023
#0671a:00630000000000000063000000000000
#06719:0063000000630000
#06718:00000063000000000000006300000000
#06717:00630063
#06713:00000000006300000000000000630000
#06714:0000006300000063
#06715:00000000000000630000000000000063
#06716:0063
#0741a:24
#07412:24
#0751a:24
#07512:0024
#1001a:0024
#10817:0024
#1121b:0023
#01618:000000003333
#06816:63
#00152:53
#00255:53
#00352:0000000000000053
#0115b:0000000000130000
#01152:0000000000000013
#01155:0000001300000000
#0135b:13
#01258:00530053
#0125b:0063
#01452:1300000000000053
#0155b:0000000000000053
#01753:52
#0185b:62
#02058:52
#0205b:0012
#0285b:53000013
#02858:0000001300000000
#03655:0000001300000000
#03652:53
#04355:0000000000000053
#04352:53
#04558:0000000000000063
#04758:0000000000530000
#04752:14
#04957:00000000000000240000000000000000
#0485a:0000000000000064
#05255:0013
#0525b:0013000000000000
#05458:0013
#05452:0013000000000000
#09052:00000014
#0055b:63
#00658:63
#00752:0000000000000053
#00958:53
#01055:53
#01956:62
#02358:13
#0235b:0013
#03055:53
#03052:0000001300000000
#03152:53
#0315b:0053
#03158:00000053
#03255:53
#03252:00530000
#03258:0063
#0325b:00000063
#03352:5300000000000053
#03355:0053
#03455:00000023000000000000000000000000
#03758:0000000000000013
#03955:14
#04152:53
#0415b:0053
#04255:53
#04452:00000000002300000000000000000000
#0505a:44
#05155:0000001300000000
#05358:0000001300000000
#05555:0000001400000000
#05657:0014000000000000
#0585a:54
#05857:0054
#05752:54
#05755:0054
#0605b:00000013
#06256:13
#0635b:13
#06552:0014000000000000
#0655a:0000000000140000
#06652:0014000000000000
#0665a:0000000000140000
#06856:13
#0695b:53
#06958:0023
#0705b:53
#07058:0023
#07152:63
#07155:0023
#07252:63
#07255:0023
#0745a:14
#07452:14
#07652:14
#0775b:0000000000130000
#0795b:63
#07952:0063
#0805b:63
#08155:14
#0825a:14
#08452:0013
#08556:63
#08552:0000000000000023
#0855b:63
#08557:0000000000000023
#08755:0024
#0875a:0024
#08752:64
#08757:64
#10558:0000000000000063
#1055b:63
#10755:0000000000000053
#10955:0000000000630000
#1095a:14
#11155:00000000000000240000000000000000
#09352:0063
#09355:00000063
#0935b:53
#09458:63
#0945b:00630000
#09455:0053
#09452:00000053
#09558:0063
#0955b:5300000000000063
#09658:00000023000000000000000000000000
#1035b:63
#10352:0063
#10458:63
#1065b:00000000002300000000000000000000
#11052:0000000000000054
#09858:0000001300000000
#0985b:53
#11252:34
#0925b:0000001300000000
#09258:53
#10157:14
#11358:13
#11352:0000000000530000
#1165a:14
#11458:0000000000000053
#09955:0000000000000013
#001320:13
#001350:0023
#002350:13
#002320:0023
#003320:0000000000000013
#004350:0023
#0053b0:13
#005380:0023
#006380:13
#0063b0:0023
#007320:0000000000000013
#008350:0023
#009380:13
#0093b0:0023
#010350:13
#010320:0023
#012380:00130033
#0123b0:0033
#0133b0:23
#014320:0000000000000013
#015350:00230000
#0153b0:0000000000000013
#016380:000000000000000000000000330000330000330000330000330000000000000033000000000000003300000000000000
#0173b0:23
#017331:12
#018361:22
#0183b0:12
#019380:22
#019361:12
#020331:22
#020380:12
#0203b0:0022
#0223b0:0013
#022380:000000003333
#023380:23
#0253a0:143434003434240000000000
#025370:00340000
#025321:000000000000143434003434
#025351:00000034
#026321:24
#0283b1:13
#028381:0000332300000000
#030351:13
#030321:0000332300000000
#031321:13
#031351:00230000
#0313b1:0013
#031381:00000033
#0323b1:23
#032350:1323
#032320:00330000
#032381:0013
#0323b1:00000033
#033381:23
#033320:1300000000003333
#033350:0033
#034350:00000053000000000000000000000000
#034320:0023
#036320:13
#036350:0000332300000000
#038320:0014
#038330:000034
#038340:000000000034
#039350:24
#041320:13
#041350:0023
#0413b1:0013
#042381:23
#042350:13
#042320:0023
#043320:13
#043350:0023
#043350:0000000000000013
#044350:00333323
#044320:00000000005300000000000000000000
#045380:0000000000000013
#0463b0:00230000
#046350:0014
#046340:000034
#046330:000000000034
#047320:24
#047380:0000000000130000
#0483b0:23
#0483a0:0000000000000014
#049370:00000000000000540000000000000000
#0503a0:24
#051320:13
#051350:00000033000023000000000000000000
#051380:00000013
#0513b0:00000000000000000000000000000033
#0523b0:0023000000000000
#0533b0:13
#053380:00000033000023000000000000000000
#053350:00000013
#053320:00000000000000000000000000000033
#054320:0023000000000000
#055320:14
#055350:00000034000024000000000000000000
#0553a0:00000014
#055370:00000000000000000000000000000034
#056370:0024000000000000
#057320:1400000000000034
#057350:0000003434000000
#058320:24
#0583a1:1400000000000034
#058371:0000003434000000
#0593a1:24
#0603b1:0000000013332300
#0603a1:00000000000000000033003300000000
#061321:00000013
#061331:00000000000000000000000000330000
#061341:0000000000000033
#061351:00000000000000000000000000000033
#062361:23
#0623b1:0000133333333333
#0623a1:00000000003300330033003300330033
#0633b1:23
#0693b1:13
#069381:0053
#0703b1:33
#070381:0053
#0713b1:23
#071320:13
#071350:0053
#072320:33
#072350:0053
#073320:23
#0753a0:1424
#075390:003400000034000000000000
#075380:003434000000
#075370:00340000
#075321:0014
#075331:000000000000003400000034
#075341:000000003434
#075351:00000034
#076321:24
#0793b1:13
#079381:00230000
#079321:0013
#079351:00000023
#0803b1:13
#080381:00230000
#080321:0014
#080331:000034
#080341:000000000034
#081351:24
#085361:13
#085321:0000000000000053
#086361:00000023
#0853b0:13
#085370:0000000000000053
#0863b0:00000023
#087320:14
#087350:0034343434343434
#088320:24
#087371:14
#0873a1:0034343434343434
#088371:24
#092381:13
#0923b1:0000332300000000
#0933b1:13
#093381:00230000
#093321:0013
#093351:00000033
#094321:23
#094380:1323
#0943b0:00330000
#094351:0013
#094321:00000033
#095351:23
#0953b0:1300000000003333
#095380:0033
#096380:00000053000000000000000000000000
#0963b0:0023
#0983b0:13
#098380:0000332300000000
#1003a0:0014
#100390:000034
#100380:000000000034
#101370:24
#1033b0:13
#103380:0023
#103321:0013
#104351:23
#104380:13
#1043b0:0023
#1053b0:13
#105380:0023
#105380:0000000000000013
#106380:00333323
#1063b0:00000000005300000000000000000000
#107350:0000000000000013
#108320:00230000
#108370:0014
#108380:000034
#108390:000000000034
#1093a0:24
#109350:0000000000130000
#110320:23
#110320:0000000000000014
#111350:00000000000000540000000000000000
#112320:24
#1123b0:0013
#1123a0:000033
#112390:000000000033
#113380:23
#113320:0000000000130000
#114350:23
#114380:0000000000000013
#1163a0:24
#063920:0013
#063960:00000053
#064920:23
#0649b0:0013
#064970:00000053
#0659b0:23
#0679b0:13
#067970:00230000
#067921:00130000
#067961:0023
#0679b0:0013
#067970:00000023
#067921:00000013
#068961:23
