This file was generated by Ched 2.7.0.0.
#TITLE ""
#ARTIST ""
#DESIGNER ""
#DIFFICULTY 0
#PLAYLEVEL
#SONGID ""
#WAVE ""
#WAVEOFFSET 0
#JACKET ""
#REQUEST "ticks_per_beat 480"
#00002: 4
#BPM01: 214
#00008: 01
#TIL00: ""
#VOLUME: ""
#HISPEED 00
#MEASUREHS 00
#0011a:14
#00114:0014
#0021a:14
#00312:14
#00318:0014
#00412:14
#0051a:14
#00514:0014
#00618:14
#00612:0014
#00718:14
#00714:0014
#0091a:1414
#00914:00140000
#00910:41
#01012:1414
#01018:00140000
#0111a:1414
#01114:00140014
#0121a:14
#01312:14
#0141a:14
#01514:14
#01512:0014
#01718:14
#0171a:0014
#01818:14
#01914:14
#01912:0014
#02014:14
#02118:14
#02114:0014
#02110:41
#02218:14
#02312:14
#02318:0014
#02414:14
#0241a:0014
#02512:14
#02514:00343434
#02714:00140014
#0271a:2414
#0281a:14
#02818:00343400
#02918:00140014
#02912:1414
#03012:14
#03014:00343434
#0311a:0014
#03114:24
#03214:14
#03212:0014
#03218:00140000
#0331a:14
#03312:0014
#03318:00000014
#03310:41
#03414:14
#0341a:0014
#03512:14
#03518:00140000
#03514:0014
#0351a:00000014
#03614:14
#0371a:14
#03714:00140000
#03718:0014
#03712:00000014
#03818:14
#03912:14
#03918:0014
#04014:14
#0401a:0014
#04112:14
#04114:0014
#04212:14
#04318:0014
#04412:14
#0441a:0014
#04514:1414
#04518:00140014
#0461a:0014
#04614:24
#04712:14
#04718:0014
#04710:41
#04814:14
#0481a:0014
#05714:14
#05718:0014
#05814:14
#05818:0014
#05918:00140000
#05914:0014
#0591a:00000014
#05912:24
#05910:41
#06014:14
#06018:00140000
#06012:0014
#06114:00140000
#06118:0014
#06112:00000014
#0611a:24
#06218:14
#06214:00140000
#0621a:0014
#06318:00140014
#06312:2414
#06414:1414
#0641a:00140014
#06512:14
#06715:16
#07319:0014
#07413:14
#07718:0014
#0771f:11
#07712:24
#07814:1414
#07818:00140000
#07914:0014
#0791a:24
#08018:1414
#08014:00140000
#08118:0014
#08112:24
#08214:1414
#08218:00140000
#08314:0014
#0831a:24
#08418:1414
#08414:00140000
#08512:14
#09118:00140014
#09112:1414
#0911f:21
#09212:14
#09214:00343434
#09210:41
#0931a:0014
#09314:24
#09414:14
#09412:0014
#09418:00140000
#0951a:14
#09512:0014
#09518:00000014
#09614:14
#0961a:0014
#09712:14
#09718:00140000
#09714:0014
#0971a:00000014
#09814:14
#0991a:14
#09914:00140000
#09918:0014
#09912:00000014
#10018:14
#10112:14
#10118:0014
#10214:14
#1021a:0014
#10312:14
#10314:0014
#10412:14
#08914:14
#08918:0014
#09014:14
#09018:0014
#10518:0014
#10612:14
#1061a:0014
#10714:1414
#10718:00140014
#1081a:0014
#10814:24
#10912:14
#10918:0014
#11014:14
#1101a:0014
#11218:0014
#11314:14
#1141a:14
#0081a:24
#00812:0024
#04912:24
#0871a:24
#11112:24
#11512:24
#0125a:54
#01352:54
#0145a:64
#01554:54
#01552:0054
#01654:14
#01758:54
#0175a:0024
#01858:54
#01954:64
#01952:0024
#02054:64
#02552:54
#0285a:54
#03052:64
#03154:14
#03454:14
#03652:0014
#03654:54
#03858:64
#0385a:0014
#04152:54
#04154:0054
#04252:54
#04354:14
#05054:14
#04952:54
#06552:54
#06755:56
#07658:16
#08552:54
#09252:64
#09654:14
#09854:54
#09852:0014
#10058:64
#1005a:0014
#10352:54
#10354:0054
#10452:54
#09354:14
#10554:14
#11152:54
#11254:14
#11654:14
#11552:54
#0123a0:14
#012380:0024
#013320:14
#013340:0024
#0143a0:14
#014380:0024
#015340:14
#015320:0034
#016340:24
#017380:14
#0173a0:0034
#018380:34
#0183a0:0024
#019340:14
#019320:0034
#020340:34
#020320:0024
#025320:14
#025340:00343434
#026340:24
#0283a0:14
#028380:00343424
#030320:14
#030340:00343434
#031340:24
#036340:14
#036320:0024
#038380:14
#0383a0:0024
#041320:14
#041340:0034
#042320:34
#043340:24
#049320:14
#050340:24
#0513a0:14
#051390:00000034000000000000000000000034
#051380:0000003400003400
#0523a0:0034000024000000
#053320:14
#053330:00000034000000000000000000000034
#053340:0000003400003400
#054320:0034000024000000
#055380:14
#055390:00000034000000000000000000000034
#0553a0:0000003400003400
#056380:0034000024000000
#065320:14
#067350:36
#068370:22
#0693a0:14
#069390:0034
#070380:34
#070370:0024
#071320:14
#071330:0034
#072340:34
#072350:0034
#073360:24
#075380:16
#076380:26
#085320:14
#086340:00000024
#0873a0:14
#088380:24
#092320:14
#092340:00343434
#093340:24
#098340:14
#098320:0024
#100380:14
#1003a0:0024
#103320:14
#103340:0034
#104320:34
#105340:24
#111320:14
#112340:24
#115320:14
#116340:24
