This file was generated by Ched 2.7.0.0.
#TITLE ""
#ARTIST ""
#DESIGNER ""
#DIFFICULTY 0
#PLAYLEVEL
#SONGID ""
#WAVE ""
#WAVEOFFSET 0
#JACKET ""
#REQUEST "ticks_per_beat 480"
#00002: 4
#BPM01: 142
#00008: 01
#TIL00: ""
#VOLUME: ""
#HISPEED 00
#MEASUREHS 00
#00514:14
#00618:14
#00712:14
#0081a:14
#00914:14
#01018:14
#01112:14
#0121a:14
#01210:41
#01314:14
#01612:14
#01718:14
#02014:0014
#0201a:24
#0211a:14
#02212:14
#02218:0014
#02312:14
#0241a:14
#02414:0014
#0251a:14
#02612:14
#02618:0014
#02610:41
#02712:14
#0361a:14
#03712:14
#04312:0016
#04318:26
#04418:1616
#04512:1616
#04618:16
#04612:0016
#04812:16
#04818:0016
#05018:2616
#05112:1616
#05218:16
#05212:0016
#05318:16
#05317:00160000
#05412:2616
#05518:1616
#05612:16
#05613:00160000
#05718:16
#05717:00160000
#05814:14
#0341f:11
#0041a:24
#00410:41
#04212:26
#0421f:21
#04210:0041
#03318:34
#03310:41
#03219:0034
#01810:41
#05357:00260000
#05358:66
#05652:56
#05653:00260000
#05758:66
#05757:00260000
#0003a0:14
#0013a0:24
#002320:14
#003320:24
#0143a0:14
#015380:24
#018320:14
#019340:24
#0283a0:1434
#0293a0:0024
#030320:1434
#031320:0024
#0323a0:14
#032390:0034
#033380:3424
#034320:14
#035340:0024
#038380:1424
#039340:1424
#040380:14
#0413a0:24
#047380:1626
#049320:1626
#053380:1626
#053370:00560000
#056320:1626
#056330:00560000
#057380:1626
#057370:00560000
