This file was generated by Ched 2.7.0.0.
#TITLE ""
#ARTIST ""
#DESIGNER ""
#DIFFICULTY 0
#PLAYLEVEL
#SONGID ""
#WAVE ""
#WAVEOFFSET 0
#JACKET ""
#REQUEST "ticks_per_beat 480"
#00002: 4
#BPM01: 142
#00008: 01
#TIL00: ""
#VOLUME: ""
#HISPEED 00
#MEASUREHS 00
#00414:00140000
#00418:0014
#00412:00000014
#0041a:24
#00410:41
#00518:14
#00514:00140000
#0051a:0014
#00512:00000014
#0071a:14
#00718:00140000
#00716:0014
#00714:00000014
#00818:00140000
#00814:0014
#0081a:00000014
#00812:24
#00914:14
#00918:00140000
#00912:0014
#0091a:00000014
#0121a:1414
#01210:41
#01314:1414
#01414:00000014
#01418:14
#0151a:14
#01612:1414
#01718:1414
#01814:14
#01818:00000024
#01810:41
#02014:00140014
#02018:0014
#0201a:24
#02212:14
#02218:00140014
#02214:0014
#02612:00000014
#02618:2424
#02614:00240000
#02610:41
#02314:14
#02312:00000034000000000000000000000000
#02118:14
#0211a:00000034000000000000000000000000
#0271a:14
#02712:00000014
#02718:00000034000000000000000000000000
#02814:00000014
#02818:14
#02914:00000014
#0291a:14
#03018:00000014
#03014:14
#03118:00000014
#03112:14
#03212:14140000
#03218:00001414
#03314:14140000
#0331a:00001414
#03310:41
#03412:14
#03415:0014
#0341f:11
#03518:0014
#03514:00000014
#03619:0000000000000015
#03716:00000015000000000000000000000000
#03714:00000014
#03812:00140000
#03814:00000014
#0381a:24
#03818:0024
#03914:00140000
#03912:00000014
#0391a:24
#03918:0024
#04215:0016
#04212:24
#0421a:24
#0421f:21
#04210:0041
#04315:0016
#04312:24
#0431a:24
#0461a:14
#04614:00140000
#04618:00001414
#04712:14
#04718:00140000
#04714:00001414
#0481a:14
#04816:00140014
#04812:0014
#05112:14
#05118:00140000
#05114:0014
#0511a:00000014
#05214:14
#05218:0014
#05314:1414
#05312:00140000
#0551a:14
#05514:00140000
#05518:0014
#05512:00000014
#05618:14
#05614:0014
#05718:14
#0571a:00000014000000000000000000000000
#05714:00000014
#0581a:14
#01114:24
#01912:24
#0401a:24
#04412:2424
#0441a:2424
#04518:2626
#04512:00260026
#05012:2626
#05018:00260026
#05418:2626
#05412:00260026
#0241a:00343400
#02512:00343400
#01458:54
#0155a:54
#01854:64
#01952:54
#0215a:0000001400000000
#02158:54
#0205a:14
#02352:0000001400000000
#02354:54
#0275a:64
#02758:0000001400000000
#02858:64
#0295a:64
#03054:54
#03152:54
#03452:54
#03455:0024
#03552:14
#03659:0000000000000065
#03756:00000025000000000000000000000000
#0405a:54
#04452:1414
#0445a:1414
#0495a:0014
#05052:1616
#05058:00160016
#05254:54
#05258:0064
#05354:5454
#05352:00540014
#05658:64
#05654:0054
#05758:6400001400000000
#0575a:00000064000000000000000000000000
#05458:1616
#05452:00160016
#0003a0:1400000000340000
#001380:34
#0013a0:0000005400002400
#002320:1400000000340000
#003340:34
#003320:0000005400002400
#0063a0:14
#006380:00240000
#006340:0014
#006320:00000024
#010320:14
#010340:00240000
#010380:0014
#0103a0:00000024
#011340:14000034000034000000000024000000
#014380:14
#0143a0:0024
#0153a0:14
#015380:0024
#018340:14
#018320:0024
#019320:14
#019340:0024
#021380:14
#0213a0:00000034000024000000000000000000
#023340:14
#023320:00000034000024000000000000000000
#024380:14
#0243a0:00343424
#025340:14
#025320:00343424
#0273a0:14
#027380:00000034000024000000000000000000
#028380:14
#0283a0:0024
#0293a0:14
#029380:0024
#030340:14
#030320:0024
#031320:14
#031340:0024
#034320:14
#034350:0054
#035320:24
#036390:1500000055003535
#036360:0055003500000000
#037360:00000055000000000000000000000000
#037390:0025
#0403a0:14
#040340:0000000000000038
#041340:0038383828000000
#0493a0:14000034000034002400000000000000
#052340:14
#052320:00240000
#052380:0014
#0523a0:00000024
#053340:1434
#053320:00340024
#056380:14
#0563a0:00240000
#056340:0014
#056320:00000024
#057380:1400002400000000
#0573a0:00000034000000000000000000000000
