This file was generated by Ched 2.7.0.0.
#TITLE ""
#ARTIST ""
#DESIGNER ""
#DIFFICULTY 0
#PLAYLEVEL
#SONGID ""
#WAVE ""
#WAVEOFFSET 0
#JACKET ""
#REQUEST "ticks_per_beat 480"
#00002: 4
#BPM01: 127
#00008: 01
#TIL00: "0'0:10000, 0'960:1"
#VOLUME: ""
#HISPEED 00
#MEASUREHS 00
#00113:0012001200120012
#00115:00000000000000000000001200120000
#00116:12121200
#0011a:1212121212121212
#0031a:12001200001200220000000000220000
#00314:1212001212121200
#00316:00000012000000000000002200000000
#00318:00000000120000000022000000000000
#00315:0000000000000013
#00512:0013001300130013
#00517:23000000000000002300001300000000
#0051a:0000000000000014
#00515:00000000230000000013000000130000
#0051b:2323
#00519:00230000
#00510:41
#00916:0000000000130000
#00918:00005300000013000000001300000000
#00912:0000235300000014
#00914:00000000000000000013000000000000
#0091b:23005300000000002300000000130000
#00917:00000000000000002300000000130000
#00915:0013005300000000
#01112:0053001300130014
#01115:23005300230053000013001300000000
#01118:00001300000053001300000000130000
#0111b:00000000000000000000000000530000
#0141a:14000000000054001400001300000000
#01412:0054140000541300
#01415:00000000000000000000000000130000
#01418:0000000000000013
#0141b:00000000000000000000000000000013
#01416:0000540054140000
#01318:0014005300000053
#01315:00005300000000000013000013000000
#01312:00005300000000000000005300001300
#01314:0000001400000000
#01310:41
#0131b:0000005300000000
#02016:0014001400000000
#02012:14000014000000000000000000000000
#0201a:00000000001400000000000023630000
#02017:00000000000000000000000000002363
#02018:00000000000000000000236300000000
#0201b:53000000000000002363000000000000
#01912:53000000130000130000005300001300
#01915:0013001313000053
#0191b:130000000000000000000000000000000000000000000000000000000000000000000000000000000000000000000000000000000000000000000000000000000000000000000000000000000000000000000000000000000000000000000000008300000000000000000000000000000000000000000000000000000000000000000000000000000000000000000000000000000000000000000000000000000000000000000000000000000000000000000000000000000000000000000083000000000000000000000000000000000000000000000000000000000000000000000000000000000000000000000000000000000000000000000000000000000000000000000000000000000000000000000000000000000000000000000000008300000000000000000000000000000000000000000000000000000000000000000000000000000000000000000000000000000000000000000000000000000000000000000000000000000000000000000000000000000000000000000000
#01918:230000000000000000000000000000000000000000000000000000000000000000000000000000000000000000000000000000000000000000000000000000000000000000000000000000000000000000000000000000000000000000000083660000000000000000000000000000000000000000000000000000000000000000000000000000000000000000000000000000000000000000000000000000000000000000000000000000000000000000000000000000000000000000000000668300000000000000000000000000000000000000000000000000000000000000000000000000000000000000000000000000000000000000000000000000000000000000000000000000000000000000000000000000000000000000000083660000000000000000000000000000000000000000000000000000000000000000000000000000000000000000000000000000000000000000000000000000000000000000000000000000000000000000000000000000000000000000000000
#01815:008300000000000000000000000000000000000000000000000000000000000000000000000000000000000000000000000000000000000000000000000000000000000000000000000000000000000000000000000000000000000000000083000000000000000000000000000000000000000000000000000000000000000000000000000000000000000000000000130000000000000000000000000000000000000000000000000000000000000000000000000000000000000000000000008300000000000000000000000000000000000000000000000000000000000000000000000000000000000000000000000000000000000000000000000000000000000000000000000000000000000000000000000000000000000000000083000000000000000000000000000000000000000000000000000000000000000000000000000000000000000000000000000000000000000000000000000000000000000000000000000000000000000000000000000000000000000000000000
#01818:13000000130000001313000000000000
#0181b:0013000000000000
#0181a:00000000000000000000001400000000
#01812:660000000000000000000000000000000000000000000000000000000000000000000000000000000000000000000000000000000000000000000000000000000000000000000000000000000000000000000000000000000000000000000000668300000000000000000000000000000000000000000000000000000000000000000000000000000000000000000000000000000000000000000000000000000000000000000000000000000000000000000000000000000000000000000083660000000000000000000000000000000000000000000000000000000000000000000000000000000000000000000000000000000000000000000000000000000000000000000000000000000000000000000000000000000000000000000000668300000000000000000000000000000000000000000000000000000000000000000000000000000000000000000000000000000000000000000000000000000000000000000000000000000000000000000000000000000000000000000000
#01718:0000131300000053
#0171b:13001300000000001313000000001300
#01712:130000000000000000000000000000000000000000000000000000000000000000000000000000000000000000000000000000000000000000000000000000000000000000000000000000000000000000000000000000000000000000000000668300000000000000000000000000000000000000000000000000000000000000000000000000000000000000000000000000000000000000000000000000000000000000000000000000000000000000000000000000000000000000000083660000000000000000000000000000000000000000000000000000000000000000000000000000000000000000000000000000000000000000000000000000000000000000000000000000000000000000000000000000000000000000000000668300000000000000000000000000000000000000000000000000000000000000000000000000000000000000000000000000000000000000000000000000000000000000000000000000000000000000000000000000000000000000000083
#01715:230000000000000000000000000000000000000000000000000000000000000000000000000000000000000000000000000000000000000000000000000000000000000000000000000000000000000000000000000000000000000000000083000000000000000000000000000000000000000000000000000000000000000000000000000000000000000000000000000000000000000000000000000000000000000000000000000000000000000000000000000000000000000000000000008300000000000000000000000000000000000000000000000000000000000000000000000000000000000000000000000000000000000000000000000000000000000000000000000000000000000000000000000000000000000000000083000000000000000000000000000000000000000000000000000000000000000000000000000000000000000000000000000000000000000000000000000000000000000000000000000000000000000000000000000000000000000000000000
#01518:00000000000000130013000000000000
#0151b:0013131300000000
#01515:0000000013130000
#01512:00000000540000000000001300001400
#0151a:00000014
#01516:0054005400000054
#05016:13000000130000000000000000140000
#05015:0000000000130000
#05012:00002500000025000000001400001400
#05017:0013001300000000
#0501b:0013
#05018:00000000000000000013000000000000
#05019:25250000
#0501f:21
#05014:52
#05115:0000000000130023
#05118:13001600260000005600001300130000
#05113:0014000014000000
#0511b:13
#05112:26000000560016000000000023000013
#05119:0000001400000000
#04917:0000520000520012
#0491a:00000000000052000000005200000000
#04914:0052
#0491c:0052000000000000
#04916:64
#04012:13130000
#0401b:13130000
#0401a:00000000000000000000001200120000
#04018:1300001300120012
#04016:00000000000000000012000000000012
#04015:0013130000000000
#04014:0012
#02917:13000000130000000000000000131300
#0291b:00000000000000001300130000131300
#02918:00000000000000000013001300000000
#02915:00000000000000000000001300000000
#02916:0013001300000000
#0291a:24240000
#02912:0024002400000053
#02910:41
#03016:140000000000000000000000000000000000000000000000000000000000000000000000000000000000000000000000130000000000000000000000000000000000000000000000000000000000000000000000000000000000000000000074007400000000000000000000000000000000000000000000000000000000000000000000000000000000000000000000000000000000000000000000000000000000000000000000000000000000000000000000000000000000000000000000000000000000000000000000000000000000000000000000000000000000000000000000000000000000000000000000000000000000000000000000000000000000000000000000000000000000000000000000000000000000000000000000000000000000000000000000000000000000000000000000000000000000000000000000000000000000000000000000240000000000000000000000000000000000000000000000000000000000000000000000000000000000000000000000
#0301a:0014000000000000
#03012:2300000000000000000000000000000000000000000000000000000000000000000000000000000000000000000000000000000000000000000000000000000000000000000000000000000000000000000000000000000000000000000000736c0000000000000000000000000000000000000000000000000000000000000000000000000000000000000000000000140000000000000000000000000000000000000000000000000000000000000000000000000000000000000000000000000000000000000000000000000000000000000000000000000000000000000000000000000000000000000000000000000000000000000000000000000000000000000000000000000000000000000000000000000000000000000000000000000000000000000000000000000000000000000000000000000000000000000000000000000000000000000000000000140000000000000000000000000000000000000000000000000000000000000000000000000000000000000000000000
#03014:00000000000000000000141400000000
#03017:0000001300000000
#03018:00000024
#0301b:000000000000000000000000000000000000000000000000000000000000000000000000000000000000000000000000000000000000000000000000000000000000000000000000000000000000000000000000000000000000000000000000008300000000000000000000000000000000000000000000000000000000000000000000000000000000000000000000000000000000000000000000000000000000000000000000000000000000000000000000000000000000000000000000000000000000000000000000000000000000000000000000000000000000000000000000000000000000000000000000000000000000000000000000000000000000000000000000000000000000000000000000000000000000000000000000000000000000000000000000000000000000000000000000000000000000000000000000000000000000000000000000000000000000000000000000000000000000000000000000000000000000000000000000000000000000000000000000
#03216:14002400140024000012001200001200
#0321b:5313001300000000
#03214:0012
#03218:00000000000000000000120000120012
#03212:23230000
#0281b:00000000131300002363000000000000
#02818:00001300131300130000236300000000
#02815:00001300000000130000000023630000
#02812:13000000000000000000000000002363
#02219:00000000001300130000130000000000
#02212:00000013000000000013000024005400
#02215:00001400240014001400001400000000
#02218:0000000000002454
#0221a:0054000000000000
#03914:0013001300000000
#03912:13230000
#03918:0000000000132313
#03915:0000000000000013
#0391b:00000000000000001300001300000000
#03916:00230000
#04418:1300230000120012
#0441b:13231300
#04415:23000000130000000013000000000000
#04412:23000000130000000000001200000000
#04414:00000000000000000000001300000000
#0441a:00000000000000000000130000120000
#04416:00000000000000000000000000000012
#04419:0012
#04413:00000000000000000012000000000000
#0371a:14000000000000000000142400000000
#03712:25000000000000001400000000142400
#03716:00001600000000000000005400006400
#03714:000000000000000000000000000000000000000000000000000000000000000000000000000000000000000000000000000000000000000000000000000000000000000000000000000000000000000000000000000000000000000000000075680000000000000000000000000000000000000000000000000000000000000000000000000000000000000000000000160000000000000000000000000000000000000000000000000000000000000000000000000000000000000000000000000000000000000000000000000000000000000000000000000000000000000000000000000000000000000000000000000000000000000000000000000000000000000000000000000000000000000000000000000000000000000000000000000000000000000000000000000000000000000000000000000000000000000000000000000000000000000000000000000000000000000000000000000000000000000000000000000000000000000000000000000000000000000000000000
#03719:0065
#03717:000000000000000000000000000000000000000000000000000000000000000000000000000000000000000000000000000000000000000000000000000000000000000000000000000000000000000000000000000000000000000000000000008500000000000000000000000000000000000000000000000000000000000000000000000000000000000000000000000000000000000000000000000000000000000000000000000000000000000000000000000000000000000000000000000000000000000000000000000000000000000000000000000000000000000000000000000000000000000000000000000000000000000000000000000000000000000000000000000000000000000000000000000000000000000000000000000000000000000000000000000000000000000000000000000000000000000000000000000000000000000000000000000000000000000000000000000000000000000000000000000000000000000000000000000000000000000000000000
#01616:00000000000000000012001200001200
#01614:0000000000120000
#0161a:00000012
#01618:00000000530000001200000000120012
#0161b:0053000053000000
#01615:0000005300000000
#01612:0053000053000000
#02118:00000000000000000000001300000000
#02115:00000000000013000000005300001414
#02114:00250025000000000000000000000000
#02119:25002500250000550000000000000000
#02110:41
#02112:54000000000000000053000000000000
#0211b:0000000000000053
#04612:001300130000000000132c1300130013
#04614:00000000000000130000000000000000
#04619:00000000000000130000000000000000
#04615:00000000000000000013001300130013
#04617:1313000000000000
#0461b:00000000001300000000000000000000
#04616:00000000005400000000000028000000
#0461a:0000000000000024
#0021b:0000120012120012
#00217:1200001200000000
#00219:00001200000000000000001200000000
#00214:1212121212121212
#00412:530053131414142c
#00416:00000000000000140000001400000000
#0041a:24000000240000000014000000140000
#00415:0053005300000000
#0061b:0013001300130013
#00616:23000000000000002300001300000000
#00612:2300000023000014
#00618:00000000230000000013000000130000
#00614:00230000
#00712:0013001300130013
#00717:23005300000000002300001300000000
#0071a:0000000000000014
#00715:00000000230053000013000000130000
#0071b:2353000023000000
#00719:0000235300000000
#0081b:0013001313000000
#00818:00000000230053000013000000130000
#00815:0000000000130013
#00812:23005300000000002300001300000013
#00816:2353000023000000
#00814:0000235300000000
#01017:0000000000130000
#01015:00005300000013000000001300000000
#0101a:0000000000000014
#01019:00000000000000000013000000000000
#01012:23005300000000002300000000130000
#01016:00000000000000002300000000130000
#01018:0013005300000000
#0101b:0000235300000000
#02312:0000000000002300000000001300000000005300000000000014000000000000
#02316:00000000000054000000001400005400
#0231b:23000000000000000000005300001300
#02318:00230000000000000000000000000013
#02315:0023000000000000
#0231a:00240000
#0241b:13
#02418:00000000005300001300000013000013
#02412:00000000005300000013001300130000
#02415:00001300000000530000130000001300
#02614:00000000001300130000130024005400
#0261b:00000013000000000013000000000000
#02617:00001400240014001400001400000000
#0261a:0000000000002454
#02612:0054000000000000
#02515:00000000000000000000001300000000
#02518:00000000000013000000005300000000
#02517:00250025000000000000000000001414
#02512:25002500250000550000000000005300
#0251b:53000000000000000053000000000000
#0271b:00000023000013000053000000000000
#0271a:0000000000000000000000000000000000000000000000000014000000000000
#02716:00000000000054000000001400005400
#02712:23000000240000000000005300001300
#02715:00230000000000000000000000000013
#02718:0023000000000000
#0311b:0013001300000000
#03118:00000013001300130000005300000000
#03112:0000530000000013
#03115:13000000130000000053000000000013
#03316:13000000130000000000000000131300
#03317:0013001300000000
#03312:24000000240000001300130000131300
#03315:00000000000000000013001300000000
#03318:00000000000000000000001300000000
#0331a:0024002400000000
#0331b:0000000000000053
#03416:140000000000000000000000000000000000000000000000000000000000000000000000000000000000000000000000000000000000000000000000000000000000000000000000000000000000000000000000000000000000000000000074007400000000000000000000000000000000000000000000000000000000000000000000000000000000000000000000130000000000000000000000000000000000000000000000000000000000000000000000000000000000000000000000000000000000000000000000000000000000000000000000000000000000000000000000000000000000000000000000000000000000000000000000000000000000000000000000000000000000000000000000000000000000000000000000000000000000000000000000000000000000000000000000000000000000000000000000000000000000000000000000240000000000000000000000000000000000000000000000000000000000000000000000000000000000000000000000
#03412:0000000000000000000000000000000000000000000000000000000000000000000000000000000000000000000000001400000000000000000000000000000000000000000000000000000000000000000000000000000000000000000000006c8300000000000000000000000000000000000000000000000000000000000000000000000000000000000000000000000000000000000000000000000000000000000000000000000000000000000000000000000000000000000000000000000000000000000000000000000000000000000000000000000000000000000000000000000000000000000000000000000000000000000000000000000000000000000000000000000000000000000000000000000000000000000000000000000000000000000000000000000000000000000000000000000000000000000000000000000000000000000000000000000000000000000000000000000000000000000000000000000000000000000000000000000000000000000000000000
#0341a:0000001400000014
#03418:00000000000000000000141400000000
#03417:0013000000000000
#0341b:230000000000000000000000000000000000000000000000000000000000000000000000000000000000000000000000000000000000000000000000000000000000000000000000000000000000000000000000000000000000000000000073000000000000000000000000000000000000000000000000000000000000000000000000000000000000000000000000000000000000000000000000000000000000000000000000000000000000000000000000000000000000000000000000000000000000000000000000000000000000000000000000000000000000000000000000000000000000000000000000000000000000000000000000000000000000000000000000000000000000000000000000000000000000000000000000000000000000000000000000000000000000000000000000000000000000000000000000000000000000000000000000000000000000000000000000000000000000000000000000000000000000000000000000000000000000000000000000
#03414:00000024
#03612:5313001300000000
#03616:14002400140024000000120000120012
#0361a:0012
#03618:00000000000000000012001200001200
#0361b:23230000
#03610:41
#03812:14000000000000006500142400000000
#0381a:00000000000000001400000000142400
#03814:000000000000000000000000000000000000000000000000000000000000000000000000000000000000000000000000160000000000000000000000000000000000000000000000000000000000000000000000000000000000000000000000688500000000000000000000000000000000000000000000000000000000000000000000000000000000000000000000000000000000000000000000000000000000000000000000000000000000000000000000000000000000000000000000000000000000000000000000000000000000000000000000000000000000000000000000000000000000000000000000000000000000000000000000000000000000000000000000000000000000000000000000000000000000000000000000000000000000000000000000000000000000000000000000000000000000000000000000000000000000000000000000000000000000000000000000000000000000000000000000000000000000000000000000000000000000000000000000
#03816:00000000000016000000005400006400
#03819:25
#03817:000000000000000000000000000000000000000000000000000000000000000000000000000000000000000000000000000000000000000000000000000000000000000000000000000000000000000000000000000000000000000000000075000000000000000000000000000000000000000000000000000000000000000000000000000000000000000000000000000000000000000000000000000000000000000000000000000000000000000000000000000000000000000000000000000000000000000000000000000000000000000000000000000000000000000000000000000000000000000000000000000000000000000000000000000000000000000000000000000000000000000000000000000000000000000000000000000000000000000000000000000000000000000000000000000000000000000000000000000000000000000000000000000000000000000000000000000000000000000000000000000000000000000000000000000000000000000000000000
#04112:14000000000000006500142400000000
#0411a:00000000000000001400000000142400
#04117:000000000000000000000000000000000000000000000000000000000000000000000000000000000000000000000000140000000000000000000000000000000000000000000000000000000000000000000000000000000000000000000075000000000000000000000000000000000000000000000000000000000000000000000000000000000000000000000000000000000000000000000000000000000000000000000000000000000000000000000000000000000000000000000000000000000000000000000000000000000000000000000000000000000000000000000000000000000000000000000000000000000000000000000000000000000000000000000000000000000000000000000000000000000000000000000000000000000000000000000000000000000000000000000000000000000000000000000000000000000000000000000000000000000000000000000000000000000000000000000000000000000000000000000000000000000000000000000000
#04115:0000001400000000
#0411f:11
#04119:25
#04116:00000000000000000000005400006400
#04114:000000000000000000000000000000000000000000000000000000000000000000000000000000000000000000000000000000000000000000000000000000000000000000000000000000000000000000000000000000000000000000000000688500000000000000000000000000000000000000000000000000000000000000000000000000000000000000000000000000000000000000000000000000000000000000000000000000000000000000000000000000000000000000000000000000000000000000000000000000000000000000000000000000000000000000000000000000000000000000000000000000000000000000000000000000000000000000000000000000000000000000000000000000000000000000000000000000000000000000000000000000000000000000000000000000000000000000000000000000000000000000000000000000000000000000000000000000000000000000000000000000000000000000000000000000000000000000000000
#0421a:14000000000000000000142400000000
#04212:25000000000000001400000000142400
#04215:0014000000000000
#04217:000000000000000000000000000000000000000000000000000000000000000000000000000000000000000000000000000000000000000000000000000000000000000000000000000000000000000000000000000000000000000000000000008500000000000000000000000000000000000000000000000000000000000000000000000000000000000000000000140000000000000000000000000000000000000000000000000000000000000000000000000000000000000000000000000000000000000000000000000000000000000000000000000000000000000000000000000000000000000000000000000000000000000000000000000000000000000000000000000000000000000000000000000000000000000000000000000000000000000000000000000000000000000000000000000000000000000000000000000000000000000000000000000000000000000000000000000000000000000000000000000000000000000000000000000000000000000000000000
#04216:00000000000000000000005400006400
#04219:0065
#04214:000000000000000000000000000000000000000000000000000000000000000000000000000000000000000000000000000000000000000000000000000000000000000000000000000000000000000000000000000000000000000000000075680000000000000000000000000000000000000000000000000000000000000000000000000000000000000000000000000000000000000000000000000000000000000000000000000000000000000000000000000000000000000000000000000000000000000000000000000000000000000000000000000000000000000000000000000000000000000000000000000000000000000000000000000000000000000000000000000000000000000000000000000000000000000000000000000000000000000000000000000000000000000000000000000000000000000000000000000000000000000000000000000000000000000000000000000000000000000000000000000000000000000000000000000000000000000000000000
#04315:0000000000132313
#04318:0000000000000013
#04319:0013001300000000
#0431b:13230000
#04312:00000000000000001300001300000000
#04317:00230000
#04516:00130000000000000000000000005400
#04519:0013000000000000
#04515:00000013000000130000000000000000
#0451b:00000000001300000053130013000000
#04518:00000000005313000013001300000000
#04512:0000000000000013
#04513:23
#0531b:0013000000000000
#05316:00002400130024000012000000120000
#05312:2400001300000000
#05314:0012
#05318:0000000000120012
#0531a:00000000240000001200001200120012
#05317:13
#05416:00001300000013000000000000140000
#05418:0000000000130000
#0541a:00000000000000000000001400001400
#05417:13130000
#05412:25251300
#05415:00000000000000000013000000000000
#05419:0025002500000000
#05512:1316260056000000
#05519:0014000014000000
#05515:13000000000000000000001300130000
#05518:2600561600130023
#05513:0000001400000000
#0551b:00000000000000000000000023000013
#05717:00130000
#0571a:2412
#05718:00000000000000000012000000120000
#05716:1324002400120012
#05714:00000000000000001200001200120012
#05712:0013240000000000
#0571b:0000001300000000
#0611b:13130000
#06112:13130000
#06115:1316001600000000
#06118:00000000130000000012001200001200
#06114:0012
#0611a:0012
#06116:00000000000000000000120000120012
#0581a:00000000000014001400142400142400
#05815:14
#05812:00146c0065000000
#05816:0014001400000000
#05819:25
#05814:000000000000000000000000000000000000000000000000000000000000000000000000000000000000000000000000000000000000000000000000000000000000000000000000000000000000000000000000000000000000000000000000008500000000000000000000000000000000000000000000000000000000000000000000000000000000000000000000000000000000000000000000000000000000000000000000000000000000000000000000000000000000000000000000000000000000000000000000000000000000000000000000000000000000000000000000000000000000000000000000000000000000000000000000000000000000000000000000540000000000000000000000000000000000000000000000000000000000000000000000000000000000000000000000000000000000000000000000000000000000000000000000640000000000000000000000000000000000000000000000000000000000000000000000000000000000000000000000
#05817:000000000000000000000000000000000000000000000000000000000000000000000000000000000000000000000000000000000000000000000000000000000000000000000000000000000000000000000000000000000000000000000075000000000000000000000000000000000000000000000000000000000000000000000000000000000000000000000000000000000000000000000000000000000000000000000000000000000000000000000000000000000000000000000000000000000000000000000000000000000000000000000000000000000000000000000000000000000000000000000000000000000000000000000000000000000000000000000000000000000000000000000000000000000000000000000000000000000000000000000000000000000000000000000000000000000000000000000000000000000000000000000000000000000000000000000000000000000000000000000000000000000000000000000000000000000000000000000000
#05912:250000006c0014001400142400142400
#05917:140000000000000000000000000000000000000000000000000000000000000000000000000000000000000000000000000000000000000000000000000000000000000000000000000000000000000000000000000000000000000000000000008500000000000000000000000000000000000000000000000000000000000000000000000000000000000000000000000000000000000000000000000000000000000000000000000000000000000000000000000000000000000000000000000000000000000000000000000000000000000000000000000000000000000000000000000000000000000000000000000000000000000000000000000000000000000000000000000000000000000000000000000000000000000000000000000000000000000000000000000000000000000000000000000000000000000000000000000000000000000000000000000000000000000000000000000000000000000000000000000000000000000000000000000000000000000000000000
#0591a:0014000000000000
#05916:0014001400000000
#05918:00000000000000000000005400006400
#05919:0065
#05914:000000000000000000000000000000000000000000000000000000000000000000000000000000000000000000000000000000000000000000000000000000000000000000000000000000000000000000000000000000000000000000000075000000000000000000000000000000000000000000000000000000000000000000000000000000000000000000000000000000000000000000000000000000000000000000000000000000000000000000000000000000000000000000000000000000000000000000000000000000000000000000000000000000000000000000000000000000000000000000000000000000000000000000000000000000000000000000000000000000000000000000000000000000000000000000000000000000000000000000000000000000000000000000000000000000000000000000000000000000000000000000000000000000000000000000000000000000000000000000000000000000000000000000000000000000000000000000000000
#06212:250000006c0000001400142400142400
#06217:140000000000000000000000000000000000000000000000000000000000000000000000000000000000000000000000000000000000000000000000000000000000000000000000000000000000000000000000000000000000000000000000008500000000000000000000000000000000000000000000000000000000000000000000000000000000000000000000000000000000000000000000000000000000000000000000000000000000000000000000000000000000000000000000000000000000000000000000000000000000000000000000000000000000000000000000000000000000000000000000000000000000000000000000000000000000000000000000000000000000000000000000000000000000000000000000000000000000000000000000000000000000000000000000000000000000000000000000000000000000000000000000000000000000000000000000000000000000000000000000000000000000000000000000000000000000000000000000
#06218:00001400000014000000005400006400
#06214:000000000000000000000000000000000000000000000000000000000000000000000000000000000000000000000000140000000000000000000000000000000000000000000000000000000000000000000000000000000000000000000075000000000000000000000000000000000000000000000000000000000000000000000000000000000000000000000000140000000000000000000000000000000000000000000000000000000000000000000000000000000000000000000000000000000000000000000000000000000000000000000000000000000000000000000000000000000000000000000000000000000000000000000000000000000000000000000000000000000000000000000000000000000000000000000000000000000000000000000000000000000000000000000000000000000000000000000000000000000000000000000000000000000000000000000000000000000000000000000000000000000000000000000000000000000000000000000000
#06219:0065
#0631a:00000000000000001400142400142400
#06315:14
#06314:000000000000000000000000000000000000000000000000000000000000000000000000000000000000000000000000140000000000000000000000000000000000000000000000000000000000000000000000000000000000000000000000008500000000000000000000000000000000000000000000000000000000000000000000000000000000000000000000140000000000000000000000000000000000000000000000000000000000000000000000000000000000000000000000000000000000000000000000000000000000000000000000000000000000000000000000000000000000000000000000000000000000000000000000000000000000000000000000540000000000000000000000000000000000000000000000000000000000000000000000000000000000000000000000000000000000000000000000000000000000000000000000640000000000000000000000000000000000000000000000000000000000000000000000000000000000000000000000
#06318:0014001400000000
#06319:25
#06312:006c6500
#06317:000000000000000000000000000000000000000000000000000000000000000000000000000000000000000000000000000000000000000000000000000000000000000000000000000000000000000000000000000000000000000000000075000000000000000000000000000000000000000000000000000000000000000000000000000000000000000000000000000000000000000000000000000000000000000000000000000000000000000000000000000000000000000000000000000000000000000000000000000000000000000000000000000000000000000000000000000000000000000000000000000000000000000000000000000000000000000000000000000000000000000000000000000000000000000000000000000000000000000000000000000000000000000000000000000000000000000000000000000000000000000000000000000000000000000000000000000000000000000000000000000000000000000000000000000000000000000000000000
#06416:1300000000000012
#06418:00000000000013000000000000000012
#06412:13270000
#06415:0012001300000000
#0641b:0013
#06417:00000000000000001300001227000000
#06419:0000000000120000
#04717:00130000000000000000000000000000
#04714:0013000000000000
#04718:00000013000000130000000000000000
#04715:00000000005313000013001300000000
#04712:00000000001300000053130013000000
#0471b:0000000000000013
#0471a:13
#04716:0000000000000054
#0481b:00130013000000130000000000000000
#04816:130000000000130000000000000000540000000000130000000000000000000064000000000000006400000000000000
#04812:000000000000000000000000000000130000000000000000000000002400000000000000640000000000000064000000
#0351b:0000530000000013
#03518:13000000130000000053000000000013
#03512:0013001300000000
#03515:00000013001300130000005300000000
#05218:23001300000013000000005300000000
#05215:00000013001300000053000000000000
#05212:00000000130000130000000000005300
#05217:0000000000000013
#0521a:00000000000000000000000000000013
#05210:41
#0521b:0000005300000000
#05616:0000000000000013
#05613:00000000000000000000000000000013
#0561b:00000000130000130000000000005300
#05615:23001300000013000000005300000000
#05618:00000013001300000053000000000000
#05612:0000005300000000
#01215:00001300000053001300000000130000
#0121b:0053001300130000
#01218:23005300230053000013001300000000
#0121a:0000000000000014
#01212:00000000000000000000000000530000
#06015:0000001300120013
#0601b:13
#06017:13000000270000000000001200000000
#06018:0000001300000013
#06012:00001327
#06016:0013
#06019:0012000000000000
#06512:240000000000000000000000000000000000000000000000000000000000000000000000000000000000000000000000000000000000000000000000000000000000000000000000000000000000000000000000000000000000000000000000688400000000000000000000000000000000000000000000000000000000000000000000000000000000000000000084680000000000000000000000000000000000000000000000000000000000000000000000000000000000000000000000000000000000000000000000000000000000000000000000000000000000000000000000000000000000000000000000000000000000000000000000000000000000000000000000000000000000000000000000000000000000000000000000000000000000000000000000000000000000000000000000000000000000000000000000000000000000000000000000000000000000000000000000000000000000000000000000000000000000000000000000000000000000000000000000
#0651a:240000000000000000000000000000000000000000000000000000000000000000000000000000000000000000000084000000000000000000000000000000000000000000000000000000000000000000000000000000000000000000000000000000000000000000000000000000000000000000000000000000000000000000000000000000000000000000000000000000000000000000000000000000000000000000000000000000000000000000000000000000000000000000000000008400000000000000000000000000000000000000000000000000000000000000000000000000000000000000000000000000000000000000000000000000000000000000000000000000000000000000000000000000000000000000000000000000000000000000000000000000000000000000000000000000000000000000000000000000000000000000000000000000000000000000000000000000000000000000000000000000000000000000000000000000000000000000000000
#06516:000000000000000000000000000000000000000000000000000000000000000000000000000000000000000000000000688400000000000000000000000000000000000000000000000000000000000000000000000000000000000000000084000000000000000000000000000000000000000000000000000000000000000000000000000000000000000000000000008400000000000000000000000000000000000000000000000000000000000000000000000000000000000000000084680000000000000000000000000000000000000000000000000000000000000000000000000000000000000000000000000000000000000000000000000000000000000000000000000000000000000000000000000000000000000000000000000000000000000000000000000000000000000000000000000000000000000000000000000000000000000000000000000000000000000000000000000000000000000000000000000000000000000000000000000000000000000000000000
#00012:007300000000000000000000000000000000000000000000000000000000000000000000000000000000000000000000000000000000000000000000000000005300000000000000000000000000000000000000000000000000000000000000530000000000000000000000000000000000000000000000000000000000000000000000000000000000000000000000000000000000000000000000000000000000000000000000000000000000000000000000000000000000000000000000530000000000000000000000000000000000000000000000000000000000000000000000000000000000000000000000000000000000000000000000000000000000000000000000000000000000000000000000000000000000000000000000000000000000000000000000000000000000000000000000000000000000000000000000000000000000000000000000000000000000000000000000000000000000000000000000000000000000000000000000000000000000000000000000
#00015:005300000053530000000000
#00018:007300000000000000000000000000000000000000000000000000000000000053000000000000000000000000000000000000000000000000000000000000005300000000000000000000000000000000000000000000000000000000000000000000000000000000000000000000000000000000000000000000000000000053000000000000000000000000000000000000000000000000000000000000005300000000000000000000000000000000000000000000000000000000000000530000000000000000000000000000000000000000000000000000000000000000000000000000000000000000000000000000000000000000000000000000000000000000000000000000000000000000000000000000000000000000000000000000000000000000000000000000000000000000000000000000000000000000000000000000000000000000000000000000000000000000000000000000000000000000000000000000000000000000000000000000000000000000000000
#0001b:007300000000000000000000000000000000000000000000000000000000000000000000000000000000000000000000000000000000000000000000000000000000000000000000000000000000000000000000000000000000000000000000530000000000000000000000000000000000000000000000000000000000000053000000000000000000000000000000000000000000000000000000000000000000000000000000000000000000000000000000000000000000000000000000530000000000000000000000000000000000000000000000000000000000000000000000000000000000000000000000000000000000000000000000000000000000000000000000000000000000000000000000000000000000000000000000000000000000000000000000000000000000000000000000000000000000000000000000000000000000000000000000000000000000000000000000000000000000000000000000000000000000000000000000000000000000000000000000
#0045a:44440000
#00452:000000000000003c
#0055a:0000000000000014
#00952:0000000000000014
#01152:0000000000000014
#05052:0035003500000014
#05059:45450000
#0505a:0000000000000014
#05056:43430000
#05057:0033003300000000
#0295a:44440000
#02957:43430000
#02955:00000000000000000000005300000000
#02956:0033003300000000
#02952:0034003400000000
#0305a:0024000000000000
#03052:6300002400000000
#03056:640000000000000000000000000000000000000000000000000000000000000000000000000000000000000000000000230000000000000000000000000000000000000000000000000000000000000000000000000000000000000000000000006400000000000000000000000000000000000000000000000000000000000000000000000000000000000000000000000000000000000000000000000000000000000000000000000000000000000000000000000000000000000000000000140000000000000000000000000000000000000000000000000000000000000000000000000000000000000000000000000000000000000000000000000000000000000000000000000000000000000000000000000000000000000000000000000000000000000000000000000000000000000000000000000000000000000000000000000000000000000000000000640000000000000000000000000000000000000000000000000000000000000000000000000000000000000000000000
#0305b:000000000000000000000000000000000000000000000000000000000000000000000000000000000000000000000000000000000000000000000000000000000000000000000000000000000000000000000000000000000000000000000000006300000000000000000000000000000000000000000000000000000000000000000000000000000000000000000000000000000000000000000000000000000000000000000000000000000000000000000000000000000000000000000000130000000000000000000000000000000000000000000000000000000000000000000000000000000000000000000000000000000000000000000000000000000000000000000000000000000000000000000000000000000000000000000000000000000000000000000000000000000000000000000000000000000000000000000000000000000000000000000000000000000000000000000000000000000000000000000000000000000000000000000000000000000000000000000000
#03057:0000002300000000
#0395a:00140000
#03952:00000014
#0375a:00000000000000000000005400000000
#03752:0000000064000014
#00652:0000000000000014
#0075a:0000000000000014
#0105a:0000000000000014
#0155a:00000054
#0185a:00000000000000000000001400000000
#02056:0000005400000000
#02158:00000000000000000000005300000000
#0235a:00540000
#02356:00000000000000000000005400000000
#02352:0000000000000000000000000000000000000000000000000024000000000000
#02555:00000000000000000000006300000000
#0275a:0000000000000000000000000000000000000000000000000024000000000000
#02756:00000000000000000000006400000000
#02752:00640000
#03356:33330000
#03357:0043004300000000
#03352:34340000
#0335a:0044004400000000
#03358:00000000000000000000006300000000
#03456:540000000000000000000000000000000000000000000000000000000000000000000000000000000000000000000000000000000000000000000000000000000000000000000000000000000000000000000000000000000000000000000000005400000000000000000000000000000000000000000000000000000000000000000000000000000000000000000000230000000000000000000000000000000000000000000000000000000000000000000000000000000000000000000000140000000000000000000000000000000000000000000000000000000000000000000000000000000000000000000000000000000000000000000000000000000000000000000000000000000000000000000000000000000000000000000000000000000000000000000000000000000000000000000000000000000000000000000000000000000000000000000000540000000000000000000000000000000000000000000000000000000000000000000000000000000000000000000000
#03452:000000000000000000000000000000000000000000000000000000000000000000000000000000000000000000000000240000000000000000000000000000000000000000000000000000000000000000000000000000000000000000000000005300000000000000000000000000000000000000000000000000000000000000000000000000000000000000000000000000000000000000000000000000000000000000000000000000000000000000000000000000000000000000000000130000000000000000000000000000000000000000000000000000000000000000000000000000000000000000000000000000000000000000000000000000000000000000000000000000000000000000000000000000000000000000000000000000000000000000000000000000000000000000000000000000000000000000000000000000000000000000000000000000000000000000000000000000000000000000000000000000000000000000000000000000000000000000000000
#0345a:0000002400000000
#03457:0023000000000000
#0345b:53
#0385a:0000000054000014
#03852:00000000000000000000006400000000
#0415a:0000000054000014
#04152:00000000000000000000006400000000
#04252:0000000064000014
#0425a:00000000000000000000005400000000
#04555:00000053000000000000000000000000
#0455b:00000053
#05152:5600002600000000
#05158:0026660000000000
#0545a:0000000000000014
#05457:33330000
#05456:0043004300000000
#05452:3500350000000014
#05459:0045004500000000
#05552:0026560000000000
#05558:6600002600000000
#0575a:14
#05752:00140000
#0585a:00000000000000005400005400001400
#05952:00000000000000006400006400001400
#06252:00000000000000006400006400001400
#0635a:00000000000000005400005400001400
#06652:1c
#04652:00000063000000000000000000000000
#04752:00000063
#04758:00000063000000000000000000000000
#0485b:00000053000000000000000000000000
#0125a:0000000000000014
#04352:00140000
#0435a:00000014
#06052:00140000
#0605a:00000014
#0645a:00140000
#06452:00000014
#0315a:14
#03552:14
#000320:132300000000000000000000000000000000000000000000000000000000000000000000000000000000000000000000000000000000000000000000000000000000000000000000000000000000000000000000000000000000000000000000000000000000000000000000000000000000000000000000000000000000000000000000000000000000000000000000000000000000000000000000000000000000000000000000000000000000000000000000000000000000000000000000000000000000000000000000000000000000000000000000000000000000000000000000000000000000000000000000000000000000000000000000000000000000000000000000000000000000000000000000000000000000000000000000000000000000000000000000000000000000000000000000000000000000000000000000000000000000000000000000000000000000000000000000000000000000000000000000000000000000000000000000000000000000000000000000
#000351:132300000000000000000000
#000382:132300000000000000000000000000000000000000000000000000000000000000000000000000000000000000000000000000000000000000000000000000000000000000000000000000000000000000000000000000000000000000000000000000000000000000000000000000000000000000000000000000000000000000000000000000000000000000000000000000000000000000000000000000000000000000000000000000000000000000000000000000000000000000000000000000000000000000000000000000000000000000000000000000000000000000000000000000000000000000000000000000000000000000000000000000000000000000000000000000000000000000000000000000000000000000000000000000000000000000000000000000000000000000000000000000000000000000000000000000000000000000000000000000000000000000000000000000000000000000000000000000000000000000000000000000000000000000000000
#0003b3:132300000000000000000000000000000000000000000000000000000000000000000000000000000000000000000000000000000000000000000000000000000000000000000000000000000000000000000000000000000000000000000000000000000000000000000000000000000000000000000000000000000000000000000000000000000000000000000000000000000000000000000000000000000000000000000000000000000000000000000000000000000000000000000000000000000000000000000000000000000000000000000000000000000000000000000000000000000000000000000000000000000000000000000000000000000000000000000000000000000000000000000000000000000000000000000000000000000000000000000000000000000000000000000000000000000000000000000000000000000000000000000000000000000000000000000000000000000000000000000000000000000000000000000000000000000000000000000000
#000382:001323000000000000000000
#000321:000013230000000000000000
#0003b2:000000132300000000000000
#000381:000000001323000000000000
#000352:000000000013230000000000
#003322:0000000000000013
#004322:23
#004351:1323000000000000
#004322:0013230000000000
#004351:0000132300000000
#007371:1323000000000000
#0073b2:1323000000000000
#007392:0000132300000000
#007351:0000132300000000
#008361:1323000000000000
#008322:1323000000000000
#008342:0000132300000000
#008381:0000132300000000
#0093b1:13
#009381:0053000023000000000000000000000000000000000000000000000000000000
#009382:13
#0093b2:0053000023000000000000000000000000000000000000000000000000000000
#009322:00130000
#009352:0000000000000000005300002300000000000000000000000000000000000000
#009351:00130000
#009321:0000000000000000005300002300000000000000000000000000000000000000
#010321:13
#010351:0053000023000000000000000000000000000000000000000000000000000000
#010352:13
#010322:0053000023000000000000000000000000000000000000000000000000000000
#0103b2:00130000
#010382:0000000000000000005300002300000000000000000000000000000000000000
#010381:00130000
#0103b1:0000000000000000005300002300000000000000000000000000000000000000
#011351:13
#011321:0053000023000000000000000000000000000000000000000000000000000000
#011322:13
#011352:0053000023000000000000000000000000000000000000000000000000000000
#011352:00130000
#011382:0000000000000000005300002300000000000000000000000000000000000000
#011381:00130000
#011351:0000000000000000005300002300000000000000000000000000000000000000
#0113b1:00000000000000001300000000230000
#012381:13
#0123b1:0053000023000000000000000000000000000000000000000000000000000000
#0123b2:13
#012382:0053000023000000000000000000000000000000000000000000000000000000
#012382:00130000
#012352:0000000000000000005300002300000000000000000000000000000000000000
#012351:00130000
#012381:0000000000000000005300002300000000000000000000000000000000000000
#012321:00000000000000001300000000230000
#013351:1323000000000000
#013322:1323000000000000
#013382:0000132300000000
#0133b1:0000132300000000
#013321:00000000000000001300002300000000
#013382:00000000000000000000001300002300
#014322:1424000000000000
#014361:0014240000000000
#0143a2:0000142400000000
#014361:0000001424000000
#014322:0000000014240000
#015362:1424000000000000
#015321:0014240000000000
#015362:0000142400000000
#0153a2:00000014
#015362:0000000000000024
#016322:1323000000000000
#0163b1:1323000000000000
#016383:0013230000000000
#016351:0000132300000000
#016323:0000001323000000
#0163b2:0000001323000000
#017353:130000000000000000000000000000000000000000000000000000000000000000000000000000000000000000000000000000000000000000000000000000000000000000000000000000000000000000000000000000000000000000000023000000000000000000000000000000000000000000000000000000000000000000000000000000000000000000000000000000000000000000000000000000000000000000000000000000000000000000000000000000000000000000000000000000000000000000000000000000000000000000000000000000000000000000000000000000000000000000000000000000000000000000000000000000000000000000000000000000000000000000000000000000000000000000000000000000000000000000000000000000000000000000000000000000000000000000000000000000000000000000000000000000000000000000000000000000000000000000000000000000000000000000000000000000000000000000000000
#017323:000000000000000000000000000000000000000000000000000000000000000000000000000000000000000000000000000000000000000000000000000000000000000000000000000000000000000000000000000000000000000000000000001300000000000000000000000000000000000000000000000000000000000000000000000000000000000000000000000000000000000000000000000000000000000000000000000000000000000000000000000000000000000000000023000000000000000000000000000000000000000000000000000000000000000000000000000000000000000000000000000000000000000000000000000000000000000000000000000000000000000000000000000000000000000000000000000000000000000000000000000000000000000000000000000000000000000000000000000000000000000000000000000000000000000000000000000000000000000000000000000000000000000000000000000000000000000000000000
#017353:000000000000000000000000000000000000000000000000000000000000000000000000000000000000000000000000000000000000000000000000000000000000000000000000000000000000000000000000000000000000000000000000000000000000000000000000000000000000000000000000000000000000000000000000000000000000000000000000000000000000000000000000000000000000000000000000000000000000000000000000000000000000000000000000001300000000000000000000000000000000000000000000000000000000000000000000000000000000000000000000000000000000000000000000000000000000000000000000000000000000000000000000000000000000000000000023000000000000000000000000000000000000000000000000000000000000000000000000000000000000000000000000000000000000000000000000000000000000000000000000000000000000000000000000000000000000000000000000
#017382:00000000000000000000001300002300
#017323:000000000000000000000000000000000000000000000000000000000000000000000000000000000000000000000000000000000000000000000000000000000000000000000000000000000000000000000000000000000000000000000000000000000000000000000000000000000000000000000000000000000000000000000000000000000000000000000000000000000000000000000000000000000000000000000000000000000000000000000000000000000000000000000000000000000000000000000000000000000000000000000000000000000000000000000000000000000000000000000000000000000000000000000000000000000000000000000000000000000000000000000000000000000000000000000000001300000000000000000000000000000000000000000000000000000000000000000000000000000000000000000000000000000000000000000000000000000000000000000000000000000000000000000000000000000000000000000023
#018353:001300000000000000000000000000000000000000000000000000000000000000000000000000000000000000000000000000000000000000000000000000000000000000000000000000000000000000000000000000000000000000000023000000000000000000000000000000000000000000000000000000000000000000000000000000000000000000000000000000000000000000000000000000000000000000000000000000000000000000000000000000000000000000000000000000000000000000000000000000000000000000000000000000000000000000000000000000000000000000000000000000000000000000000000000000000000000000000000000000000000000000000000000000000000000000000000000000000000000000000000000000000000000000000000000000000000000000000000000000000000000000000000000000000000000000000000000000000000000000000000000000000000000000000000000000000000000000000000
#018323:000000000000000000000000000000000000000000000000000000000000000000000000000000000000000000000000000000000000000000000000000000000000000000000000000000000000000000000000000000000000000000000000001300000000000000000000000000000000000000000000000000000000000000000000000000000000000000000000000000000000000000000000000000000000000000000000000000000000000000000000000000000000000000000023000000000000000000000000000000000000000000000000000000000000000000000000000000000000000000000000000000000000000000000000000000000000000000000000000000000000000000000000000000000000000000000000000000000000000000000000000000000000000000000000000000000000000000000000000000000000000000000000000000000000000000000000000000000000000000000000000000000000000000000000000000000000000000000000
#018353:000000000000000000000000000000000000000000000000000000000000000000000000000000000000000000000000000000000000000000000000000000000000000000000000000000000000000000000000000000000000000000000000000000000000000000000000000000000000000000000000000000000000000000000000000000000000000000000000000000000000000000000000000000000000000000000000000000000000000000000000000000000000000000000000001300000000000000000000000000000000000000000000000000000000000000000000000000000000000000000000000000000000000000000000000000000000000000000000000000000000000000000000000000000000000000000023000000000000000000000000000000000000000000000000000000000000000000000000000000000000000000000000000000000000000000000000000000000000000000000000000000000000000000000000000000000000000000000000
#018323:000000000000000000000000000000000000000000000000000000000000000000000000000000000000000000000000000000000000000000000000000000000000000000000000000000000000000000000000000000000000000000000000000000000000000000000000000000000000000000000000000000000000000000000000000000000000000000000000000000000000000000000000000000000000000000000000000000000000000000000000000000000000000000000000000000000000000000000000000000000000000000000000000000000000000000000000000000000000000000000000000000000000000000000000000000000000000000000000000000000000000000000000000000000000000000000000001300000000000000000000000000000000000000000000000000000000000000000000000000000000000000000000000000000000000000000000000000000000000000000000000000000000000000000000000000000000000000000000
#019323:23
#019382:130000000000000000000000000000000000000000000000000000000000000000000000000000000000000000000000000000000000000000000000000000000000000000000000000000000000000000000000000000000000000000000023000000000000000000000000000000000000000000000000000000000000000000000000000000000000000000000000000000000000000000000000000000000000000000000000000000000000000000000000000000000000000000000000000000000000000000000000000000000000000000000000000000000000000000000000000000000000000000000000000000000000000000000000000000000000000000000000000000000000000000000000000000000000000000000000000000000000000000000000000000000000000000000000000000000000000000000000000000000000000000000000000000000000000000000000000000000000000000000000000000000000000000000000000000000000000000000000
#0193b2:000000000000000000000000000000000000000000000000000000000000000000000000000000000000000000000000000000000000000000000000000000000000000000000000000000000000000000000000000000000000000000000000001300000000000000000000000000000000000000000000000000000000000000000000000000000000000000000000000000000000000000000000000000000000000000000000000000000000000000000000000000000000000000000023000000000000000000000000000000000000000000000000000000000000000000000000000000000000000000000000000000000000000000000000000000000000000000000000000000000000000000000000000000000000000000000000000000000000000000000000000000000000000000000000000000000000000000000000000000000000000000000000000000000000000000000000000000000000000000000000000000000000000000000000000000000000000000000000
#019382:000000000000000000000000000000000000000000000000000000000000000000000000000000000000000000000000000000000000000000000000000000000000000000000000000000000000000000000000000000000000000000000000000000000000000000000000000000000000000000000000000000000000000000000000000000000000000000000000000000000000000000000000000000000000000000000000000000000000000000000000000000000000000000000000001300000000000000000000000000000000000000000000000000000000000000000000000000000000000000000000000000000000000000000000000000000000000000000000000000000000000000000000000000000000000000000023000000000000000000000000000000000000000000000000000000000000000000000000000000000000000000000000000000000000000000000000000000000000000000000000000000000000000000000000000000000000000000000000
#019323:00000000000000000013002300000000
#019351:00000000000000000000001300002300
#0193b2:000000000000000000000000000000000000000000000000000000000000000000000000000000000000000000000000000000000000000000000000000000000000000000000000000000000000000000000000000000000000000000000000000000000000000000000000000000000000000000000000000000000000000000000000000000000000000000000000000000000000000000000000000000000000000000000000000000000000000000000000000000000000000000000000000000000000000000000000000000000000000000000000000000000000000000000000000000000000000000000000000000000000000000000000000000000000000000000000000000000000000000000000000000000000000000000000001300000000000000000000000000000000000000000000000000000000000000000000000000000000000000000000000000000000000000000000000000000000000000000000000000000000000000000000000000000000000000000000
#0203b2:23
#020362:0000001400000000
#020322:00000054
#021322:24
#0203b1:00000000000000001323000000000000
#020381:00000000000000000000132300000000
#0203a1:00000000000000000000000013230000
#020371:00000000000000000000000000001323
#021392:00000000150000250000000000000000
#021321:00000000000000130023000000000000
#021352:00000000000000000013002300000000
#021381:00000000000000000000001300000000
#0213b1:0000000000000023
#0223a1:1424000000000000
#022321:0000000000001424
#022382:0000000000001424
#0233a2:00140000
#023362:0000002400000000
#023322:00000000000000130023000000000000
#0233b1:00000000000000000013002300000000
#023362:00000000000000000000001400002400
#023322:0000000000000000000000000000000000000000000000000054000000000000
#024322:00000013002300000000000000000000
#024381:00000013002300000000000000000000
#024353:00000000001300230000000000000000
#0243b1:00000000000000130000000000000000
#0253b1:23
#025321:00000000150000250000000000000000
#0253b3:00000000000000130023000000000000
#025381:00000000000000000013002300000000
#025353:00000000000000000000001300000000
#025323:0000000000000023
#026323:1424000000000000
#0263a3:0000000000001424
#026341:0000000000001424
#027321:00140000
#027361:0000002400000000
#0273b1:00000000000000130023000000000000
#027323:00000000000000000013002300000000
#027361:00000000000000000000001400002400
#0273a1:0000000000000000000000000000000000000000000000000054000000000000
#0283b1:00000000000000001323000000000000
#028381:00000000000000000000132300000000
#028351:00000000000000000000000013230000
#028321:00000000000000000000000000001323
#029351:00000000000000000000001300000000
#029321:00000000000000000000000000332300
#030321:130000000000000000000000000000000000000000000000000000000000000000000000000000000000000000000000000000000000000000000000000000000000000000000000000000000000000000000000000000000000000000000023000000000000000000000000000000000000000000000000000000000000000000000000000000000000000000000000000000000000000000000000000000000000000000000000000000000000000000000000000000000000000000000000000000000000000000000000000000000000000000000000000000000000000000000000000000000000000000000000000000000000000000000000000000000000000000000000000000000000000000000000000000000000000000000000000000000000000000000000000000000000000000000000000000000000000000000000000000000000000000000000000000000000000000000000000000000000000000000000000000000000000000000000000000000000000000000000
#030361:0033000000000000
#030363:140000000000000000000000000000000000000000000000000000000000000000000000000000000000000000000000000000000000000000000000000000000000000000000000000000000000000000000000000000000000000000000024000000000000000000000000000000000000000000000000000000000000000000000000000000000000000000000000000000000000000000000000000000000000000000000000000000000000000000000000000000000000000000000000000000000000000000000000000000000000000000000000000000000000000000000000000000000000000000000000000000000000000000000000000000000000000000000000000000000000000000000000000000000000000000000000000000000000000000000000000000000000000000000000000000000000000000000000000000000000000000000000000000000000000000000000000000000000000000000000000000000000000000000000000000000000000000000000
#0303a3:0034000000000000
#030363:000000000000000000000000000000000000000000000000000000000000000000000000000000000000000000000000000000000000000000000000000000000000000000000000000000000000000000000000000000000000000000000000001400000000000000000000000000000000000000000000000000000000000000000000000000000000000000000000000000000000000000000000000000000000000000000000000000000000000000000000000000000000000000000000240000000000000000000000000000000000000000000000000000000000000000000000000000000000000000000000000000000000000000000000000000000000000000000000000000000000000000000000000000000000000000000000000000000000000000000000000000000000000000000000000000000000000000000000000000000000000000000000000000000000000000000000000000000000000000000000000000000000000000000000000000000000000000000000
#030323:0000003400000000
#0303b1:000000000000000000000000000000000000000000000000000000000000000000000000000000000000000000000000000000000000000000000000000000000000000000000000000000000000000000000000000000000000000000000000001300000000000000000000000000000000000000000000000000000000000000000000000000000000000000000000000000000000000000000000000000000000000000000000000000000000000000000000000000000000000000000000230000000000000000000000000000000000000000000000000000000000000000000000000000000000000000000000000000000000000000000000000000000000000000000000000000000000000000000000000000000000000000000000000000000000000000000000000000000000000000000000000000000000000000000000000000000000000000000000000000000000000000000000000000000000000000000000000000000000000000000000000000000000000000000000
#030371:0000003300000000
#030361:0000000000000014
#0313a1:24
#031323:13230000
#031353:00000000000000130023000000000000
#031381:00000000000000000013002300000000
#0313b3:00000000000000000000001300000000
#0323b3:23
#033383:00000000000000000000001300000000
#0333b3:00000000000000000000000000332300
#0343b3:130000000000000000000000000000000000000000000000000000000000000000000000000000000000000000000000000000000000000000000000000000000000000000000000000000000000000000000000000000000000000000000023000000000000000000000000000000000000000000000000000000000000000000000000000000000000000000000000000000000000000000000000000000000000000000000000000000000000000000000000000000000000000000000000000000000000000000000000000000000000000000000000000000000000000000000000000000000000000000000000000000000000000000000000000000000000000000000000000000000000000000000000000000000000000000000000000000000000000000000000000000000000000000000000000000000000000000000000000000000000000000000000000000000000000000000000000000000000000000000000000000000000000000000000000000000000000000000000
#034373:0033000000000000
#034361:140000000000000000000000000000000000000000000000000000000000000000000000000000000000000000000000000000000000000000000000000000000000000000000000000000000000000000000000000000000000000000000024000000000000000000000000000000000000000000000000000000000000000000000000000000000000000000000000000000000000000000000000000000000000000000000000000000000000000000000000000000000000000000000000000000000000000000000000000000000000000000000000000000000000000000000000000000000000000000000000000000000000000000000000000000000000000000000000000000000000000000000000000000000000000000000000000000000000000000000000000000000000000000000000000000000000000000000000000000000000000000000000000000000000000000000000000000000000000000000000000000000000000000000000000000000000000000000000
#034321:0034000000000000
#034361:000000000000000000000000000000000000000000000000000000000000000000000000000000000000000000000000000000000000000000000000000000000000000000000000000000000000000000000000000000000000000000000000001400000000000000000000000000000000000000000000000000000000000000000000000000000000000000000000000000000000000000000000000000000000000000000000000000000000000000000000000000000000000000000000240000000000000000000000000000000000000000000000000000000000000000000000000000000000000000000000000000000000000000000000000000000000000000000000000000000000000000000000000000000000000000000000000000000000000000000000000000000000000000000000000000000000000000000000000000000000000000000000000000000000000000000000000000000000000000000000000000000000000000000000000000000000000000000000
#0343a1:0000003400000000
#034323:000000000000000000000000000000000000000000000000000000000000000000000000000000000000000000000000000000000000000000000000000000000000000000000000000000000000000000000000000000000000000000000000001300000000000000000000000000000000000000000000000000000000000000000000000000000000000000000000000000000000000000000000000000000000000000000000000000000000000000000000000000000000000000000000230000000000000000000000000000000000000000000000000000000000000000000000000000000000000000000000000000000000000000000000000000000000000000000000000000000000000000000000000000000000000000000000000000000000000000000000000000000000000000000000000000000000000000000000000000000000000000000000000000000000000000000000000000000000000000000000000000000000000000000000000000000000000000000000
#034363:0000003300000000
#034363:0000000000000014
#035323:24
#0353b1:13230000
#035381:00000000000000130023000000000000
#035353:00000000000000000013002300000000
#035321:00000000000000000000001300000000
#036321:23
#037321:15000000000000000000000000000055000000000000000000000000000000000000000000000000000000000000000000000000000000000000000000000000
#037341:000000000000000000000000000000000000000000000000000000000000000000000000000000000000000000000000000000000000000000000000000000000000000000000000000000000000000000000000000000000000000000000025000000000000000000000000000000000000000000000000000000000000000000000000000000000000000000000000000000000000000000000000000000000000000000000000000000000000000000000000000000000000000000000000000000000000000000000000000000000000000000000000000000000000000000000000000000000000000000000000000000000000000000000000000000000000000000000000000000000000000000000000000000000000000000000000000000000000000000000000000000000000000000000000000000000000000000000000000000000000000000000000000000000000000000000000000000000000000000000000000000000000000000000000000000000000000000000000
#037371:000000000000000000000000000000000000000000000000000000000000000000000000000000000000000000000000000000000000000000000000000000000000000000000000000000000000000000000000000000000000000000000000001500000000000000000000000000000000000000000000000000000000000000000000000000000000000000000000000000000000000000000000000000000000000000000000000000000000000000000000000000000000000000000000000000000000000000000000000000000000000000000000000000000000000000000000000000000000000000000000000000000000000000000000000000000000000000000000000000000000000000000000000000000000000000000000000000000000000000000000000000000000000000000000000000000000000000000000000000000000000000000000000000000000000000000000000000000000000000000000000000000000000000000000000000000000000000000000
#037391:00000000000000000000000000000000005500000000000000000000000000002500000000000000000000000000000000000000000000000000000000000000
#037323:0014
#037363:00000000000000000000342400000000
#0373a1:00000000000000000000001400000000
#037361:00000000000000000000000000342400
#038391:15000000000000000000000000000055000000000000000000000000000000000000000000000000000000000000000000000000000000000000000000000000
#038371:000000000000000000000000000000000000000000000000000000000000000000000000000000000000000000000000000000000000000000000000000000000000000000000000000000000000000000000000000000000000000000000025000000000000000000000000000000000000000000000000000000000000000000000000000000000000000000000000000000000000000000000000000000000000000000000000000000000000000000000000000000000000000000000000000000000000000000000000000000000000000000000000000000000000000000000000000000000000000000000000000000000000000000000000000000000000000000000000000000000000000000000000000000000000000000000000000000000000000000000000000000000000000000000000000000000000000000000000000000000000000000000000000000000000000000000000000000000000000000000000000000000000000000000000000000000000000000000000
#038341:000000000000000000000000000000000000000000000000000000000000000000000000000000000000000000000000000000000000000000000000000000000000000000000000000000000000000000000000000000000000000000000000001500000000000000000000000000000000000000000000000000000000000000000000000000000000000000000000000000000000000000000000000000000000000000000000000000000000000000000000000000000000000000000000000000000000000000000000000000000000000000000000000000000000000000000000000000000000000000000000000000000000000000000000000000000000000000000000000000000000000000000000000000000000000000000000000000000000000000000000000000000000000000000000000000000000000000000000000000000000000000000000000000000000000000000000000000000000000000000000000000000000000000000000000000000000000000000000
#038321:00000000000000000000000000000000005500000000000000000000000000002500000000000000000000000000000000000000000000000000000000000000
#0383a3:0014
#038363:00000000000000000000342400000000
#038321:00000000000000000000001400000000
#038361:00000000000000000000000000342400
#0393a1:14240000
#039321:00001424
#041391:15000000000000000000000000000055000000000000000000000000000000000000000000000000000000000000000000000000000000000000000000000000
#041371:000000000000000000000000000000000000000000000000000000000000000000000000000000000000000000000000000000000000000000000000000000000000000000000000000000000000000000000000000000000000000000000025000000000000000000000000000000000000000000000000000000000000000000000000000000000000000000000000000000000000000000000000000000000000000000000000000000000000000000000000000000000000000000000000000000000000000000000000000000000000000000000000000000000000000000000000000000000000000000000000000000000000000000000000000000000000000000000000000000000000000000000000000000000000000000000000000000000000000000000000000000000000000000000000000000000000000000000000000000000000000000000000000000000000000000000000000000000000000000000000000000000000000000000000000000000000000000000000
#041341:000000000000000000000000000000000000000000000000000000000000000000000000000000000000000000000000000000000000000000000000000000000000000000000000000000000000000000000000000000000000000000000000001500000000000000000000000000000000000000000000000000000000000000000000000000000000000000000000000000000000000000000000000000000000000000000000000000000000000000000000000000000000000000000000000000000000000000000000000000000000000000000000000000000000000000000000000000000000000000000000000000000000000000000000000000000000000000000000000000000000000000000000000000000000000000000000000000000000000000000000000000000000000000000000000000000000000000000000000000000000000000000000000000000000000000000000000000000000000000000000000000000000000000000000000000000000000000000000
#041321:00000000000000000000000000000000005500000000000000000000000000002500000000000000000000000000000000000000000000000000000000000000
#0413a3:0014
#041363:00000000000000000000342400000000
#041321:00000000000000000000001400000000
#041361:00000000000000000000000000342400
#042321:15000000000000000000000000000055000000000000000000000000000000000000000000000000000000000000000000000000000000000000000000000000
#042341:000000000000000000000000000000000000000000000000000000000000000000000000000000000000000000000000000000000000000000000000000000000000000000000000000000000000000000000000000000000000000000000025000000000000000000000000000000000000000000000000000000000000000000000000000000000000000000000000000000000000000000000000000000000000000000000000000000000000000000000000000000000000000000000000000000000000000000000000000000000000000000000000000000000000000000000000000000000000000000000000000000000000000000000000000000000000000000000000000000000000000000000000000000000000000000000000000000000000000000000000000000000000000000000000000000000000000000000000000000000000000000000000000000000000000000000000000000000000000000000000000000000000000000000000000000000000000000000000
#042371:000000000000000000000000000000000000000000000000000000000000000000000000000000000000000000000000000000000000000000000000000000000000000000000000000000000000000000000000000000000000000000000000001500000000000000000000000000000000000000000000000000000000000000000000000000000000000000000000000000000000000000000000000000000000000000000000000000000000000000000000000000000000000000000000000000000000000000000000000000000000000000000000000000000000000000000000000000000000000000000000000000000000000000000000000000000000000000000000000000000000000000000000000000000000000000000000000000000000000000000000000000000000000000000000000000000000000000000000000000000000000000000000000000000000000000000000000000000000000000000000000000000000000000000000000000000000000000000000
#042391:00000000000000000000000000000000005500000000000000000000000000002500000000000000000000000000000000000000000000000000000000000000
#042323:0014
#042363:00000000000000000000342400000000
#0423a1:00000000000000000000001400000000
#042361:00000000000000000000000000342400
#043321:14240000
#0433a1:00001424
#045351:00000013000000000000000000000000
#045381:00000000002300000000000000000000
#0453b1:00000000000000130023000000000000
#0453b1:00000013
#045361:0000000000000024
#046321:00000013000000000000000000000000
#046361:00000000002400000000000000000000
#047381:00000013000000000000000000000000
#047351:00000000002300000000000000000000
#047321:00000000000000130023000000000000
#047321:00000013
#047361:0000000000000024
#0483b1:00000013000000000000000000000000
#048361:00000000002400000000000000000000
#0493c1:1222000000000000
#049373:0012220000000000
#0493a1:0000122200000000
#049343:0000001222000000
#049371:0000000012220000
#0493a3:00000000000000000000122200000000
#049341:00000000000000000000001200000000
#050341:22
#0503a1:00000000000000000000001400002400
#051321:16260000
#051381:0056000000000000
#051383:00162600
#051323:0000005600000000
#0523b3:1300002300000000
#052353:00000000000000130023000000000000
#052381:00000000000000000013002300000000
#052323:00000000000000000000001300002300
#054323:00000000000000000000001400002400
#055383:16260000
#055323:0056000000000000
#055321:00162600
#055381:0000005600000000
#056321:1300002300000000
#056381:00000000000000130023000000000000
#056353:00000000000000000013002300000000
#0563b1:00000000000000000000001300002300
#058391:15000000000000000000000000000055000000000000000000000000000000000000000000000000000000000000000000000000000000000000000000000000
#058371:000000000000000000000000000000000000000000000000000000000000000000000000000000000000000000000000000000000000000000000000000000000000000000000000000000000000000000000000000000000000000000000025000000000000000000000000000000000000000000000000000000000000000000000000000000000000000000000000000000000000000000000000000000000000000000000000000000000000000000000000000000000000000000000000000000000000000000000000000000000000000000000000000000000000000000000000000000000000000000000000000000000000000000000000000000000000000000000000000000000000000000000000000000000000000000000000000000000000000000000000000000000000000000000000000000000000000000000000000000000000000000000000000000000000000000000000000000000000000000000000000000000000000000000000000000000000000000000000
#058341:000000000000000000000000000000000000000000000000000000000000000000000000000000000000000000000000000000000000000000000000000000000000000000000000000000000000000000000000000000000000000000000000001500000000000000000000000000000000000000000000000000000000000000000000000000000000000000000000000000000000000000000000000000000000000000000000000000000000000000000000000000000000000000000000000000000000000000000000000000000000000000000000000000000000000000000000000000000000000000000000000000000000000000000000000000000000000000000000000000000000000000000000000000000000000000000000000000000000000000000000000000000000000000000000000000000000000000000000000000000000000000000000000000000000000000000000000000000000000000000000000000000000000000000000000000000000000000000000
#058321:00000000000000000000000000000000005500000000000000000000000000002500000000000000000000000000000000000000000000000000000000000000
#0583a3:0014
#058343:00000000000000000000342400000000
#0583a1:00000000000000000000001400000000
#058341:00000000000000000000000000342400
#059321:15000000000000000000000000000055000000000000000000000000000000000000000000000000000000000000000000000000000000000000000000000000
#059341:000000000000000000000000000000000000000000000000000000000000000000000000000000000000000000000000000000000000000000000000000000000000000000000000000000000000000000000000000000000000000000000025000000000000000000000000000000000000000000000000000000000000000000000000000000000000000000000000000000000000000000000000000000000000000000000000000000000000000000000000000000000000000000000000000000000000000000000000000000000000000000000000000000000000000000000000000000000000000000000000000000000000000000000000000000000000000000000000000000000000000000000000000000000000000000000000000000000000000000000000000000000000000000000000000000000000000000000000000000000000000000000000000000000000000000000000000000000000000000000000000000000000000000000000000000000000000000000000
#059371:000000000000000000000000000000000000000000000000000000000000000000000000000000000000000000000000000000000000000000000000000000000000000000000000000000000000000000000000000000000000000000000000001500000000000000000000000000000000000000000000000000000000000000000000000000000000000000000000000000000000000000000000000000000000000000000000000000000000000000000000000000000000000000000000000000000000000000000000000000000000000000000000000000000000000000000000000000000000000000000000000000000000000000000000000000000000000000000000000000000000000000000000000000000000000000000000000000000000000000000000000000000000000000000000000000000000000000000000000000000000000000000000000000000000000000000000000000000000000000000000000000000000000000000000000000000000000000000000
#059391:00000000000000000000000000000000005500000000000000000000000000002500000000000000000000000000000000000000000000000000000000000000
#059323:0014
#059383:00000000000000000000342400000000
#059321:00000000000000000000001400000000
#059381:00000000000000000000000000342400
#060321:14240000
#0603a1:00001424
#062321:15000000000000000000000000000055000000000000000000000000000000000000000000000000000000000000000000000000000000000000000000000000
#062341:000000000000000000000000000000000000000000000000000000000000000000000000000000000000000000000000000000000000000000000000000000000000000000000000000000000000000000000000000000000000000000000025000000000000000000000000000000000000000000000000000000000000000000000000000000000000000000000000000000000000000000000000000000000000000000000000000000000000000000000000000000000000000000000000000000000000000000000000000000000000000000000000000000000000000000000000000000000000000000000000000000000000000000000000000000000000000000000000000000000000000000000000000000000000000000000000000000000000000000000000000000000000000000000000000000000000000000000000000000000000000000000000000000000000000000000000000000000000000000000000000000000000000000000000000000000000000000000000
#062371:000000000000000000000000000000000000000000000000000000000000000000000000000000000000000000000000000000000000000000000000000000000000000000000000000000000000000000000000000000000000000000000000001500000000000000000000000000000000000000000000000000000000000000000000000000000000000000000000000000000000000000000000000000000000000000000000000000000000000000000000000000000000000000000000000000000000000000000000000000000000000000000000000000000000000000000000000000000000000000000000000000000000000000000000000000000000000000000000000000000000000000000000000000000000000000000000000000000000000000000000000000000000000000000000000000000000000000000000000000000000000000000000000000000000000000000000000000000000000000000000000000000000000000000000000000000000000000000000
#062391:00000000000000000000000000000000005500000000000000000000000000002500000000000000000000000000000000000000000000000000000000000000
#062323:0014
#062383:00000000000000000000342400000000
#062321:00000000000000000000001400000000
#062381:00000000000000000000000000342400
#063391:15000000000000000000000000000055000000000000000000000000000000000000000000000000000000000000000000000000000000000000000000000000
#063371:000000000000000000000000000000000000000000000000000000000000000000000000000000000000000000000000000000000000000000000000000000000000000000000000000000000000000000000000000000000000000000000025000000000000000000000000000000000000000000000000000000000000000000000000000000000000000000000000000000000000000000000000000000000000000000000000000000000000000000000000000000000000000000000000000000000000000000000000000000000000000000000000000000000000000000000000000000000000000000000000000000000000000000000000000000000000000000000000000000000000000000000000000000000000000000000000000000000000000000000000000000000000000000000000000000000000000000000000000000000000000000000000000000000000000000000000000000000000000000000000000000000000000000000000000000000000000000000000
#063341:000000000000000000000000000000000000000000000000000000000000000000000000000000000000000000000000000000000000000000000000000000000000000000000000000000000000000000000000000000000000000000000000001500000000000000000000000000000000000000000000000000000000000000000000000000000000000000000000000000000000000000000000000000000000000000000000000000000000000000000000000000000000000000000000000000000000000000000000000000000000000000000000000000000000000000000000000000000000000000000000000000000000000000000000000000000000000000000000000000000000000000000000000000000000000000000000000000000000000000000000000000000000000000000000000000000000000000000000000000000000000000000000000000000000000000000000000000000000000000000000000000000000000000000000000000000000000000000000
#063321:00000000000000000000000000000000005500000000000000000000000000002500000000000000000000000000000000000000000000000000000000000000
#0633a3:0014
#063343:00000000000000000000342400000000
#0633a1:00000000000000000000001400000000
#063341:00000000000000000000000000342400
#0643a1:14240000
#064321:00001424
#0653a1:140000000000000000000000000000000000000000000000000000000000000000000000000000000000000000000024000000000000000000000000000000000000000000000000000000000000000000000000000000000000000000000000000000000000000000000000000000000000000000000000000000000000000000000000000000000000000000000000000000000000000000000000000000000000000000000000000000000000000000000000000000000000000000000000000000000000000000000000000000000000000000000000000000000000000000000000000000000000000000000000000000000000000000000000000000000000000000000000000000000000000000000000000000000000000000000000000000000000000000000000000000000000000000000000000000000000000000000000000000000000000000000000000000000000000000000000000000000000000000000000000000000000000000000000000000000000000000000000
#065361:000000000000000000000000000000000000000000000000000000000000000000000000000000000000000000000000001400000000000000000000000000000000000000000000000000000000000000000000000000000000000000000024000000000000000000000000000000000000000000000000000000000000000000000000000000000000000000000000000000000000000000000000000000000000000000000000000000000000000000000000000000000000000000000000000000000000000000000000000000000000000000000000000000000000000000000000000000000000000000000000000000000000000000000000000000000000000000000000000000000000000000000000000000000000000000000000000000000000000000000000000000000000000000000000000000000000000000000000000000000000000000000000000000000000000000000000000000000000000000000000000000000000000000000000000000000000000000000000
#065321:000000000000000000000000000000000000000000000000000000000000000000000000000000000000000000000000000000000000000000000000000000000000000000000000000000000000000000000000000000000000000000000000001400000000000000000000000000000000000000000000000000000000000000000000000000000000000000000024000000000000000000000000000000000000000000000000000000000000000000000000000000000000000000000000000000000000000000000000000000000000000000000000000000000000000000000000000000000000000000000000000000000000000000000000000000000000000000000000000000000000000000000000000000000000000000000000000000000000000000000000000000000000000000000000000000000000000000000000000000000000000000000000000000000000000000000000000000000000000000000000000000000000000000000000000000000000000000000000
#065361:000000000000000000000000000000000000000000000000000000000000000000000000000000000000000000000000000000000000000000000000000000000000000000000000000000000000000000000000000000000000000000000000000000000000000000000000000000000000000000000000000000000000000000000000000000000000000000000000001400000000000000000000000000000000000000000000000000000000000000000000000000000000000000000024000000000000000000000000000000000000000000000000000000000000000000000000000000000000000000000000000000000000000000000000000000000000000000000000000000000000000000000000000000000000000000000000000000000000000000000000000000000000000000000000000000000000000000000000000000000000000000000000000000000000000000000000000000000000000000000000000000000000000000000000000000000000000000000000
#0653a1:000000000000000000000000000000000000000000000000000000000000000000000000000000000000000000000000000000000000000000000000000000000000000000000000000000000000000000000000000000000000000000000000000000000000000000000000000000000000000000000000000000000000000000000000000000000000000000000000000000000000000000000000000000000000000000000000000000000000000000000000000000000000000000000000001400000000000000000000000000000000000000000000000000000000000000000000000000000000000000000000000000000000000000000000000000000000000000000000000000000000000000000000000000000000000000000000000000000000000000000000000000000000000000000000000000000000000000000000000000000000000000000000000000000000000000000000000000000000000000000000000000000000000000000000000000000000000000000000
#066321:2c
#000930:001100000000000000000000000000000000000000000000000000000000000000000000000000000000000000000000000000000000000000000000000000000000000000000000000000000000000000000000000000000000000000000000000000000000000000000000000000000000000000000000000000000000000000000000000000000000000000000000000000000000000000000000000000000000000000000000000000000000000000000000000000000000000000000000210000000000000000000000000000000000000000000000000000000000000000000000000000000000000000000000000000000000000000000000000000000000000000000000000000000000000000000000000000000000000000000000000000000000000000000000000000000000000000000000000000000000000000000000000000000000000000000000000000000000000000000000000000000000000000000000000000000000000000000000000000000000000000000000
#000961:001100000000000000000000000000000000000000000000000000000000000000000000000000000000000000000000000000000000000000000000000000000000000000000000000000000000000000000000000000000000000000000000000000000000000000000000000000000000000000000000000000000000000000000000000000000000000000000000000000000000000000000000000000000000000000000000000000000000000000000000000000000000000000000000210000000000000000000000000000000000000000000000000000000000000000000000000000000000000000000000000000000000000000000000000000000000000000000000000000000000000000000000000000000000000000000000000000000000000000000000000000000000000000000000000000000000000000000000000000000000000000000000000000000000000000000000000000000000000000000000000000000000000000000000000000000000000000000000
#000992:001100000000000000000000000000000000000000000000000000000000000000000000000000000000000000000000000000000000000000000000000000000000000000000000000000000000000000000000000000000000000000000000000000000000000000000000000000000000000000000000000000000000000000000000000000000000000000000000000000000000000000000000000000000000000000000000000000000000000000000000000000000000000000000000210000000000000000000000000000000000000000000000000000000000000000000000000000000000000000000000000000000000000000000000000000000000000000000000000000000000000000000000000000000000000000000000000000000000000000000000000000000000000000000000000000000000000000000000000000000000000000000000000000000000000000000000000000000000000000000000000000000000000000000000000000000000000000000000
#0009c3:001100000000000000000000000000000000000000000000000000000000000000000000000000000000000000000000000000000000000000000000000000000000000000000000000000000000000000000000000000000000000000000000000000000000000000000000000000000000000000000000000000000000000000000000000000000000000000000000000000000000000000000000000000000000000000000000000000000000000000000000000000000000000000000000210000000000000000000000000000000000000000000000000000000000000000000000000000000000000000000000000000000000000000000000000000000000000000000000000000000000000000000000000000000000000000000000000000000000000000000000000000000000000000000000000000000000000000000000000000000000000000000000000000000000000000000000000000000000000000000000000000000000000000000000000000000000000000000000
#048921:000000000000001400540054
#048961:000000005454
#049961:24
