This file was generated by Ched 2.7.0.0.
#TITLE ""
#ARTIST ""
#DESIGNER ""
#DIFFICULTY 0
#PLAYLEVEL
#SONGID ""
#WAVE ""
#WAVEOFFSET 0
#JACKET ""
#REQUEST "ticks_per_beat 480"
#00002: 4
#BPM01: 150
#00008: 01
#TIL00: ""
#VOLUME: ""
#HISPEED 00
#MEASUREHS 00
#0321f:11
#03217:0000000000130013
#03219:0000001300000000
#0321b:0013000000000000
#03212:23232323
#01015:0013000000001300
#01018:0000130000130013
#0101b:1313
#01012:0000001300000000
#00818:0013000000001300
#00815:0000130000130013
#00812:2313
#0081b:2300001300000000
#00810:41
#08015:1300001300130013
#08012:00130013
#08018:0013000013000000
#0801b:00130013
#07818:1300001300000013
#07815:00131313
#07812:0013000000130000
#0781b:00130013
#07615:1300001300000013
#07618:00131313
#0761b:0013000000130000
#07612:00130013
#07610:41
#01212:1300000000000013
#01212:13
#01218:0000130000130000
#01215:0013000013001300
#0121b:0000001300000000
#06912:00231300
#06915:0013000000130000
#0691b:23132313
#06918:0000001300000000
#04316:00130000
#04312:13001313
#04318:0013
#0431b:00130000
#04314:0000001300000000
#04319:0013000000000000
#04317:53
#05117:00130000
#0511b:13001313
#05115:0013
#05112:00130000
#05119:0000001300000000
#05114:0013000000000000
#05116:53
#0611b:00231300
#06118:0013000000130000
#06112:23132313
#06115:0000001300000000
#03915:00130013000000000000000000000000
#03912:00000000001300130000000013000000
#0391b:0000231323000000
#03918:2313000000000000
#03812:13231323
#0381b:23132313
#03815:0000002300000023
#03818:0023000000230000
#03715:0000000000000013
#03718:00000000000000130000000013000000
#0371b:2300230000130000
#03712:0000001313000000
#03714:0013000000000000
#0531b:1313
#05318:0013001300130013
#05315:00130013
#05312:2424
#0521b:1313
#05218:0013001300130013
#05215:00130013
#05212:2424
#05210:41
#04818:13000013
#04815:0000130000130000
#0481b:0000130000000013
#04812:23001313
#05012:0000531300005313
#05016:0013000053130000
#05018:00130013
#0501b:1313
#05014:00000053000000530000005300000053
#0421b:0000531300005313
#04217:0013000053130000
#04215:00130013
#04212:1313
#04219:00000053000000530000005300000053
#04015:13000013
#04018:0000130000130000
#04012:0000130000000013
#0401b:23001313
#0401f:21
#03015:13000013
#0301b:00130013
#03012:0000001313000013
#03018:00000000000000130000130000000000
#02912:1300000000000013
#02918:0013131300000000
#02915:00000013001300000000000000000000
#0291b:00000000000000000000001300000000
#0351b:00130013
#03512:0000001300000000
#03515:00000000000000130000000000000000
#06618:0000001300001313
#06615:0013000013130000
#06612:13000013
#0661b:23130000
#07518:00000000000000000000000000130013
#07515:1300000000000013
#07512:00001313
#07412:1313
#07415:0000130000000013
#0741b:13
#07418:0013000000000000
#0561b:1313
#05618:0000130000000013
#05612:13
#05615:0013000000000000
#0571b:00001313
#05718:13
#08215:2313000000130000
#08212:0000001300000013
#08218:2323
#0821b:00230023
#0831b:0013001300130000
#08315:00130000001300000013000029000000
#08312:00000013000000130000001300000000
#08318:23232300
#07315:00000000000000000013001300000000
#07318:0000000013132600
#0731b:1313000000000000
#07316:14
#07312:0000131300000000
#07317:00130000
#07213:00140000
#07218:00130000
#07214:0014
#07219:0013
#07215:00000014
#0721a:00000013
#07217:13
#07212:24
#06715:0000001300001300
#06718:0000001300000013
#0671b:1313000000001300
#06712:1313000000000013
#06815:13000000000000130000000000000013
#0681b:2300001323000013
#06818:00000013000000000000001300000000
#06812:0013230000132300
#07112:2400000013130000
#07118:1313001300001300
#07115:0000130000000013
#0711a:0024
#07015:0000130013130000
#0701b:1313000000000013
#07018:0000001300001300
#0701a:0024
#07012:24
#05815:2300000000001313
#0581b:00000013
#05818:2300000013130000
#05812:0013
#06518:00000000000000000013001300000000
#06515:0000000013130000
#06512:1313000000002600
#06516:14130000
#0651b:0000131300000000
#06419:00140000
#06415:00130000
#06418:0014
#06414:0013
#06417:00000014
#06413:00000013
#06416:13
#0641a:24
#06410:41
#05918:0000001300001300
#05915:0000001300000013
#05912:1313000000001300
#0591b:1313000000000013
#06018:13000000000000130000000000000013
#06012:2300001323000013
#06015:00000013000000000000001300000000
#0601b:0013230000132300
#01515:00130013000000000013001300000000
#01518:2313000023132600
#01512:00000000001300130000000000000000
#0151b:0000231300000000
#01412:0000000000130013
#01415:0013001300000000
#0141b:00002323
#01418:23230000
#0551a:14
#05518:0013
#05515:00131300
#0551b:0000131300002300
#05512:13001300000000000033333323000000
#04512:1313
#04515:0013001300130013
#04518:00130013
#0451a:2424
#0491b:0013000000000000
#04918:1300001300001300
#04912:1300001300000000
#04915:0013000000000013
#04112:0013000000000000
#04115:1300001300001300
#0411b:1300001300000000
#04118:0013000000000013
#04110:41
#03318:0000000000000013
#0331b:0000001300131300
#03319:0013000000000000
#03315:00000000000000000000001300000000
#03312:23232300
#03415:0000000000000013
#03418:0000001300000000
#03616:0000000000130013
#03614:0000001300000000
#03612:0013000000000000
#0361b:23232323
#0281b:13000000001300130000000000000033
#02812:00000000130013000000003300000000
#02818:00000013000000000000000000000000
#02815:0013000000000000
#0281a:0000000000000033
#02819:00000000000000000000000000330000
#02813:0000000000330000
#02814:00000000000000000033000000000000
#02618:0000001300000013
#0261b:0013
#02612:0013000000001300
#02615:13
#02715:00001300000000000000000013000013
#02718:0000000013000013
#0271b:0000001300000000
#02415:0000001300000013
#02412:0013
#0241b:0013000000001300
#02418:13
#02518:0013000000001300
#02515:0013
#02512:0000001300000000
#08418:16
#08412:16
#04712:1400131300002300
#04715:0013
#04718:00131300
#0471b:13001300000000000033333323000000
#02312:00131300
#0231b:00131300
#02318:0013000000121200
#02315:0000001300000000
#02316:00000000000000000000001200001200
#02212:0000130013000013
#02218:0013000013000013
#02215:1300001300130000
#0221b:1300130000130000
#02118:0013000013000000
#02112:00131300
#02115:0000001300001300
#0211b:00130000
#0201b:13131300
#02018:0000001300001300
#02015:0013000013000000
#02012:1300130000000013
#02010:41
#0181b:00131300
#01818:1300001300000013
#01815:0013000013000000
#01812:13130013
#01715:0013000013000000
#0171b:00131300
#01718:0000001300001300
#01712:00130000
#00715:00000000000000130013001300000000
#00714:00000000001300000000000000000000
#00713:00000013000000000000000000000000
#00712:00130000000000000000000000000000
#00718:0000001323132600
#0071a:0013000000000000
#00719:00230000
#0071b:23
#00615:2313130000000013
#0061b:0000001300001300
#00612:00000000000000130000001300000000
#00618:00000000000000000013000000000000
#00518:2313130000000013
#00512:0000001300001300
#0051b:00000000000000130000001300000000
#00515:00000000000000000013000000000000
#00415:2313130000000013
#0041b:0000001300001300
#00412:00000000000000130000001300000000
#00418:00000000000000000013000000000000
#00215:0000001300001300
#0021b:2313130000000013
#00218:00000000000000130000001300000000
#00212:00000000000000000013000000000000
#00312:1313130000000000
#00318:0000001300001300
#00315:00000000000000130000001300000000
#0031b:00000000000000000013000000000000
#00118:0000001300001300
#00112:1313130000000013
#00115:00000000000000130000001300000000
#0011b:00000000000000000013000000000000
#00015:0000001300001300
#0001b:2313130000000013
#00018:00000000000000130000001300000000
#00012:00000000000000000013000000000000
#0311b:13
#03118:00000000130000001300001300000000
#03112:0013
#03115:1300001300130000
#01612:23131300
#01615:0000001300001300
#01618:0013000013000000
#0161b:2300130000000013
#0631b:0000000013130000
#06315:1313001300001300
#06318:0000130000000013
#06312:0024
#0631a:24
#06218:0000130013130000
#06212:1313000024000013
#06215:0000001300001300
#0621a:24
#05418:00000014
#05416:0014
#05414:00140000
#05412:24
#04412:1313
#04415:0013001300130013
#04418:00130013
#0441a:2424
#01918:00000000000013000000001200001200
#01916:0000000000121200
#0191b:00131300
#01912:00131300
#01915:0013000000000000
#04614:00000014
#04616:0014
#04618:00140000
#0461a:24
#08115:0000002400000024
#08112:0024000000240000
#07917:0000000000240024
#0791a:0024002400000000
#07715:0000000000240024
#07712:0024002400000000
#01117:0000000000000024
#01118:0000000000240000
#01119:0000002400000000
#0111a:0024000000000000
#01315:0024000000000000
#01314:0000002400000000
#01313:0000000000240000
#01312:0000000000000024
#00915:0000000000000024
#00914:0000000000240000
#00913:0000002400000000
#00912:0024000000000000
#0871c:0052
#08712:0052
#05852:00350000
#05859:00450000
#05855:23
#05858:23
#06652:53330000
#0665b:43630000
#06658:0000002300000000
#06655:0023000000000000
#05752:00000033
#0575b:00001343
#08155:0000001400000014
#08152:0014000000140000
#07957:0000000000140014
#0795a:0014001400000000
#07755:0000000000140014
#07752:0014001400000000
#01157:0000000000000014
#01158:0000000000140000
#01159:0000001400000000
#0115a:0014000000000000
#01355:0014000000000000
#01354:0000001400000000
#01353:0000000000140000
#01352:0000000000000014
#00955:0000000000000014
#00954:0000000000140000
#00953:0000001400000000
#00952:0014000000000000
#0695b:1313
#06952:00135300
#06955:0000000000230000
#06152:1313
#0615b:00136300
#06158:0000000000230000
#0395b:0013
#03952:00000013
#05452:14
#05458:00000014
#05456:0014
#05454:00140000
#05352:1414
#05252:1414
#04852:33
#04858:53
#04855:00330000
#0485b:00630000
#0405b:43
#04055:63
#04058:00430000
#04052:00530000
#07252:14
#07253:00140000
#07254:0014
#07255:00000014
#0645a:14
#06459:00140000
#06458:0014
#06457:00000014
#08355:00000019
#07358:00000016
#07356:14
#06852:00130013
#0685b:1313
#0715a:0014
#07152:14
#0705a:0014
#07052:14
#06552:00000016
#06556:14
#01558:00000016
#0605b:00130013
#06052:1313
#05552:00000013
#0555b:00000013
#0555a:14
#05555:0053
#0465a:14
#04654:00000014
#04656:0014
#04658:00140000
#06352:0014
#0635a:14
#06252:0014
#0625a:14
#0475b:00000013
#04752:14000013
#04758:0063
#00758:00000016
#0455a:1414
#0445a:1414
#04352:1313
#04358:0063
#0435b:00130000
#0515b:1313
#05155:0053
#05152:00130000
#05058:00130013
#0505b:1313
#03055:53
#02952:0000000000000053
#0295b:00000000000000000000006300000000
#04255:00130013
#04252:1313
#07552:0013
#07452:0013
#0565b:0013
#06755:0000006300000000
#06758:0000005300000000
#0675b:0063000000000000
#05958:0000005300000000
#05955:0000006300000000
#05952:0053000000000000
#0495b:0063000000000000
#04958:0000005300000000
#04952:0000005300000000
#04152:0053000000000000
#04155:0000006300000000
#0415b:0000006300000000
#03455:0000000000000053
#03458:0000006300000000
#03552:0000005300000000
#03555:00000000000000530000000000000000
#02658:0000000000000053
#0265b:0063
#02758:0053
#02455:0000000000000063
#02452:0053
#02555:0063
#08458:56
#08452:66
#02252:0000000000000053
#02158:0053
#02055:0063
#02052:0000000000000053
#0185b:0063
#01858:0000000000000053
#01755:0063
#00655:0000000000000063
#0065b:00000063
#00558:0000000000000053
#00552:00000053
#00455:0000000000000063
#0045b:00000063
#00255:00000063
#0025b:0000000000000063
#00158:00000053
#00152:0000000000000053
#00055:00000063
#0005b:0000000000000063
#03158:00000000000000000000005300000000
#03155:53
#01658:0053
#0165b:0000000000000063
#00358:00000063
#000350:00000013
#000320:0000000000000023
#0003b1:0000000000000013
#001381:23
#001381:00000013
#0013b1:0000000000000023
#001320:0000000000000013
#002350:23
#002350:00000013
#002320:0000000000000023
#0023b1:0000000000000013
#003381:23
#003381:00000013
#0043b1:23
#0043b1:00000013
#004381:0000000000000023
#004350:0000000000000013
#005320:23
#005320:00000013
#005350:0000000000000023
#005381:0000000000000013
#0063b1:23
#0063b1:00000013
#006381:0000000000000023
#006350:0000000000000013
#007320:23
#009380:1323000000000000
#009390:0000132300000000
#0093a0:0000000013230000
#0093b0:0000000000001323
#011350:1323000000000000
#011340:0000132300000000
#011330:0000000013230000
#011320:0000000000001323
#0133b0:1323000000000000
#0133a0:0000132300000000
#013390:0000000013230000
#013380:0000000000001323
#016380:0013
#0163b0:00000023
#0163b0:0000000000000013
#017380:0023000000000000
#017350:0013
#017320:00000023
#0183b0:0013
#018380:00000023
#018380:0000000000000013
#0193b0:0023000000000000
#020350:0013
#020320:00000023
#020320:0000000000000013
#021350:0023000000000000
#021380:0013
#0213b0:00000023
#022320:0000000000000013
#023350:0023000000000000
#024320:13230000
#024350:0033000000000000
#024381:00132300
#0243b1:0000003300000000
#024320:0013
#024350:00000023
#024350:0000000000000013
#025320:0033000000000000
#025350:00230000
#0253b1:00132300
#025381:0000003300000000
#025350:0013
#025320:00000023
#0263b0:13230000
#026380:0033000000000000
#026351:00132300
#026321:0000003300000000
#0263b0:0013
#026380:00000023
#026380:0000000000000013
#0273b0:0033000000000000
#027380:00230000
#027321:00132300
#027351:0000003300000000
#027380:0013
#0273b0:00000023
#028350:0013
#028340:00000000000000000033000000000000
#028330:0000000000330000
#028320:00000000000000000000003323000000
#028381:00000013
#028391:00000000000000000000000000330000
#0283a1:0000000000000033
#0283b1:00000000000000000000000000000033
#0293b1:23
#029351:00000000000000130000002300000000
#029321:00000000000000000033000000000000
#0293b0:00000000000000000000001300000000
#029380:0000000000000023
#029321:0000000000000013
#030351:33
#030321:00230000
#031351:13
#031321:00230000
#031381:00000000000000000000001300000000
#0323b1:23
#034351:1323000000000000
#0343b0:0013230000000000
#034321:0000132300000000
#034380:0000001300000000
#0343b0:0000000000230000
#034351:0000000000132300
#0343b0:0000000000001323
#034351:0000000000000013
#035321:0000003300000000
#035351:00000000000000330000000000000000
#036321:23
#040351:1323
#040321:00330000
#041321:0013000000230000
#041351:0000003300000000
#0413b0:0000001300000000
#041380:0000000000230000
#043380:0013
#0433b0:00000023
#047380:0013
#0473b0:00000000000000000033333323000000
#048380:1323
#0483b0:00330000
#0493b0:0013000000230000
#049380:0000003300000000
#049321:0000001300000000
#049351:0000000000230000
#051351:0013
#051321:00000023
#055351:0013
#055321:00000000000000000033333323000000
#056351:0000001333000000
#056331:00000000000000000000000000000000000000000000005300000000000000005300000000000000
#056341:0000000000000000000000000053000000000000
#056321:00000000000000000000000000000000000000000000000000000000005300000000003300000000
#057321:33000023
#057341:00530000530000005300005300000000
#057331:0053000000530000
#057351:00000053000053000053000000000000
#057361:00000000005300530000000000000000
#058351:13
#058321:00250000
#058380:13
#058390:00250000
#059320:0013000000230000
#059350:0000003300000000
#059381:0000001300000000
#0593b1:0000000000230000
#0613b1:00001323
#061381:0000000000530000
#066321:13230000
#066351:0053000000000000
#0663b0:00132300
#066380:0000005300000000
#0673b0:0013000000230000
#067380:0000003300000000
#067351:0000001300000000
#067321:0000000000230000
#069321:00001323
#069351:0000000000530000
#074381:0000001333000000
#0743a1:00000000000000000000000000000000000000000000005300000000000000005300000000000000
#074391:0000000000000000000000000053000000000000
#0743b1:00000000000000000000000000000000000000000000000000000000005300000000003300000000
#0753b1:33000023
#075391:00530000530000005300005300000000
#0753a1:0053000000530000
#075381:00000053000053000053000000000000
#075371:00000000005300530000000000000000
#077381:1323000000000000
#077381:0000132300000000
#0773b1:0000000013230000
#0773b1:0000000000001323
#079351:1323000000000000
#079351:0000132300000000
#079321:0000000013230000
#079321:0000000000001323
#081381:1323000000000000
#0813b1:0000132300000000
#081381:0000000013230000
#0813b1:0000000000001323
#084381:16
#0873c1:0022
#084320:16
#087320:0022
#042970:0013000000000000
#0429b0:00230000
#0429b0:0000001300000000
#042970:0023
#042970:0000000000130000
#0429b0:00000023
#0429b0:0000000000000013
#043970:23
#050960:0013000000000000
#050920:00230000
#050920:0000001300000000
#050960:0023
#050960:0000000000130000
#050920:00000023
#050920:0000000000000013
#051960:23
