This file was generated by Ched 2.7.0.0.
#TITLE ""
#ARTIST ""
#DESIGNER ""
#DIFFICULTY 0
#PLAYLEVEL
#SONGID ""
#WAVE ""
#WAVEOFFSET 0
#JACKET ""
#REQUEST "ticks_per_beat 480"
#00002: 4
#BPM01: 130
#00008: 01
#TIL00: ""
#VOLUME: ""
#HISPEED 00
#MEASUREHS 00
#00218:16
#00412:16
#0061a:14
#00714:14
#01112:14
#01110:41
#01218:14
#01314:14
#0141a:14
#01512:14
#01612:14
#0171a:14
#02014:14
#02118:14
#02212:14
#0231a:14
#02414:14
#02518:14
#02612:14
#02713:14
#02719:14
#02710:41
#0281a:14
#03012:14
#03118:14
#03218:14
#02912:14
#03314:14
#03310:41
#03414:14
#04412:0016
#04418:26
#0441f:21
#04612:16
#04618:0016
#04518:1616
#04510:41
#04712:1616
#05018:16
#05012:0016
#05118:16
#05112:0016
#05312:16
#05318:0016
#05518:16
#05512:0016
#05218:1616
#05412:1616
#06514:0014
#06510:41
#06712:14
#06718:0014
#06918:14
#06912:0014
#07114:14
#0711a:0014
#0371f:11
#00318:26
#00512:26
#07214:00343434
#01910:41
#008380:14
#009380:24
#0183a0:14343434
#0193a0:24
#0353a0:14
#036380:34
#037380:34
#0383a0:24
#039320:14
#040340:34
#041340:34
#042320:34
#043320:24
#048380:1626
#049320:1626
#056380:1626
#057320:1626
#058380:1636
#059380:3626
#060320:1600003600360036
#061320:00003626
#063380:0014
#064380:34
#0643a0:00000034
#0653a0:24
#066380:1424
#068340:1424
#0703a0:1424
#072320:14
#072340:00343434
#073340:3424
