This file was generated by Ched 2.7.0.0.
#TITLE ""
#ARTIST ""
#DESIGNER ""
#DIFFICULTY 0
#PLAYLEVEL
#SONGID ""
#WAVE ""
#WAVEOFFSET 0
#JACKET ""
#REQUEST "ticks_per_beat 480"
#00002: 4
#BPM01: 195
#00008: 01
#TIL00: ""
#VOLUME: ""
#HISPEED 00
#MEASUREHS 00
#0711f:11
#07118:14
#08912:0016
#08918:16
#08612:1616
#08518:1616
#08412:0016
#08418:16
#08410:41
#08312:0016
#0831f:21
#08318:26
#07414:14
#07314:14
#07218:14
#07012:14
#06912:14
#0681a:14
#0671a:14
#06710:41
#05812:0016
#05818:16
#05712:0016
#05718:16
#05518:0016
#05512:16
#05218:1616
#05112:1616
#05018:0016
#05012:16
#04918:0016
#04912:26
#04712:0016
#04718:16
#04412:1616
#04318:1616
#04212:0016
#04218:16
#04112:0016
#04118:26
#04110:41
#03212:0014
#03218:14
#03112:0014
#03118:14
#03012:0014
#03018:14
#02912:0014
#0291a:14
#02814:0014
#0281a:14
#02714:0014
#0271a:14
#02614:0014
#0261a:14
#02514:0014
#0251a:14
#02510:41
#02412:14
#02312:14
#02218:14
#02118:14
#02014:14
#01914:14
#0181a:14
#0171a:14
#01612:14
#01518:14
#01414:14
#0131a:14
#01212:14
#01118:14
#01014:14
#0091a:14
#00910:41
#05310:41
#0013a0:14
#0023a0:24
#003340:14
#004340:24
#005380:14
#006380:24
#007320:14
#008320:24
#0333a0:14
#0343a0:24
#035320:14
#036320:24
#037380:14
#038380:24
#039340:1400000000000034
#040340:0024
#045380:1626
#046320:1626
#048380:1626
#053320:1626
#054380:1626
#056320:1626
#0593a0:14
#0603a0:24
#061320:14
#062320:24
#063380:14
#064380:24
#065340:14
#066340:24
#0753a0:14
#076380:34
#0773a0:34
#078380:24
#079320:14
#080340:34
#081320:34
#082340:24
#087380:1626
#088320:1626
#090380:1626
#091340:14
#092340:24
#093380:1400000000000034
#094380:0034003424000000
