This file was generated by Ched 2.7.0.0.
#TITLE ""
#ARTIST ""
#DESIGNER ""
#DIFFICULTY 0
#PLAYLEVEL
#SONGID ""
#WAVE ""
#WAVEOFFSET 0
#JACKET ""
#REQUEST "ticks_per_beat 480"
#00002: 4
#BPM01: 175
#00008: 01
#TIL00: ""
#VOLUME: ""
#HISPEED 00
#MEASUREHS 00
#0551f:0011
#0551a:0014
#0091a:14
#00910:41
#01014:14
#01118:14
#01212:14
#0131a:14
#01414:14
#01518:14
#01612:14
#02112:14
#02119:0014
#02213:14
#02518:16
#02512:0016
#02618:16
#02612:0016
#02718:16
#02712:0016
#02818:16
#02812:0016
#02912:16
#02918:0016
#03018:16
#03012:0016
#03118:16
#03312:16
#03318:0016
#03412:16
#03418:0016
#03512:16
#03518:0016
#03612:16
#03618:0016
#03718:16
#03712:0016
#03812:16
#03818:0016
#03912:16
#0431a:0014
#04414:0014
#04518:0014
#0601a:0014
#06113:14
#06119:0014
#04614:0014
#04918:0014
#05014:0014
#0511a:0014
#04812:0014
#04810:0041
#05318:0014
#05414:0014
#05212:0014
#0471a:0014
#06412:0016
#0641f:21
#06418:26
#06518:16
#06512:0016
#06618:16
#06612:0016
#06610:41
#06718:16
#06712:0016
#06818:1616
#06912:16
#06918:0016
#07012:1616
#07218:0016
#07212:26
#07312:16
#07318:0016
#07412:16
#07418:0016
#07512:16
#07518:0016
#07612:1616
#07718:16
#07712:0016
#07818:1616
#0841a:14
#08414:0014
#08518:14
#08512:0014
#0861a:14
#08614:0014
#08718:14
#08712:0014
#08014:0014
#0801a:24
#08010:41
#0811a:14
#08114:0014
#08218:14
#08212:0014
#08318:14
#08312:0014
#02412:0026
#03218:0026
#03210:0041
#00318:34
#00218:34
#00714:34
#00614:34
#02010:0041
#0013a0:14
#002380:34
#003380:34
#004380:24
#005320:14
#006340:34
#007340:34
#008340:24
#0173a0:14
#017380:00000034
#018380:0034
#0193a0:00340000
#0203a0:0024
#022380:0014
#023380:0024
#031320:0016
#032320:26
#039380:0016
#040380:26
#040320:0000001400000000
#042320:0000002400000000
#056320:0014
#057340:00340000
#058340:34
#058320:00000034
#060320:24
#062340:14
#063340:24
#071380:1626
#079320:1626
#0883a0:14
#0913a0:24
