This file was generated by Ched 2.7.0.0.
#TITLE ""
#ARTIST ""
#DESIGNER ""
#DIFFICULTY 0
#PLAYLEVEL
#SONGID ""
#WAVE ""
#WAVEOFFSET 0
#JACKET ""
#REQUEST "ticks_per_beat 480"
#00002: 4
#BPM01: 175
#00008: 01
#TIL00: ""
#VOLUME: ""
#HISPEED 00
#MEASUREHS 00
#0551f:0011
#0011a:14
#00214:14
#00318:14
#00412:14
#0051a:14
#00614:14
#00718:14
#00914:0014
#0091a:14
#00910:41
#01018:14
#01012:0014
#0111a:14
#01318:0014
#01312:14
#01414:14
#0141a:0014
#01214:14
#01218:0014
#01512:14
#01618:14
#01714:14
#01712:00000014
#01814:0014
#01912:00140000
#02118:14
#02112:0014
#0221a:1414
#02212:0014
#02414:00000014
#0241a:0024
#0251a:1414
#02514:00140000
#02518:00000034
#02618:00000014
#02612:0024
#02712:1414
#02718:00140000
#02714:00000034
#02814:00000014
#0281a:0024
#02918:1414
#02912:00140000
#0291a:00000034
#03012:0014
#03016:00000014
#0301a:34
#0311a:14
#03116:00140000
#0321a:00000014
#03214:0024
#03210:0041
#03314:1414
#0331a:00140000
#03312:00000034
#03518:1414
#03512:00140000
#0351a:00000034
#03412:00000014
#03418:0024
#03618:00000014
#03612:0024
#03714:1414
#0371a:00140000
#03712:00000034
#0381a:0014
#03816:00000014
#03812:34
#03916:00140000
#03912:14
#04212:00000014
#0421a:0000002400000000
#04318:14
#04314:00140000
#0431a:00001414
#04412:14140000
#04418:0014
#04414:00000014
#0451a:14
#04512:00140000
#04518:0014
#04514:00000014
#04618:00001414
#0461a:14
#04612:00140000
#04714:14140000
#04918:14
#04914:0014
#0501a:14
#05012:0014
#05314:14
#05318:0014
#05412:14
#0541a:0014
#0521a:0014
#05214:14
#05118:0014
#05618:0014
#0571a:00140000
#05818:14
#0581a:00000014
#06014:0014
#0611a:14
#06112:0014
#06212:14
#0621a:14
#04812:0014
#04810:0041
#06414:00140000
#06418:0014
#06412:00000014
#0641f:21
#0641a:24
#0651a:14
#06518:00340000
#06812:00140000
#0681a:0014
#06814:00000014
#06818:24
#07012:14
#07016:00140014
#0701a:0014
#06618:00140000
#06614:0014
#0661a:00000014
#06612:24
#06610:41
#06712:14
#06714:00340000
#0691a:14
#06918:00343400
#0761a:00140000
#07612:0014
#07618:00000014
#07614:24
#0781a:14
#07816:00140014
#07812:0014
#07712:14
#07714:00343400
#0721a:00140000
#07212:0014
#07218:00000014
#07214:24
#07314:14
#07312:00340000
#07412:00140000
#0741a:0014
#07414:00000014
#07418:24
#07518:14
#0751a:00340000
#08012:00140000
#08018:0014
#08014:00000014
#0801a:24
#08010:41
#0811a:14
#08116:0014
#08118:00140000
#08114:00000014
#08212:14
#0821a:00140000
#08214:0014
#08218:00000014
#08312:14
#08314:00140000
#08316:0014
#08318:00000014
#0841a:14140000
#08412:00001414
#08518:14140000
#08514:00001414
#0861a:14
#08616:00140014
#08612:0014
#0881a:14
#02010:0041
#0115a:64
#01552:54
#01754:64
#01752:00000064
#01854:0064
#01952:00640000
#02054:0014
#0225a:0054
#02252:0064
#0255a:0054
#02752:0064
#02958:0064
#03558:0064
#03354:0054
#03754:0054
#0095a:14
#05052:0054
#0545a:0064
#05658:0054
#0575a:00540000
#05858:54
#0585a:00000054
#06252:64
#0625a:54
#04852:0014
#06058:14
#0655a:54
#06752:64
#0695a:54
#07752:64
#07354:54
#07558:64
#0885a:54
#008320:1434003400002400
#0113a0:14
#011380:0024
#015320:14
#015340:0024
#017340:14
#017320:00000034
#018340:0034
#019320:00340000
#020340:5424
#0223a0:0014
#023380:0024
#022321:0014
#023341:0024
#0253a1:0014
#025381:00000034
#026381:24
#027321:0014
#027341:00000034
#028341:24
#029381:0014
#0293a1:00000034
#0303a1:34240000
#0313a1:0000000014340024
#031320:0000000014340024
#033340:0014
#033320:00000034
#034320:24
#035380:0014
#0353a0:00000034
#0363a0:24
#037340:0014
#037320:00000034
#038320:34240000
#039320:0000000014340034
#040320:0034002400000000
#0393a1:0000000014340034
#0403a1:0034002400000000
#0473a1:0000000014340034
#0483a1:00240000
#050321:0014
#051341:24
#0543a1:0014
#055381:24
#055341:0000000014343434
#056341:24
#056381:0014
#0573a1:00340000
#058381:34
#0583a1:00000034
#059381:0054
#060381:24
#062321:14
#063341:24
#0623a0:14
#063380:24
#0653a0:14
#065380:00342400
#067320:14
#067340:00342400
#0693a0:14
#069380:00343424
#0713a0:1434002400000000
#071321:1434002400000000
#073341:14
#073321:00342400
#075381:14
#0753a1:00342400
#077321:14
#077341:00343424
#079321:1434003400002400
#0793a0:1434003400002400
#087320:1434003400002400
#0873a1:1434003400002400
#0883a1:14
#091361:24
